#VERSION:0.83;
#TITLE:VOLARE (Latin Radio Mix);
#ARTIST:CAPTAIN JACK;
#GENRE:LATIN HOUSE;
#MUSIC:VOLARE (Latin Radio Mix).ogg;
#BANNER:VOLARE (Latin Radio Mix)-bn.png;
#BACKGROUND:VOLARE (Latin Radio Mix)-bg.png;
#CDTITLE:./CDTITLES/DANCEMANIA EX6.PNG;
#SAMPLESTART:63.161;
#SAMPLELENGTH:15;
#OFFSET:-0.058;
#BPMS:0=116;

//--------------- dance-single - B. M'Rey ----------------
#NOTEDATA:;
#STEPSTYPE:dance-single;
#DESCRIPTION:B. M'Rey;
#DIFFICULTY:Beginner;
#METER:1;
#RADARVALUES:0,0,0,0,0;
#NOTES:
0000
0000
0000
0000
,
0000
0000
0000
0000
,
0000
0000
0000
0000
,
0000
0000
0000
0000
,
0000
1000
0000
0000
,
0000
0100
0000
0000
,
0000
0010
0000
0000
,
0000
0100
0000
0000
,
0001
0100
0000
0000
,
0010
0100
0000
0000
,
0001
1000
0000
0000
,
0101
0000
0000
0000
,
0010
1000
0000
0100
,
0000
1000
0000
0000
,
0001
0100
0000
1000
,
0100
1000
0000
0000
,
0000
1000
0000
0100
,
0000
1000
0010
0100
,
0000
0100
0000
0010
,
0000
2000
0000
3000
,
0000
1000
0000
0100
,
0000
0200
0000
0000
,
0000
0300
0010
0100
,
0000
0000
0010
1000
,
0000
0000
0010
0100
,
0000
0000
0001
0010
,
0000
0000
0001
0100
,
0000
0010
0001
0010
,
0000
0000
0001
1000
,
0000
1000
0100
0010
,
0000
0000
0100
0010
,
0000
0000
0001
1000
,
0000
0000
0010
0100
,
0001
0000
0110
0000
,
0000
0000
0001
0100
,
0000
1000
0100
0010
,
0000
0000
0001
1000
,
0000
1000
0010
1000
,
0000
0000
0001
1000
,
0000
1000
0100
0010
,
0000
0000
0010
0100
,
0000
1000
0100
1000
,
0000
0000
0010
0100
,
0000
0100
0001
0100
,
0000
0000
0010
1000
,
0000
0100
0001
2000
,
0000
0000
0000
0000
,
0000
3000
0000
0000
;

//--------------- dance-single - B. M'Rey ----------------
#NOTEDATA:;
#STEPSTYPE:dance-single;
#DESCRIPTION:B. M'Rey;
#DIFFICULTY:Easy;
#METER:5;
#RADARVALUES:0,0,0,0,0;
#NOTES:
0000
0000
0000
0000
,
0000
0000
0000
0000
,
0000
0000
0000
0000
,
0000
0000
0000
0000
,
0000
1000
0000
0000
,
0000
0010
0000
0000
,
0000
0100
0000
0001
,
0000
0010
0000
0000
,
1000
1000
0100
1000
,
0100
0010
0000
0010
,
0001
1000
0001
0000
,
0001
0100
0000
1001
,
0000
0010
1000
0000
0100
0000
0010
0000
,
0100
1000
0000
0010
,
0000
0001
0010
0000
0001
0000
1000
0000
,
0100
1000
0000
0000
,
0000
0100
0010
0100
,
0001
0010
0100
1000
,
0000
0010
0001
0010
,
0001
2000
0000
3000
,
0001
0010
0001
1000
,
0100
1000
0200
0000
,
0000
0310
0000
0100
,
0000
0010
0001
0010
,
0000
0000
0100
1000
,
0001
0000
0001
0000
,
0000
0000
0010
0100
,
0000
0010
0001
0100
,
0000
0000
0010
0100
,
0000
1000
0100
0010
,
0000
0100
1000
1000
,
0100
1000
0100
0010
,
0000
0010
0001
1000
,
0001
0000
0001
0100
,
0000
0000
1001
0000
0000
0010
1000
0000
,
0100
0010
0100
1000
,
0000
0000
0010
0000
0000
0001
0010
0000
,
0001
1000
0100
1000
,
0000
0000
0001
0000
0000
0100
0001
0000
,
1000
0100
1000
0100
,
0000
0000
0100
0000
0000
0010
0001
0000
,
0100
0010
0100
0010
,
0000
0000
0001
0000
0000
1000
0001
0000
,
1000
0001
0100
0010
,
0000
0000
0100
0000
0000
0010
0001
0000
,
0010
0100
1000
0002
,
0000
0000
0000
0000
,
0000
0003
0000
0000
;

//--------------- dance-single - B. M'Rey ----------------
#NOTEDATA:;
#STEPSTYPE:dance-single;
#DESCRIPTION:B. M'Rey;
#DIFFICULTY:Medium;
#METER:7;
#RADARVALUES:0,0,0,0,0;
#NOTES:
0000
0000
0000
0000
,
0000
0000
0000
0000
,
0000
0000
0000
0000
,
0000
0000
0000
0000
,
0000
0000
1000
0000
0001
0000
0000
0000
0000
0000
0010
0000
0100
0000
0000
0010
,
0000
0001
1000
0000
0000
0000
0000
0000
,
0000
0000
0001
0000
0010
0000
0000
0000
0000
0000
1000
0000
0100
0000
0000
0010
,
0000
0001
1000
0000
0000
0000
0000
0000
,
0100
0000
0000
0000
1000
0000
0000
0001
0000
0000
0000
0000
0110
0000
0000
0000
,
1000
0010
0010
1000
,
0010
0000
0000
0000
0001
0000
0000
0100
0000
0000
0000
0000
0000
0000
0100
0000
,
1000
0100
1000
0000
0100
0001
1000
0000
,
0000
0000
0010
0000
0100
0000
0000
0000
0000
0000
0001
0000
0010
0000
0000
0100
,
0000
0001
0010
0000
1000
0000
0100
0000
,
0010
0000
0001
0000
0010
0000
0001
0000
0000
0000
0100
0000
1000
0000
0000
0100
,
0000
0001
0100
0000
0000
0001
1000
0000
,
0010
0001
0100
0000
1000
0000
0001
0000
,
1000
0000
0010
0100
1000
0001
0010
0000
,
0100
1000
0010
0000
0100
0000
0001
0000
,
0010
0002
0000
0013
,
0100
0010
0001
1000
0100
0000
0010
0001
,
0100
0020
2000
0000
,
0000
0000
3030
0000
0001
0000
0000
0000
0100
0000
0000
0000
0001
0000
0000
0010
,
0000
0001
0020
0230
,
1300
0000
0000
0000
0010
0000
0000
0000
1000
0000
0000
0000
0010
0000
0000
1000
,
0000
0000
0100
0000
0010
0100
0010
0000
,
0010
0000
0100
0000
1000
0100
0010
0000
,
0100
0000
0001
0000
0010
0000
0000
1000
0000
0000
0010
0000
0100
0000
0000
0000
,
0010
0000
0001
0000
0010
1000
0001
0000
,
0100
0000
0001
0000
0010
0000
0000
1000
0000
0000
0100
0000
1000
0000
0000
0000
,
0010
0000
0000
0000
0100
0000
0000
0000
0100
0000
0000
0000
1000
0000
0000
0001
,
0000
0100
0010
0000
1000
0000
0010
0000
,
0010
0000
0100
0000
1000
0000
0000
0000
0010
0000
0000
0000
0001
0000
0000
0100
,
0000
0000
0000
0100
1000
0100
1000
0000
,
0100
0001
1000
0000
0100
0010
0100
0000
,
0010
0000
0001
0000
0010
0000
0000
0100
0000
0000
0001
0000
0010
0000
0000
0000
,
1000
0000
0100
0000
0010
0001
0010
0001
,
0000
0000
0100
0000
1000
0000
0000
0100
0000
0000
0001
0000
0100
0000
0000
0000
,
0100
0001
1000
0000
0001
0010
0100
0000
,
0010
0000
0001
0000
0010
0000
0000
0100
0000
0000
0001
0000
0010
0000
0000
0000
,
1000
0000
0100
0000
0010
0001
0010
0001
,
0000
0000
0100
0000
1000
0000
0000
0100
0000
0000
0001
0000
0100
0000
0000
0000
,
0100
0001
1000
0000
0100
0010
0100
0000
,
0010
0000
0001
0000
0010
0000
0000
0100
0000
0000
0001
0000
0010
0000
0000
0000
,
1000
0000
0100
0000
0010
0001
0010
0001
,
0000
0000
0100
0000
1000
0000
0000
0100
0000
0000
0001
0000
0100
0000
0000
0000
,
0100
0001
1000
0000
0100
0001
0010
0100
,
0000
1001
0000
0000
;

//--------------- dance-single - B. M'Rey ----------------
#NOTEDATA:;
#STEPSTYPE:dance-single;
#DESCRIPTION:B. M'Rey;
#DIFFICULTY:Hard;
#METER:10;
#RADARVALUES:0,0,0,0,0;
#NOTES:
0000
0000
0000
0000
,
0000
0000
0000
0000
,
1000
0000
0000
0000
0001
0000
0000
0100
0000
0000
0000
0000
0000
0000
0010
0000
,
0001
0000
0010
0000
0100
0000
0000
0110
0000
0000
0110
0000
0110
0000
0000
0000
,
0000
0000
1000
0000
0001
0000
0000
0000
0000
0000
0010
0000
0100
0000
0000
1000
,
0000
0000
0001
0000
0010
0000
0000
0110
0000
0000
0110
0000
0110
0000
0000
0000
,
0000
0000
0001
0000
0010
0000
0000
0100
0000
0000
1000
0000
0100
0000
0000
0010
,
0000
0000
0001
0000
1000
0000
0100
0000
0000
0000
0001
1000
0001
0000
0000
0000
,
0100
0000
0100
0010
0001
1000
0010
0100
,
0002
0000
0023
0000
0031
0010
0100
0010
,
0001
0000
1000
0000
0001
0000
0010
0000
0100
0000
0010
0000
0100
0000
0000
0001
,
0000
0010
0000
0100
1000
0000
0010
0000
0100
0000
0010
0000
0100
0000
1000
0000
,
0001
0000
0100
0000
0010
0000
0000
0000
0010
0000
1000
0000
0100
0000
0000
0010
,
0000
0010
0100
0000
0001
0100
0010
0000
,
0100
0000
1000
0000
0010
0000
0100
0000
0000
0000
1000
0000
0100
0000
0000
1000
,
0000
0010
0001
0000
0010
0100
0010
0000
,
0010
1000
0010
0100
0010
1000
0100
0010
,
0100
1000
0100
0010
0001
1000
0100
0000
,
0100
0000
0100
1000
0010
1000
0100
1000
,
0010
0100
0020
0000
0001
0000
0031
0000
,
0010
0100
0010
0100
0001
0010
0001
0010
,
0100
0000
0010
0001
0000
0000
0200
0000
0010
0000
0010
0000
0310
0000
1000
0000
,
0000
0000
0100
0010
0100
0000
0000
0000
0001
0000
0000
0000
1000
0000
0000
0010
,
0000
0100
1000
0000
0200
0000
2300
0000
,
3100
0000
0010
0000
0100
0000
0000
0000
0100
0000
0000
0000
1000
0000
0000
0100
,
0000
0000
0000
0010
0100
0001
1000
0000
,
0010
0001
1000
0000
1000
0010
0100
0000
,
0010
0000
0100
0000
0010
0000
0000
0001
0000
0000
0010
0000
1000
0000
0000
0000
,
1000
0001
0010
0000
0000
0100
0010
0001
,
0000
0000
0100
0000
0010
0000
0000
0001
0000
0000
0100
0000
0010
0000
0000
0000
,
0100
0001
0010
0000
1001
0000
0100
0010
,
0001
1000
0010
0100
0002
0000
0023
0000
,
0031
0010
0100
0010
0001
1000
0001
0010
,
0100
0000
0010
0000
0100
0000
0000
0001
0000
0010
0000
0100
1000
0000
0010
0000
,
0100
0010
0100
1000
0001
0100
0010
0000
,
0010
0000
1000
0000
0100
0000
0000
0010
0000
0000
0010
0000
0100
0000
0000
0000
,
0001
0100
0010
0000
0100
1000
0010
0100
,
0000
0000
1000
0000
0100
0000
0000
1000
0000
0000
0010
0000
0001
0000
0000
0000
,
0010
0100
0010
0000
0100
0001
0100
0000
,
0100
0000
0010
0000
1000
0000
0000
0100
0000
0000
0001
0000
0100
0000
0000
0000
,
1000
0001
0100
0000
0100
0001
0010
0100
,
0000
0000
0001
0000
0010
0000
0000
0001
0000
0000
0100
0000
0010
0000
0000
0000
,
1000
0100
0010
0000
1000
0100
1000
0000
,
0100
0000
0010
0000
1000
0000
0000
0100
0000
0000
0001
0000
1000
0000
0000
0000
,
0010
0100
0010
0000
0010
0001
0100
0001
,
0000
0000
0100
0000
0010
0000
0000
0100
0000
0000
0001
0000
0100
0000
0001
0000
,
0010
0100
0010
0100
1000
0100
0010
0001
,
0000
0000
0010
0100
0010
0000
0000
0000
0000
0000
0000
0000
0000
0000
0000
0000
;
