#VERSION:0.83;
#TITLE:VIRTUAL MIND;
#ARTIST:Brian Morris feat.Thomas;
#GENRE:HIP HOP;
#MUSIC:VIRTUAL MIND.ogg;
#BANNER:VIRTUAL MIND-bn.png;
#BACKGROUND:VIRTUAL MIND-bg.png;
#CDTITLE:./CDTITLES/Dance ManiaX.PNG;
#SAMPLESTART:30.945;
#SAMPLELENGTH:15;
#OFFSET:-0.400;
#BPMS:0=128,86=256,86.75=128,94=256,94.75=128,95=256,96.25=128,99.5=256,100.25=128,103.5=256,104.25=128,107.5=256,108.25=128,121=512,123=128,125=512,127=128;
#STOPS:15=0.469,86=0.059,86.25=0.059,86.5=0.059,94=0.059,94.25=0.059,94.5=0.059,95=0.059,95.25=0.059,95.5=0.059,95.75=0.059,96=0.059,99.5=0.059,99.75=0.059,100=0.059,103.5=0.059,103.75=0.059,104=0.059,107.5=0.059,107.75=0.059,108=0.059,121=0.234,121.75=0.234,122.5=0.234,125=0.234,125.75=0.234,126.5=0.234;
#DISPLAYBPM:128.000;

//--------------- dance-single - B. M'Rey ----------------
#NOTEDATA:;
#STEPSTYPE:dance-single;
#DESCRIPTION:B. M'Rey;
#DIFFICULTY:Beginner;
#METER:5;
#RADARVALUES:0,0,0,0,0;
#NOTES:
0000
0000
0000
0000
,
0000
0000
0000
0000
,
0001
0000
0000
0000
,
0100
0000
0010
0000
,
0001
0000
0000
2000
0000
0000
0000
0000
,
3010
0000
0000
0200
0000
0000
0000
0000
,
0301
0000
0000
2000
0000
0000
0000
0000
,
3010
0100
0001
0000
,
0001
0000
1000
0010
,
0100
0000
0001
0010
,
1000
0000
0010
0100
,
0001
0000
1000
0000
,
0010
0100
0001
0000
,
1000
0000
0010
0100
,
0001
0010
1000
0000
,
0010
0100
0001
0000
,
1000
0010
0100
0000
,
0001
0010
1000
0100
,
0000
0010
0100
0001
,
0000
1000
0010
0000
,
0200
0000
0000
0000
,
0000
0000
0301
0000
,
0001
2000
0000
0000
,
0000
0000
0000
0000
,
3010
0000
0100
0000
0001
0001
0001
0000
,
1000
0000
0010
0000
0100
0100
0100
0000
,
0010
0000
1000
0000
0001
0001
0001
0000
,
0010
0000
0100
0000
1000
1000
1000
0000
,
0000
0100
0000
0010
,
0000
0001
0000
1000
,
0000
0010
0000
0100
,
0110
0001
0000
1000
,
1010
0200
0000
0000
,
0000
0000
0000
0000
,
0310
1001
0002
0000
,
0000
1003
0000
0000
,
0000
0010
0000
0100
,
0010
1000
0000
0001
,
0010
0001
0000
0100
,
0010
1000
0000
0010
,
0100
0001
0000
1000
,
0010
0000
0100
0010
,
1000
0001
0010
0001
,
0010
0100
0010
1000
,
0010
0101
0000
0000
;

//--------------- dance-single - B. M'Rey ----------------
#NOTEDATA:;
#STEPSTYPE:dance-single;
#DESCRIPTION:B. M'Rey;
#DIFFICULTY:Easy;
#METER:8;
#RADARVALUES:0,0,0,0,0;
#NOTES:
0000
0000
0000
0000
,
0000
0000
0000
0000
,
0100
1000
0100
0010
,
0100
1000
0001
0010
,
0001
0000
0010
0001
0000
0000
0100
0000
,
0010
0000
1000
0001
0000
0000
0010
0000
,
0001
0000
1000
0100
0000
0000
1000
0000
,
0110
0011
0110
1000
,
0001
0100
0000
0000
0001
0000
0010
0000
,
0001
0100
0000
0000
0010
0000
0100
0000
,
0010
0100
0000
0000
0001
0000
1000
0000
,
0010
1000
0100
0000
0010
0100
0010
0000
,
0010
0000
1000
0000
0001
0010
0100
0000
,
0010
1000
0100
1000
,
0100
0000
1000
0000
0001
0010
0000
1000
,
0001
1000
0010
0100
,
0010
0000
0100
0010
0100
0000
1000
0000
,
0001
0000
1000
0001
1000
0000
0100
0001
,
0100
0000
0100
0000
0010
0000
0100
0010
,
0001
0010
0001
1000
,
1100
1100
1100
1100
,
0010
0100
0010
1000
,
0110
0110
0110
0110
,
0001
1000
0100
1000
,
0110
0100
0010
0100
,
1001
0010
0100
1000
,
0110
0100
0001
0010
,
0011
1000
0100
0010
,
0000
0010
0100
0010
,
0001
0100
0001
1000
,
0100
0000
0000
0000
0010
0000
0000
0001
0000
0000
1000
0000
0010
0000
0000
0000
,
0100
0000
0000
0000
1000
0000
0000
0001
0000
0000
0100
0000
0000
0000
1000
0000
,
0010
0200
0001
1000
,
0001
1000
0301
0000
,
0001
0020
0001
0100
,
0001
1030
0000
1000
,
0100
1000
0100
0000
0001
0000
0010
0001
,
0100
0000
1000
0000
0010
0000
0100
1000
,
0010
0000
0100
0000
0001
0000
0010
1000
,
0100
0000
0010
0000
0100
0010
1000
0100
,
0001
0010
0100
1000
,
0001
0010
1000
0000
0001
0000
1000
0001
,
0010
0000
0100
0000
0010
0000
0100
1000
,
0001
0000
0100
0010
0001
0000
0010
0001
,
0100
1001
0000
0000
;

//--------------- dance-single - B. M'Rey ----------------
#NOTEDATA:;
#STEPSTYPE:dance-single;
#DESCRIPTION:B. M'Rey;
#DIFFICULTY:Medium;
#METER:10;
#RADARVALUES:1.604125,1.673159,1.936408,0.11458,2.938986,980,811,169,10,0,0,1.604125,1.673159,1.936408,0.11458,2.938986,980,811,169,10,0,0;
#NOTES:
0000
0000
0000
0000
,
0000
0000
0000
0000
,
0100
1000
0100
1000
,
0100
0010
0001
0020
,
0031
0000
0001
0100
0000
0100
0010
0100
,
0010
0000
0010
0100
0001
0000
0001
1000
,
0001
0000
0010
0100
0010
0000
0001
0000
,
0001
0010
0001
1000
0010
1000
0010
0001
,
1000
0001
0000
0001
0100
0010
0100
0001
,
1000
0001
0000
0001
0100
0010
1000
0100
,
1000
0001
0000
0010
0100
0001
0100
0001
,
0100
0010
1000
0100
1000
0000
1000
0000
,
0010
0001
0010
0001
1000
0000
1000
0000
,
1000
0001
0010
0001
0010
0001
1000
0100
,
1000
0100
1000
0010
0100
0000
1000
0010
,
1000
0001
1000
0001
0010
0000
0010
0000
,
0001
1000
0001
1000
0001
0100
0000
0100
,
0010
0100
0001
0010
0001
1000
0001
1000
,
0010
1000
0010
0100
0001
0100
0001
0100
,
0000
1000
0001
1000
0001
1000
0000
0100
,
0010
1000
0010
1000
,
0100
0010
0100
0010
,
0001
0010
0100
1000
,
0010
0100
0010
0100
,
0100
1000
0010
0000
0001
1000
0001
0000
,
0001
1000
0100
0000
0001
0010
0100
0000
,
0100
1000
0001
0000
0001
1000
0100
0000
,
0010
1000
0001
0000
0001
0100
0010
0000
,
0001
1000
0001
1000
0001
1000
0010
1000
,
0010
0100
0010
0100
0001
0010
0001
0010
,
0001
0000
0100
0000
1001
0000
0000
1001
0000
0000
1001
0000
0010
0000
0100
0000
,
0010
0000
1000
0000
1001
0000
0000
1001
0000
0000
1001
0000
0010
0000
0100
0000
,
0001
0100
1000
0001
1000
0001
0010
0001
,
0100
0010
0100
0010
0001
1000
0001
1000
,
0010
1000
0010
0100
0010
0100
0001
1000
,
0001
1000
0100
0000
0100
0000
0100
0000
,
0010
1000
0010
1000
0000
1000
0010
0100
,
0001
0100
0010
0100
0000
1000
0010
1000
,
0001
1000
0001
0100
0000
0100
0010
0100
,
0010
1000
0010
0000
0001
0000
0001
0010
,
0100
0010
0001
0000
0001
0010
0001
1000
,
0010
0100
0010
0000
0010
1000
0001
1000
,
0010
1000
0010
0000
0001
0100
0001
0100
,
0010
1000
0010
0000
0001
1000
0001
0010
,
0001
1001
0000
0000
;

//--------------- dance-single - B. M'Rey ----------------
#NOTEDATA:;
#STEPSTYPE:dance-single;
#DESCRIPTION:B. M'Rey;
#DIFFICULTY:Hard;
#METER:15;
#RADARVALUES:0,0,0,0,0;
#NOTES:
0000
0000
0000
0000
,
0000
0000
0000
0000
,
1000
0000
0001
0000
0010
0000
0100
0001
0000
0010
1000
0000
0100
0000
0010
0000
,
0001
0000
0000
0100
1000
0000
0001
0010
0000
0100
0010
0100
0020
0000
0000
0000
,
0130
0000
0010
1000
0100
0000
0002
0000
1003
0000
0010
0000
0100
0000
1000
0000
,
0100
0000
0010
0001
0100
0000
2000
0000
3001
0000
0010
0000
0001
0000
0100
0000
,
0010
0000
0100
1000
0010
0000
0200
0000
0301
0000
0010
0000
0100
0000
0010
0000
,
1001
0000
0000
0000
0110
0000
0000
1000
0001
0000
1000
0000
0001
0000
0010
0100
,
0001
0000
0100
0000
1000
0000
0001
0100
0010
0000
0010
1000
0100
0000
1000
0000
,
0001
0000
0010
0000
0100
0000
0100
0010
0001
0000
0100
1000
0100
0000
0001
0010
,
0100
0000
1000
0000
0001
0000
0001
0100
0001
0000
0010
1000
0100
0000
0001
0100
,
0010
0000
0001
0010
0001
0010
0001
0000
1000
0000
0010
0100
0010
0000
0001
0000
,
0001
0010
0000
0010
0001
0000
0010
1000
0000
1000
0010
0100
0001
0000
1000
0000
,
0100
0000
0010
1000
0100
0000
0001
0000
0100
0000
0001
0010
0100
0000
0010
1000
,
0100
1000
0100
0000
0001
0100
0001
1000
0010
0000
0100
0000
0010
1000
0001
0010
,
0100
0000
0001
0000
0010
0000
0001
1000
0010
0000
0001
1000
0001
1000
0001
0000
,
0010
0000
0010
0100
0010
0000
0100
1000
0100
0000
0010
0000
0001
0000
0001
1000
,
0001
0000
0010
0100
0001
0100
0010
0000
0100
0000
0100
0010
0100
1000
0010
0000
,
0010
0000
0010
1000
0100
1000
0001
0010
1000
0000
0100
1000
0100
0010
0001
0000
,
0100
0000
0100
1000
0001
0000
0001
1000
0001
0000
0010
0000
0100
0000
0100
1000
,
0001
0001
1000
1000
0001
0001
1000
1000
,
0001
0000
0000
0000
0010
0000
0000
0000
0001
1000
0001
0000
0001
0100
0010
0100
,
0001
0001
0100
0100
0001
0001
0100
0000
,
0001
0000
0000
0000
0010
0000
0000
0000
0001
0100
0001
0000
0001
1000
0010
1000
,
0100
0000
1000
0000
0100
0000
1000
0000
0100
0000
0010
0000
0001
0000
1000
0100
,
0001
0000
0010
0000
0001
0000
1000
0000
0100
0000
1000
0000
0100
0000
1000
0010
,
0001
0000
0010
0000
0100
0000
0010
0000
0001
0000
0010
0000
0001
0000
1000
0100
,
0001
1000
0010
1000
0001
0010
0001
1000
,
0001
1000
0001
1000
0001
0100
0010
0100
0000
0100
0001
0010
0001
0010
0001
0000
,
0100
1000
0100
1000
0010
0100
0010
0000
0001
0000
0100
1000
0001
1000
0010
0000
,
0001
0000
0010
0000
0110
0000
0000
1001
0000
0000
0011
0000
0100
0000
0010
0000
,
0100
0000
0001
0000
0011
0000
0000
0011
0000
0000
0110
0000
1000
0000
0010
0000
,
0100
0010
1001
0010
0101
0001
0110
0010
,
1010
0000
0001
0000
0101
0000
0010
1000
0010
0000
0001
0000
0100
0000
0001
0100
,
0000
0010
0000
1000
0010
0000
0100
0000
1100
0000
0001
0000
0011
0000
0100
0000
,
1100
0010
0001
0000
1000
0000
0001
0000
,
1000
0000
0001
1000
0100
0000
0100
0000
0001
0000
0100
1000
0001
0000
0100
0010
,
0001
0000
0100
1000
0100
0000
0010
0000
0001
1000
0001
0010
0001
0000
0010
1000
,
0100
0000
0100
0010
0001
0000
1000
0000
0100
0000
0001
0100
0001
1000
0100
0010
,
0001
0000
0001
0010
0100
0000
0100
0000
0001
1000
0100
0010
0100
0000
0001
0100
,
0001
0000
0100
0010
0100
0010
0000
0010
0100
0000
0010
0100
0000
0100
0001
1000
,
0001
0000
0100
0000
0010
0000
0100
0000
0010
0000
0001
0100
0000
1000
0001
0010
,
0001
0000
0100
0010
0001
0000
0001
0100
0001
0100
0010
0000
0001
0000
0100
1000
,
0001
0000
0001
1000
0100
0000
0010
0100
0001
0000
0100
1000
0010
0000
0100
0000
,
0010
0001
0110
0000
0000
0000
0000
0000
;
