#VERSION:0.83;
#TITLE:VICTORY (SHARP BOYS WILD STRINGS EDIT);
#ARTIST:BOND;
#GENRE:PROGRESSIVE HOUSE;
#MUSIC:VICTORY (SHARP BOYS WILD STRINGS EDIT).ogg;
#BANNER:VICTORY (SHARP BOYS WILD STRINGS EDIT)-bn.png;
#BACKGROUND:VICTORY (SHARP BOYS WILD STRINGS EDIT)-bg.png;
#CDTITLE:./CDTITLES/DANCEMANIA PRESENTS AKI MONOGATARI 2007.PNG;
#SAMPLESTART:88.214;
#SAMPLELENGTH:15;
#OFFSET:-0.077;
#BPMS:0=130.025;

//--------------- dance-single - B. M'Rey ----------------
#NOTEDATA:;
#STEPSTYPE:dance-single;
#DESCRIPTION:B. M'Rey;
#DIFFICULTY:Beginner;
#METER:4;
#RADARVALUES:0,0,0,0,0;
#NOTES:
0000
0000
0000
0000
,
0000
0000
0000
0000
,
0000
0000
0000
0000
,
0000
0000
0000
0000
,
1000
0000
0000
0000
,
0010
0000
0000
0000
,
0100
0000
0000
0000
,
0001
0000
0000
0000
,
1000
0000
0000
0000
,
0010
0000
0000
0000
,
0100
0000
0000
0000
,
0001
0000
0000
0000
,
1000
0000
0010
0000
,
0100
0000
0001
0000
,
0010
0000
0001
0000
,
0100
0000
0010
0000
,
1000
0000
0100
0000
,
1000
0000
0010
0000
,
0100
0000
0001
0000
,
0010
0000
1000
0000
,
1001
0000
0000
0000
,
0000
0000
0000
0000
,
0000
0000
0000
0000
,
0000
0000
0000
0000
,
0010
0000
0100
0000
,
0010
0000
1000
0000
,
0001
0000
0010
0000
,
1001
0000
0000
0000
,
1000
0100
0010
0000
,
0001
0010
0100
0000
,
0010
1000
0010
0000
,
0100
0001
0100
0000
,
0010
1000
0100
0001
,
0010
0001
1000
0010
,
0100
0010
1000
0001
,
0010
0001
0100
0010
,
1000
0100
1000
0010
,
0100
0001
0010
0001
,
1000
0010
0100
0010
,
1001
0000
0000
1000
,
0001
0000
0000
0100
,
0010
0000
0000
1000
,
0010
0000
0100
0000
,
0001
0000
0000
1000
,
0010
0000
0000
0100
,
0010
0000
0000
1000
,
0001
0000
0010
0000
,
0100
0000
0000
1000
,
0001
0000
0000
0010
,
0100
0000
0000
1000
,
0001
0000
0010
0000
,
0100
0000
0000
1000
,
0010
0000
0000
0100
,
0001
0000
0000
1000
,
0010
0000
0100
0000
,
0001
0000
0000
0000
,
1000
0000
0010
0000
,
0100
0000
0010
0000
,
1000
0000
0001
0000
,
0010
0000
0001
0000
,
1000
0100
1000
0100
,
0010
0100
0010
0100
,
0010
0001
0010
0001
,
0001
1000
0001
1000
,
0010
0100
0010
0100
,
0001
0100
0001
0100
,
0010
1000
0010
1000
,
0010
0000
0000
0000
;

//--------------- dance-single - B. M'Rey ----------------
#NOTEDATA:;
#STEPSTYPE:dance-single;
#DESCRIPTION:B. M'Rey;
#DIFFICULTY:Easy;
#METER:7;
#RADARVALUES:0,0,0,0,0;
#NOTES:
0000
0000
0000
0000
,
0000
0000
0000
0000
,
0000
0000
0000
0000
,
0000
0000
0000
0000
,
1000
0010
0100
0010
,
0001
0010
1000
0010
,
0100
0010
1000
0100
,
0001
0010
0001
0010
,
0001
1000
0010
0000
0010
0000
0100
0000
,
1000
0100
1000
0000
0010
0000
0010
0000
,
0100
0001
0100
0000
0010
0000
1000
0000
,
0001
1000
0001
0000
0010
0000
0100
0000
,
0001
0100
0001
0000
0010
0000
1000
0000
,
0010
1000
0010
0000
0100
0000
0010
0000
,
1000
0001
1000
0000
0010
0000
0100
0000
,
0001
0010
0001
0000
1000
0000
0010
0000
,
0001
1000
0001
0000
0001
1000
0001
0000
,
0001
1000
0001
0000
0001
1000
0001
0000
,
0010
0100
0010
0000
0100
0010
0100
0000
,
0010
0100
0010
0000
0100
0010
0100
0000
,
0010
0000
0000
0000
,
1000
0000
0000
0000
,
0001
0000
0000
0000
,
0010
0000
0000
0000
,
1000
0001
0010
0100
,
0010
1000
0100
1000
,
0001
0010
0001
0100
,
1001
0000
0000
0000
,
0010
0000
1000
0000
0001
1000
0001
0000
,
0010
0000
0100
0000
0001
0100
0001
0000
,
0010
0000
1000
0000
0010
1000
0010
0000
,
0100
0000
0010
0000
1000
0010
1000
0000
,
0010
0000
0100
0000
0001
0100
0001
0000
,
0010
0000
1000
0000
0010
1000
0010
0000
,
0100
0000
0010
0000
0001
0010
0001
0000
,
1000
0000
0010
0000
0100
0010
0100
0000
,
1000
0000
0001
0000
0010
0100
0001
0000
,
0010
0000
1000
0000
0100
1000
0100
0000
,
0010
0000
0001
0000
0010
0100
0010
0000
,
1001
0000
0000
1000
,
0010
0000
0000
0100
,
0001
0000
0010
1000
,
0010
0100
0001
0010
,
0001
0000
0000
1000
,
0010
0000
0000
0100
,
0001
0000
0000
0010
,
1000
0100
1000
0010
,
1001
0000
0000
0000
0000
0000
0001
1000
,
0001
0000
0000
0000
0000
0000
0010
0100
,
0010
0000
0000
1000
,
0001
0010
0001
0000
1000
0100
1000
0000
,
1001
0000
0000
0000
0000
0000
0010
0100
,
0001
0000
0000
0000
0000
0000
0010
1000
,
0100
0000
0000
0000
0000
0000
0010
0100
,
0001
0000
0010
1000
0010
0000
0100
0010
,
0100
0001
1000
0000
,
0010
0100
0001
1000
,
0010
0100
0010
1000
,
0100
1000
0010
0001
,
0010
0001
0010
0100
,
0001
0010
1000
0100
,
1000
0010
0100
0001
,
0010
1000
0100
1000
,
0010
0100
0001
0010
,
1000
0010
0100
0010
,
0001
0010
1000
0100
,
0010
0001
1000
0010
,
1001
0000
0000
0000
;

//--------------- dance-single - B. M'Rey ----------------
#NOTEDATA:;
#STEPSTYPE:dance-single;
#DESCRIPTION:B. M'Rey;
#DIFFICULTY:Medium;
#METER:10;
#RADARVALUES:0,0,0,0,0;
#NOTES:
0000
0000
0000
0000
,
0000
0000
0000
0000
,
0000
0000
0000
0000
,
0000
0000
0000
0000
,
0001
0010
0001
0000
1000
0000
0010
0000
,
0100
0010
0100
0000
1000
0000
0010
0000
,
0001
0010
0001
0000
1000
0000
0010
0000
,
0100
0010
0100
0000
1000
0000
0010
0000
,
0001
0010
0001
0000
1000
0100
1000
0000
,
0010
0100
0001
0010
,
1000
0100
1000
0000
0001
0010
0001
0000
,
0010
0100
0010
0001
,
0001
0010
0001
0010
0001
0000
0010
0000
,
1000
0100
1000
0100
1000
0000
0100
0000
,
0010
0100
0010
0100
0010
0000
0001
0000
,
0010
0001
0010
0001
0010
0000
1000
0000
,
0010
1000
0010
1000
0010
0000
0100
0000
,
0010
0100
0010
0100
0010
0000
0001
0000
,
0010
0001
0010
0001
0010
0000
0100
0000
,
0010
1000
0010
1000
0010
0000
0100
0000
,
0020
0000
2030
0000
,
3002
0000
0023
0000
,
0032
0000
0203
0000
,
0320
0000
2030
0000
,
3010
0100
0010
0001
,
0010
1000
0100
1000
,
0010
0100
0010
0001
,
2002
0000
0000
3003
,
0010
1000
0010
1000
0010
0000
0100
0000
,
0010
0100
0010
0100
0010
0000
0001
0000
,
0001
0010
0001
0010
0001
0000
0010
0000
,
0010
0100
0010
0100
0010
0000
1000
0000
,
0001
1000
0001
1000
0100
0010
0100
0010
,
0100
0010
0100
0010
0100
1000
0010
0100
,
0010
0100
0010
0100
0010
0100
0010
1000
,
0010
1000
0001
1000
0001
1000
0001
1000
,
0100
1000
0100
0010
0100
0010
0100
0010
,
0100
0010
0100
1000
0010
1000
0010
1000
,
0010
1000
0010
1000
0001
0010
0001
0010
,
0202
0000
0303
0001
,
1001
0010
0100
0001
,
1010
0010
0100
0010
,
0100
1000
0100
0010
0100
0001
0010
0100
,
2000
0000
3020
0000
0230
0000
0301
0010
,
0100
0000
1000
0000
0010
0000
1000
0100
,
0010
0000
0001
0000
0010
0000
0001
0010
,
0100
1000
0100
0010
0001
0010
0100
1000
,
0100
0000
0010
0000
0100
0000
0001
0010
,
0100
0000
1000
0000
0100
0000
1000
0100
,
0010
0000
0001
0000
0010
0000
0100
1000
,
0100
0010
0100
0010
0100
0010
0100
0010
,
2000
0000
3200
0000
0320
0000
0031
0010
,
0100
0000
1000
0000
0010
0000
0100
0010
,
0100
0000
0001
0000
0010
0000
0001
1000
,
0001
1000
0001
1000
0001
0100
0001
0100
,
0001
0100
0010
0100
0020
0000
0000
0000
,
1030
0000
0010
0000
0100
0010
0100
0001
,
0010
0000
1000
0000
0100
0010
1000
0010
,
0100
0000
0010
0000
0001
0010
0100
0001
,
0010
0000
1000
0000
0010
1000
0100
0010
,
1000
0000
0010
0000
0001
0100
0010
1000
,
0001
0000
0010
0000
0100
0010
1000
0001
,
0100
0000
0010
0000
0010
1000
0100
0010
,
0001
0000
1000
0000
0010
0100
0010
0100
,
0001
0000
0010
0000
0010
1000
0010
0100
,
0010
0000
0001
0000
0010
0001
0010
1000
,
0010
0000
0100
0000
0010
0100
0010
1000
,
0001
0100
0010
1000
,
0001
0000
0000
0000
;

//--------------- dance-single - B. M'Rey ----------------
#NOTEDATA:;
#STEPSTYPE:dance-single;
#DESCRIPTION:B. M'Rey;
#DIFFICULTY:Hard;
#METER:12;
#RADARVALUES:0,0,0,0,0;
#NOTES:
0000
0000
0000
0000
,
0000
0000
0000
0000
,
0000
0000
0000
0000
,
0000
0000
0000
0000
,
0010
0001
1000
0000
0010
0001
1000
0000
,
0010
0001
0100
0000
0001
0010
1000
0000
,
0100
0001
1000
0000
0010
1000
0100
0000
,
0010
0001
1000
0000
0010
0001
1000
0000
,
0100
1000
0001
0000
0001
0010
0100
0000
,
0010
0100
0010
0000
0001
0010
0100
0000
,
0001
0100
0010
0000
0001
0010
0100
0000
,
0100
0010
0001
0000
0010
0100
0010
0000
,
0100
1000
0001
0010
0100
1000
0001
1000
,
0010
0100
0001
0010
0100
0010
0001
0010
,
0001
1000
0001
0010
0100
1000
0010
1000
,
0010
0100
0001
0100
0001
0100
0010
1000
,
0100
0010
0001
1000
0001
0100
0001
0010
,
0100
0010
0100
0010
0001
1000
0001
0010
,
0100
1000
0010
1000
0010
0100
0010
1000
,
0001
1000
0001
1000
0010
0100
0010
1000
,
0020
0000
0000
0000
,
0230
0000
0000
0000
,
0320
0000
0000
0000
,
0032
0000
0000
0000
,
1003
0100
0010
1000
,
0100
1000
0010
0100
,
0010
0100
0001
1000
,
0001
0000
0000
0010
0000
0100
0000
1000
0100
0000
0000
0000
0110
0000
0000
0000
,
0100
1000
0100
0010
0100
1000
0010
0100
,
0010
1000
0001
0100
0010
0100
0010
1000
,
0001
0100
0010
1000
0001
1000
0001
0100
,
0010
1000
0100
0010
0001
0100
0010
0100
,
0010
0100
0001
1000
0001
1000
0100
0010
,
0100
0010
0001
0010
0100
1000
0001
1000
,
0010
0100
0010
1000
0010
1000
0100
1000
,
0100
0010
0001
1000
0100
1000
0010
1000
,
0001
0100
0010
0100
0010
1000
0010
0100
,
0001
0100
0001
0010
0100
1000
0010
0100
,
0010
0100
0010
1000
0001
0100
0010
0100
,
0001
0000
0000
0100
0000
0010
0000
0010
0100
0000
0000
1000
0010
0100
0001
0100
,
0001
0000
0000
0000
0010
0000
0000
0000
0010
0000
0000
0010
0100
1000
0100
1000
,
0100
0000
0000
0000
1000
0000
0000
0000
1000
0000
0000
0010
0001
0010
0001
0010
,
0001
1000
0010
1000
0010
1000
0100
0010
,
0002
0000
0000
0000
0000
0000
0000
0000
0000
0000
0003
1000
0010
0100
0001
0100
,
0010
0000
0000
0000
1000
0000
0000
0000
0100
0000
0000
1000
0100
1000
0001
1000
,
0100
0000
0000
0000
0001
0000
0000
0000
1000
0000
0000
1000
0010
1000
0001
1000
,
0001
1000
0001
1000
0001
0010
0100
1000
,
0001
0000
0000
0000
1000
0000
0000
0000
0010
0000
0000
0100
0001
0100
0001
1000
,
0001
0000
0001
0000
1000
0000
0001
0000
1000
0000
0001
0010
0100
0010
0100
0010
,
0001
0000
0001
0000
1000
0000
0001
0000
0010
0000
0010
0100
0001
0100
0001
0100
,
0010
1000
0010
1000
0010
0100
0001
0100
0001
0100
0010
1000
0001
1000
0001
1000
,
0001
0000
0010
0000
0001
0000
0010
0000
0100
0000
0000
0100
0001
0100
0001
1000
,
0001
1000
0001
0000
1000
0000
0010
0000
1000
0000
0010
1000
0010
1000
0010
0100
,
0001
0010
0001
0000
0010
0000
0001
0000
0010
0000
1000
0100
0001
0100
0001
1000
,
0010
1000
0010
1000
0001
0010
0001
0010
0001
1000
0100
1000
0100
1000
0001
0100
,
0001
0000
0010
1000
0000
0100
0000
0010
0200
0000
0000
0000
0000
0000
0000
0000
,
0301
1000
0001
1000
0001
0010
0100
0010
,
0100
0010
0001
1000
0001
0010
0100
0010
,
0100
0010
0001
0100
0001
0010
0001
0010
,
0100
0010
0100
1000
0100
1000
0001
1000
,
0001
0010
0100
0010
0100
0010
0001
1000
,
0001
1000
0001
0010
0100
0010
0100
0010
,
0001
0100
0001
1000
0001
0100
0010
0100
,
0010
0100
0001
0010
0100
0010
0100
0010
,
0001
1000
0001
0100
0001
0100
0010
0100
,
0010
1000
0010
1000
0001
1000
0001
0010
,
0001
0010
0100
0010
0100
1000
0100
1000
,
0001
0000
0010
0100
0000
0010
0100
0000
0010
0000
0000
1000
0000
0000
0010
0000
;
