#VERSION:0.83;
#TITLE:トルバドゥールの回想;
#ARTIST:リシャール秋田;
#TITLETRANSLIT:Troubadour no kaisou;
#ARTISTTRANSLIT:Masanori Akita;
#GENRE:FRENCH MERCHEN;
#MUSIC:Troubadour no kaisou.ogg;
#BANNER:Troubadour no kaisou-bn.png;
#BACKGROUND:Troubadour no kaisou-BG.png;
#CDTITLE:./CDTITLES/Pop'n Music 11.PNG;
#SAMPLESTART:41.316;
#SAMPLELENGTH:15;
#OFFSET:-7.950;
#BPMS:0=205,210=196,228=190,231=183,232=170,233=158,234=160,235.5=169,236=180,236.5=190,237=197,237.5=200,259=201,262=202,286=203;

//--------------- dance-single - B. M'Rey ----------------
#NOTEDATA:;
#STEPSTYPE:dance-single;
#DESCRIPTION:B. M'Rey;
#CREDIT:B. M'Rey;
#DIFFICULTY:Beginner;
#METER:2;
#RADARVALUES:0,0,0,0,0;
#NOTES:
1000
0000
0000
0000
,
0010
0000
0000
0000
0000
0100
0000
0000
,
0000
0001
0000
0000
,
0010
0000
0000
0000
0000
0000
0000
1000
,
0000
0000
0000
0000
0000
0010
0000
0000
,
0000
0100
0000
0000
,
0001
0000
0000
1000
,
0000
0000
0010
0000
,
0000
0100
0000
0000
,
0001
0000
0000
1000
,
0000
0000
0010
0000
,
0000
0100
0000
0000
,
0001
0001
0001
0001
,
0000
0000
1000
1000
,
1000
1000
0000
0000
,
0010
0000
0000
0100
,
0000
0000
0010
0000
,
0000
1000
0000
0000
,
1001
0000
0000
0000
,
0000
0000
0000
0010
,
0000
0000
0000
0000
,
0000
0100
0000
0000
,
0000
0000
0001
0000
,
0000
1000
0000
0000
,
0010
0000
0000
0100
,
0000
0000
0010
0000
,
0000
1000
0000
0000
,
0001
0000
0000
0010
,
0000
0000
0001
0000
,
0000
1000
0000
0000
,
0010
0100
0010
0100
,
0000
0000
0001
0000
,
0000
0010
0000
0000
,
1000
0100
1000
0100
,
0000
0000
0010
0000
,
0000
0100
0000
0000
,
0001
0000
0000
1000
,
0000
0000
0010
0000
,
0000
0100
0000
0000
,
0001
0010
0100
0000
,
0000
0000
1000
0000
,
0010
0000
0000
0000
,
0100
0100
0100
0100
,
0000
0000
0010
0000
,
0000
0001
0000
0000
,
1000
1000
1000
1000
,
0000
0000
0010
0000
,
0000
0100
0000
0000
,
0001
0001
0001
0001
,
0000
0000
0010
0000
,
0000
0100
0000
0000
,
0010
0010
0010
0010
,
0000
0000
1000
0000
,
0000
0000
0000
0000
,
0010
0000
0000
0000
,
0000
0000
0100
0000
,
0000
0000
0000
0000
,
0001
0000
0000
0000
,
0100
0000
0001
0000
,
0001
0000
1000
0000
,
0000
0000
0000
0000
,
0010
0000
0000
0000
,
0000
0000
0100
0000
,
0000
0010
0000
0000
,
0001
0000
0000
1000
,
0000
0000
0010
0000
,
0000
0000
0000
0000
,
0100
0000
0000
0000
,
0000
0000
0010
0000
,
0000
0001
0000
0000
,
1000
0000
0000
0010
,
0000
0000
0100
0000
,
0000
0010
0000
0000
,
0001
0000
0000
1001
;

//--------------- dance-single - B. M'Rey ----------------
#NOTEDATA:;
#STEPSTYPE:dance-single;
#DESCRIPTION:B. M'Rey;
#CREDIT:B. M'Rey;
#DIFFICULTY:Easy;
#METER:6;
#RADARVALUES:0,0,0,0,0;
#NOTES:
1000
0000
0010
0000
,
0100
0000
0000
0000
0000
0010
0000
0000
,
0001
0020
0000
0030
,
0000
0100
0000
0000
1000
0000
0000
0000
,
0001
0000
0000
0000
0000
0010
0000
0000
,
0100
0002
0000
0003
,
1000
0000
0010
0100
,
0000
0000
1000
0000
,
0001
0010
0000
0100
,
0010
1000
0100
1000
,
0010
0000
0001
0000
,
1000
0010
0100
0001
,
0010
1000
0100
1000
,
0000
0000
0001
0010
,
0100
0010
0000
1000
,
0100
1000
0100
0010
,
0100
0001
0010
1000
,
0100
2002
0000
3003
,
0000
0001
0001
0020
,
0000
0000
0000
0030
0000
0000
1000
0000
,
1000
0000
0200
0000
0000
0000
0000
0300
,
0000
0010
0010
0100
,
0001
0010
1000
0100
,
0010
1000
0001
0100
,
1001
0000
0010
0100
,
0000
0000
0101
0000
,
0010
1000
0000
0000
,
0110
0000
0001
0100
,
0000
0010
0100
0010
,
0100
0020
0000
0030
,
0001
0100
0001
0010
,
0100
0000
1000
0000
0010
0000
0000
0010
,
0000
0000
1000
0000
0200
0000
0000
0300
,
0001
1000
0010
1000
,
0200
0000
0000
0300
0001
0000
0010
0000
,
0001
0020
0030
1000
,
0100
0010
0000
0000
0001
1000
0010
0000
,
0100
0010
0001
0000
,
0100
0010
0000
0000
0001
0000
1000
0000
,
0010
1000
0001
0010
,
2000
0000
3100
1000
,
0010
1000
0010
1000
,
0100
0010
0100
0010
,
0100
1000
0001
1000
,
0100
1000
0010
0100
,
0001
1000
0010
0100
,
0001
1000
0010
1000
,
0100
0010
0100
0010
,
0001
1000
0010
1000
,
0010
1000
0100
0010
,
0100
0010
0100
1000
,
0001
1000
0100
1000
,
0010
0100
0002
0000
,
2003
0000
3010
0100
,
0020
0000
2030
0000
,
3001
0010
0200
0000
,
0310
2000
0000
3001
,
0200
0000
0301
1000
,
0001
0000
0100
0000
0010
0000
0000
0001
,
0010
0001
0010
0001
0010
0000
1000
0000
,
0000
0000
0010
0100
,
0001
0100
0000
0000
,
0010
1000
0100
0001
,
0010
0100
0010
0100
,
0010
0000
1000
0000
,
0001
0010
0100
0000
,
0010
0000
1000
0010
,
0100
0000
0001
0000
,
0010
0100
0010
1000
,
0100
1000
0100
0010
,
0100
0000
0001
0010
,
0000
0100
1000
0000
,
0010
0100
0000
0001
,
1000
0000
0000
0010
0000
0000
0110
0000
;

//--------------- dance-single - B. M'Rey ----------------
#NOTEDATA:;
#STEPSTYPE:dance-single;
#DESCRIPTION:B. M'Rey;
#CREDIT:B. M'Rey;
#DIFFICULTY:Medium;
#METER:11;
#RADARVALUES:0,0,0,0,0;
#NOTES:
1000
0010
0100
0000
,
1000
0000
0000
0000
0000
0001
0000
0000
,
0010
0100
0000
0000
,
0000
0010
0000
0000
1000
0000
0000
0000
,
0001
0000
0000
0000
0000
0010
0000
0000
,
0100
0001
0000
0000
,
0001
0010
0100
0020
,
0000
0030
0001
1000
,
0010
2000
0000
3100
,
0010
0100
0001
0010
,
0001
0000
0010
0000
,
0001
0100
0001
0010
,
0100
0010
0100
2000
,
0000
3000
0001
0010
,
0001
2000
0000
3100
,
0010
1000
0010
0100
,
0001
1000
0010
0100
,
0010
0100
0010
1000
,
0100
0000
0010
1000
0001
0010
1000
0000
,
0010
0000
0100
0000
0001
0000
0100
0010
,
0001
0100
1000
0000
0010
0000
0100
0000
,
0001
0000
0100
0001
0010
0100
1000
0000
,
0010
1000
0010
0100
,
0001
0010
0100
0010
,
0200
0000
0000
1300
0001
1000
0001
0000
,
0010
0000
1000
0000
0002
0000
0000
0103
,
0010
0100
0010
0000
0001
0000
0010
0000
,
0200
0000
0000
0301
0010
0001
0010
0000
,
1000
0000
0100
0000
1001
0000
0001
0010
,
0100
0010
0002
0000
0000
0000
0003
0000
,
1010
1010
0110
0101
,
0010
0000
0100
0000
1010
0000
0000
0010
,
0100
0010
0000
0000
0200
0000
0000
0000
,
0310
1000
0100
1000
0010
1000
0010
0000
,
0002
0000
0000
0003
0101
0000
0001
0100
,
0010
1000
0200
0000
0000
0000
0300
0000
,
0100
1000
0000
0100
0000
0010
0001
0000
,
0010
0000
0100
0000
0001
1000
0100
0000
,
0100
1000
0000
0010
0200
0000
0000
0300
,
0100
1000
0000
0010
0000
0010
0100
0000
,
1000
0001
1000
0001
1100
0000
0110
0000
,
0101
0000
1010
0000
0100
0010
0100
0000
,
0001
0010
1000
0010
,
0100
0000
0001
0100
0001
0100
1000
0000
,
0100
0010
0000
0010
0001
0100
0000
0100
,
0101
1001
0110
1001
,
0010
0000
0001
0100
0001
0000
0010
1000
,
0100
1000
0002
0000
0000
0000
0003
1000
,
0100
0001
0100
0001
,
0100
0000
0001
0100
0001
0010
0100
0000
,
0001
0000
0010
1000
0000
1000
0000
0100
,
0101
0110
1001
1100
,
0010
1000
0100
0010
0002
0000
0000
0000
,
1003
0000
0010
0100
,
0002
0000
0013
0000
,
1000
0100
2000
0000
,
3010
0200
0000
0301
,
0020
0000
0000
0000
0130
0000
0001
0010
,
0100
1000
0010
0100
0001
0000
0000
0001
,
0010
0100
1000
0010
1000
0000
0001
0000
,
0100
0000
0010
0000
0100
0010
0100
0000
,
1000
0001
0100
0010
,
0100
0010
0100
0000
0001
0000
0100
0000
,
0010
1000
0100
1000
,
0010
0100
0001
0100
,
0001
0100
0001
0100
0002
0000
0000
0000
,
1003
0000
0000
0000
0010
1000
0010
1000
,
0020
0000
0130
0000
,
0001
0100
0010
0001
,
1000
0001
0010
0000
0100
0000
0001
0010
,
0200
0000
1300
0001
,
0010
0001
0100
0010
,
1000
0100
0010
0100
,
0001
0100
0000
0001
0100
0000
1001
0000
;

//--------------- dance-single - B. M'Rey ----------------
#NOTEDATA:;
#STEPSTYPE:dance-single;
#DESCRIPTION:B. M'Rey;
#CREDIT:B. M'Rey;
#DIFFICULTY:Hard;
#METER:13;
#RADARVALUES:0,0,0,0,0;
#NOTES:
0001
1000
0001
1000
,
0002
0000
0013
0100
,
0010
0200
0001
0010
,
0301
0010
0100
0010
,
0002
0000
0103
1000
,
0001
0000
0000
0000
0020
0000
0000
0000
0100
0000
0000
0000
1000
0000
0000
0100
,
1030
0100
0001
0000
0010
0000
0000
0000
1001
0000
0000
0000
0110
0000
0000
0000
,
0001
0000
0000
0000
0010
0000
0000
1000
0100
1000
0100
0000
0001
0000
0000
0000
,
0100
0000
2002
0000
0000
3003
0010
0100
,
0010
0000
0001
0000
1000
0100
1000
0000
,
0010
0000
0100
0001
0200
0000
0000
0000
,
0301
0010
0001
0100
0010
1000
0100
0000
,
1001
0110
0101
0110
,
1000
0000
0001
1000
0110
0000
1100
0000
,
0110
0000
0110
0000
0001
0000
0100
1000
,
0010
0000
0001
1000
0100
0010
0001
0000
,
0100
0000
0001
0100
0010
0000
0010
0100
,
0001
1000
0200
0000
0000
0000
0000
0300
,
0001
0000
0010
1000
0010
1000
0200
0000
,
0001
0000
0001
0000
1300
0000
0001
1000
,
0100
1000
0020
0000
0001
0000
0001
0000
,
0130
0000
0010
1000
0001
1000
0100
0000
,
1001
0000
0001
0100
2000
0000
3020
0000
,
0230
0320
0032
2003
,
3002
0000
0013
1000
0010
1000
0002
0000
,
0013
0000
0100
1000
0002
0000
0103
1000
,
0010
0100
0020
0000
1000
0000
0130
0010
,
0200
0000
0310
1000
0001
0100
0002
0000
,
0013
0000
0100
0000
0110
0000
0001
0100
,
0010
1000
0020
0000
0130
0000
0001
0000
,
0100
1000
0100
0010
,
0001
0000
1000
0000
0101
0000
0010
0100
,
0001
1000
0000
0100
0001
0000
0000
0100
,
0010
1000
0010
0100
0001
0100
0010
0000
,
2200
0000
0000
3300
0011
0000
0100
1000
,
0100
0010
0002
0000
0103
0000
0100
0000
,
0010
0100
0000
1000
0000
0010
0001
0000
,
0010
0000
0100
0000
0001
1000
0010
0000
,
0100
0010
0000
1000
0002
0000
0000
0000
,
0103
0010
0000
0100
0000
0010
0001
0000
,
1000
0000
0000
0001
0000
0000
0010
0000
0000
0000
0010
0000
0100
0000
0000
0000
0001
0000
0100
0000
0000
0000
1000
0000
,
0010
0000
0100
1000
0000
0010
0001
0000
0100
1000
0100
0010
,
0001
0000
0010
0100
0000
0100
0001
0000
0001
1000
0000
0100
,
0001
0000
0010
0100
0000
1000
0001
0000
0010
1000
0000
0000
,
0100
0000
0100
1000
0000
0010
0000
0000
0100
0000
0000
1000
,
0010
1000
0010
0100
,
0010
0000
0001
1000
0000
0010
0001
0000
0100
0010
0000
1000
,
0010
0000
0100
0020
0000
0000
0000
0000
0030
0100
0001
0000
,
0010
1000
0000
0010
0001
0000
0001
0010
0000
0010
0001
0000
,
0010
0100
0000
0000
1000
0000
0010
0000
0001
1000
0000
0000
,
0001
0000
0000
0000
0010
0000
1000
0000
0001
0000
0010
0000
0000
0000
0000
0001
0000
0000
0000
0000
0000
0000
0100
0000
,
0010
0000
0001
1000
0000
0100
0010
0000
0001
0010
0000
1000
,
0010
0100
0010
0100
2000
0000
0000
0000
,
3002
0000
0013
1000
,
0200
0000
0301
0000
,
0010
0001
1000
0100
0002
0000
0000
0000
,
1003
0002
0000
1003
,
0020
0000
0000
0000
0130
0000
0100
0010
,
0001
0100
0010
1000
0200
0000
0000
1300
,
0010
0100
0010
0100
0001
0000
1001
0000
,
0010
0000
0100
0000
0001
0010
1000
0000
,
1001
0110
0101
0010
,
1000
0010
0100
0001
0110
0000
1001
0000
,
0010
0000
0100
0000
0010
0000
1000
0001
,
1000
0000
0010
0000
0100
0000
0001
0010
,
1000
0010
0100
0001
2000
0000
0000
0000
,
3010
0000
0100
0000
0001
1000
0010
0100
,
0020
0000
1030
0010
,
0100
0001
0100
0000
0010
0000
1000
0000
,
0010
1000
0001
0000
0010
0000
1000
0010
,
0200
0010
0301
1000
,
0010
0100
0001
0010
,
1000
0100
0010
1000
,
0001
1000
0000
0010
0001
0100
0010
0000
;
