#VERSION:0.83;
#TITLE:This is true love makin';
#ARTIST:サトシ イット;
#ARTISTTRANSLIT:Satoshi Itto;
#GENRE:HOUSE;
#MUSIC:This is true love makin'.ogg;
#BANNER:This is true love makin'.png;
#BACKGROUND:This is true love makin'-bg.png;
#CDTITLE:./CDTITLES/DANCE DANCE REVOLUTION EXTREME 3.PNG;
#SAMPLESTART:54.467;
#SAMPLELENGTH:15;
#OFFSET:-0.120;
#BPMS:0=124.004;

//--------------- dance-single - B. M'Rey ----------------
#NOTEDATA:;
#STEPSTYPE:dance-single;
#DESCRIPTION:B. M'Rey;
#DIFFICULTY:Beginner;
#METER:1;
#RADARVALUES:0.134091,0.174277,0.068681,0.011447,0,82,76,6,1,0,0,0.134091,0.174277,0.068681,0.011447,0,82,76,6,1,0,0;
#NOTES:
0000
0000
0000
0000
,
0000
0000
0000
0000
,
0000
0000
0000
0000
,
0000
0000
0000
0000
,
0001
0000
0010
0000
,
1000
0000
0100
0000
,
0010
0000
0001
0000
,
1001
0000
0000
0000
,
0010
0000
0100
0000
,
0001
0000
1000
0000
,
0010
0000
0100
0000
,
0002
0000
0000
0000
0000
0000
0000
0000
0000
0000
0000
0000
0000
0000
0000
0000
0000
0000
0000
0000
0000
0000
0000
0000
0000
0000
0000
0000
0000
0000
0000
0000
0000
0000
0000
0000
0000
0000
0000
0000
0000
0000
0000
0000
0000
0000
0000
0000
0000
0000
0000
0000
0000
0000
0000
0000
0000
0000
0000
0000
0000
0000
0000
0000
0000
0000
0000
0000
0000
0000
0000
0003
0000
0000
0000
0000
0000
0000
0000
0000
0000
0000
0000
0000
0000
0000
0000
0000
0000
0000
0000
0000
0000
0000
0000
0000
,
1000
0000
0010
0000
,
0100
0000
0010
0000
,
0001
0000
1000
0000
,
0110
0000
0000
0000
,
1000
0000
0000
0001
,
0000
0000
0000
0010
,
0000
0000
0100
0000
,
0001
0000
0000
0000
,
1001
0000
0010
0000
,
0100
0000
0010
0000
,
0001
0000
0000
0000
,
1000
0000
0000
0000
,
1000
0000
0010
0000
,
0100
0000
0010
0000
,
0001
0000
1000
0000
,
1000
0000
0010
0000
,
0100
0000
0010
0001
,
0000
0000
0010
1000
,
0000
0000
0000
0010
,
0001
0000
0100
0000
,
0110
0000
0000
0001
,
0010
0000
0000
1000
,
0100
0000
0000
0010
,
0001
0000
0100
0000
,
1010
0000
0101
0000
,
0010
0000
1000
0000
,
1000
0100
0100
0000
,
0001
0010
0010
0000
,
1000
0000
0001
0000
,
0100
0000
0010
0000
,
1000
0100
0100
0000
,
0001
0010
0010
0000
;

//--------------- dance-single - B. M'Rey ----------------
#NOTEDATA:;
#STEPSTYPE:dance-single;
#DESCRIPTION:B. M'Rey;
#DIFFICULTY:Easy;
#METER:4;
#RADARVALUES:0.204406,0.275438,0.171701,0.011447,0,125,110,15,1,0,0,0.204406,0.275438,0.171701,0.011447,0,125,110,15,1,0,0;
#NOTES:
0000
0000
0000
0000
,
0000
0000
0000
0000
,
0000
0000
0000
0000
,
0000
0000
0000
0000
,
0010
0000
1000
0000
,
0001
0100
0010
0000
,
1000
0000
0001
0100
,
0110
0000
0000
0000
,
0001
0010
0100
0010
,
0000
1000
0100
0001
,
0000
0010
0100
1000
,
0011
1100
0011
0000
,
0001
0010
0100
0000
,
1000
0010
0100
0000
,
0010
0100
0001
0000
,
0011
1100
0011
0000
,
1001
0000
0000
0000
0000
0000
0010
0100
,
0000
0000
0000
0000
0000
0000
0010
0001
,
0000
0000
0000
0000
0000
0100
1000
0000
,
0100
0000
0000
0000
,
1000
0000
0000
0000
0000
0000
0000
0000
0000
0000
0000
0000
0000
0000
0000
0000
0000
0000
0000
0000
0000
0000
0000
0000
0000
0000
0000
0000
0000
0000
0000
0000
0000
0000
0000
0000
0000
0000
0000
0000
0000
0000
0000
0000
0000
0000
0000
0000
0100
0000
0000
0000
0000
0000
0000
0000
0000
0000
0000
0000
0000
0000
0000
0000
0000
0000
0000
0000
0000
0000
0000
0000
0000
0000
0000
0000
0000
0000
0000
0000
0000
0000
0000
0000
0000
0000
0000
0000
0000
0000
0000
0000
0000
0000
0000
0000
0020
0000
0000
0000
0000
0000
0000
0000
0000
0000
0000
0000
0000
0000
0000
0000
0000
0000
0000
0000
0000
0000
0000
0000
0000
0000
0000
0000
0000
0000
0000
0000
0000
0000
0000
0000
0000
0000
0000
0000
0000
0000
0000
0000
0000
0000
0000
0000
0000
0000
0000
0000
0000
0000
0000
0030
0000
0000
0000
0000
0000
0000
0000
0000
0000
0000
0000
0000
0000
0000
0000
0000
0000
0000
0000
0000
0000
0000
0000
0000
0000
0000
0000
0000
0000
0000
0000
0000
0000
0000
0000
0000
0000
0000
0000
0000
,
0100
0001
0010
0000
,
1000
0100
0010
0001
,
0000
0001
0010
0100
,
1000
0000
0010
0000
,
0100
0001
0010
1000
,
0000
0100
0010
0000
,
1001
0000
0000
0000
,
0010
0100
0001
0000
,
1000
0010
0100
0000
,
0010
0100
0001
0000
,
0011
1100
0011
0000
,
0100
0010
0001
0000
,
1000
0010
0100
0000
,
0010
0001
0010
0000
,
0110
1001
0110
0000
,
0001
0000
1000
0000
,
0010
0100
0001
0010
,
0000
1000
0100
0010
,
0000
0001
0010
0100
,
0000
1000
0000
0010
,
0000
0100
0000
0010
,
0000
0001
1000
0001
,
0000
0001
1000
0001
;

//--------------- dance-single - B. M'Rey ----------------
#NOTEDATA:;
#STEPSTYPE:dance-single;
#DESCRIPTION:B. M'Rey;
#DIFFICULTY:Medium;
#METER:7;
#RADARVALUES:0.277993,0.301336,0.045787,0.011447,0,170,166,4,1,0,0,0.277993,0.301336,0.045787,0.011447,0,170,166,4,1,0,0;
#NOTES:
0000
0000
0000
0000
,
0000
0000
0000
0000
,
0000
0000
0000
0000
,
0000
0000
0000
0000
,
0001
0010
0100
1000
,
0010
0000
0100
0000
0010
0000
0001
1000
,
0010
0100
0010
0001
,
0110
0000
0000
0000
,
0001
0000
0010
0000
1000
0000
0100
0010
,
0000
0000
0001
0000
0010
0000
0001
0010
,
0000
0000
1000
0000
0100
0000
1000
0010
,
0100
0001
0010
0001
,
0010
0000
1000
0000
0100
0000
0010
0100
,
0000
0000
0001
0000
0010
0000
1000
0100
,
0000
0000
0001
0000
0010
0000
0001
0010
,
0100
0010
1000
0100
,
0110
0000
1000
0000
0100
0000
0001
0010
,
0100
0000
0001
0000
0010
0000
1000
0100
,
1000
0000
0010
0000
0100
0001
0010
0000
,
0001
0010
0100
0010
,
1000
0000
0000
0000
0000
0000
0000
0000
0000
0000
0000
0000
0000
0000
0000
0000
1000
0000
0000
0000
0000
0000
0000
0000
0000
0000
0000
0000
0000
0000
0000
0000
0200
0000
0000
0000
0000
0000
0000
0000
0000
0000
0000
0000
0000
0000
0000
0000
0000
0000
0000
0000
0000
0300
0000
0000
0010
0000
0000
0000
0000
0000
0000
0000
,
0000
0001
0000
0010
0000
1000
0000
0000
,
0010
0100
0001
0110
,
0000
0001
1000
0110
,
0000
0010
0001
0000
0010
0000
0100
0000
,
1000
0010
0000
1000
0000
0100
0000
0000
,
0000
0010
0100
0000
0001
0000
0000
0000
,
0010
0100
1000
0000
,
0010
0000
0100
0000
0001
0000
0001
0010
,
0000
0000
1000
0000
0100
0000
0010
0100
,
0000
0000
0001
0000
0010
0000
0001
0010
,
0100
1000
0100
0010
,
0001
0000
0010
0000
0100
0000
1000
0100
,
0000
0000
0010
0000
0001
0000
0010
0001
,
0000
0000
0100
0000
0010
0000
1000
0100
,
0010
0010
0001
0000
,
0001
1000
0010
0000
1000
0001
0100
0000
,
0001
0010
0100
1000
,
0010
0000
0100
0000
0001
0000
0010
0100
,
1000
0000
0100
0000
0010
0000
0100
0010
,
0001
0010
0100
1000
,
0010
0100
0001
0010
,
0001
0000
1000
0000
0100
0010
0100
0000
,
0001
0000
0010
0000
0100
0000
0001
1000
;

//--------------- dance-single - B. M'Rey ----------------
#NOTEDATA:;
#STEPSTYPE:dance-single;
#DESCRIPTION:B. M'Rey;
#DIFFICULTY:Hard;
#METER:11;
#RADARVALUES:0.459505,0.477115,0.251829,0.228935,0,281,259,22,20,0,0,0.459505,0.477115,0.251829,0.228935,0,281,259,22,20,0,0;
#NOTES:
0000
0000
0000
0000
,
0000
0000
0000
0000
,
0000
0000
0000
0000
,
0000
0000
0000
0000
,
1000
0010
0100
0000
0001
0010
0100
0000
,
0001
1000
0100
0010
0001
1000
0001
0000
,
0010
0001
0100
0000
1000
0010
0100
0000
,
0001
0010
0100
0001
1000
0000
0100
0000
,
0001
0010
1000
0100
1000
0100
0010
0110
,
0000
0001
0010
1000
0100
0001
0011
0011
,
0000
0100
1000
0010
0100
1000
1100
0000
,
0010
0100
0001
1000
,
0010
0100
0001
0010
1000
0100
0010
0011
,
0000
0100
0010
1000
1000
0100
1100
1100
,
0000
0010
0100
0001
0010
0100
0110
0000
,
0001
1000
0100
0010
,
0001
0010
1000
0100
1000
0010
0001
0000
,
0010
0000
0100
0000
1000
0000
0100
0000
0010
0000
1000
0000
0200
0000
0000
0300
,
0010
0001
0010
1000
0100
0010
0001
0010
,
0002
0000
0000
0000
0000
0000
0000
0000
0000
0000
0000
0000
0000
0000
0000
0000
0000
0000
0000
0000
0000
0000
0000
0000
0000
0000
0000
0000
0000
0000
0000
0000
0000
0000
0000
0000
0000
0000
0000
0000
0000
0000
0000
0000
0000
0000
0000
0003
0020
0000
0000
0000
0000
0000
0000
0000
0000
0000
0000
0000
0000
0000
0000
0000
0000
0000
0000
0000
0000
0000
0000
0000
0000
0000
0000
0000
0000
0000
0000
0000
0000
0000
0000
0000
0000
0000
0000
0000
0000
0000
0000
0000
0000
0000
0030
0000
0200
0000
0000
0000
0000
0000
0000
0000
0000
0000
0000
0000
0000
0000
0000
0000
0000
0000
0000
0000
0000
0000
0000
0000
0000
0000
0000
0000
0000
0000
0000
0000
0000
0000
0000
0000
0000
0000
0000
0000
0000
0000
0000
0000
0000
0300
0000
0000
2000
0000
0000
0000
0000
0000
0000
0000
0000
0000
0000
0000
0000
0000
0000
0000
0000
0000
0000
0000
0000
0000
0000
0000
0000
0000
0000
0000
0000
0000
0000
0000
0000
0000
0000
0000
3000
0000
0000
0000
0000
0000
0000
0000
0000
0000
0000
0000
,
0100
0000
0000
0000
0000
0000
0000
0000
0000
0000
0000
0000
0000
0000
0000
0000
0000
0000
0000
0000
0000
0000
0000
0000
0010
0000
0000
0000
0000
0000
0000
0000
0000
0000
0000
0000
0000
0000
0000
0000
0000
0000
0000
0000
0000
0000
0000
0000
0001
0000
0000
0000
0000
0000
0000
0000
0000
0000
0000
0000
0000
0000
0000
0000
0000
0000
0000
0000
0000
0000
0000
0000
0010
0000
0000
0000
0000
0000
0000
0000
0000
0000
0000
0000
0000
0000
0000
0000
0000
0000
0000
0000
0000
0000
0000
0000
2000
0000
0000
0000
0000
0000
0000
0000
0000
0000
0000
0000
0000
0000
0000
0000
0000
0000
0000
0000
0000
0000
0000
0000
0000
0000
0000
0000
0000
0000
0000
0000
0000
0000
0000
0000
0000
0000
0000
0000
0000
0000
0000
0000
0000
3000
0000
0000
0200
0000
0000
0000
0000
0000
0000
0000
0000
0000
0000
0000
0000
0000
0000
0000
0000
0000
0000
0000
0000
0000
0000
0000
0000
0000
0000
0000
0000
0000
0000
0000
0000
0000
0000
0000
0000
0000
0000
0000
0000
0000
0000
0000
0300
0000
0000
0000
,
0020
0000
0000
0000
0000
0000
0000
0000
0000
0000
0000
0000
0000
0000
0000
0000
0000
0000
0000
0000
0000
0000
0000
0000
0000
0000
0000
0000
0000
0000
0000
0000
0000
0000
0000
0000
0000
0000
0000
0000
0000
0000
0000
0000
0000
0030
0000
0000
0002
0000
0000
0000
0000
0000
0000
0000
0000
0000
0000
0000
0000
0000
0000
0000
0000
0000
0000
0000
0000
0000
0000
0000
0000
0000
0000
0000
0000
0000
0000
0000
0000
0000
0000
0000
0000
0000
0000
0000
0000
0000
0000
0000
0000
0000
0000
0000
0023
0000
0000
0000
0000
0000
0000
0000
0000
0000
0000
0000
0000
0000
0000
0000
0000
0000
0000
0000
0000
0000
0000
0000
0000
0000
0000
0000
0000
0000
0000
0000
0000
0000
0000
0000
0000
0000
0000
0000
0000
0000
0000
0000
0000
0000
0000
0000
0230
0000
0000
0000
0000
0000
0000
0000
0000
0000
0000
0000
0000
0000
0000
0000
0000
0000
0000
0000
0000
0000
0000
0000
0000
0000
0000
0000
0000
0000
0000
0000
0000
0000
0000
0000
0000
0000
0000
0000
0000
0000
0000
0000
0000
0000
0000
0300
,
1000
0100
0010
0001
0010
0100
0010
0110
,
0000
0001
0010
0100
1000
0100
0010
1001
,
0000
0000
0000
0000
0000
0000
0000
0000
0000
0000
0000
0000
0001
0000
0000
0000
0000
0000
0000
0000
0000
0000
0000
0000
0010
0000
0000
0000
0000
0000
0000
0000
0000
0000
0000
0000
0100
0000
0000
0000
0000
0000
0000
0000
0000
0000
0000
0000
2000
0000
0000
0000
0000
0000
0000
0000
0000
0000
0000
0000
0000
0000
0000
0000
0000
0000
0000
3000
0000
0000
0000
0000
0002
0000
0000
0000
0000
0000
0000
0000
0000
0000
0000
0000
0000
0000
0000
0000
0000
0000
0000
0000
0000
0000
0003
0000
,
0020
0000
0000
0000
0000
0000
0000
0000
0000
0000
0000
0000
0000
0000
0000
0000
0000
0000
0000
0000
0000
0000
0000
0000
0000
0000
0000
0000
0000
0000
0000
0000
0000
0000
0000
0000
0000
0000
0000
0000
0000
0000
0030
0000
0000
0000
0000
0000
0200
0000
0000
0000
0000
0000
0000
0000
0000
0000
0000
0000
0000
0000
0000
0000
0000
0000
0000
0000
0000
0000
0000
0000
0000
0000
0000
0000
0000
0000
0000
0000
0000
0000
0000
0000
0000
0000
0000
0000
0000
0300
0000
0000
0000
0000
0000
0000
0002
0000
0000
0000
0000
0000
0000
0000
0000
0000
0000
0000
0000
0000
0000
0000
0000
0000
0000
0000
0000
0000
0000
0000
0000
0000
0000
0000
0000
0000
0000
0000
0000
0000
0000
0000
0000
0000
0000
0000
0000
0000
0003
0000
0000
0000
0000
0000
0020
0000
0000
0000
0000
0000
0000
0000
0000
0000
0000
0000
0000
0000
0000
0000
0000
0000
0000
0000
0000
0000
0000
0000
0000
0000
0000
0000
0000
0000
0000
0000
0000
0000
0000
0000
0000
0000
0000
0030
0000
0000
0000
0000
0000
0000
0000
0000
,
1000
0000
0000
0000
0000
0000
0000
0000
0000
0000
0000
0000
0000
0000
0000
0000
0000
0000
0000
0000
0000
0000
0000
0000
0100
0000
0000
0000
0000
0000
0000
0000
0000
0000
0000
0000
0000
0000
0000
0000
0000
0000
0000
0000
0000
0000
0000
0000
1000
0000
0000
0000
0000
0000
0000
0000
0000
0000
0000
0000
0000
0000
0000
0000
0000
0000
0000
0000
0000
0000
0000
0000
0100
0000
0000
0000
0000
0000
0000
0000
0000
0000
0000
0000
0000
0000
0000
0000
0000
0000
0000
0000
0000
0000
0000
0000
0020
0000
0000
0000
0000
0000
0000
0000
0000
0000
0000
0000
0000
0000
0000
0000
0000
0000
0000
0000
0000
0000
0000
0000
0000
0000
0000
0000
0000
0000
0000
0000
0000
0000
0000
0000
0000
0000
0000
0000
0000
0000
0000
0030
0000
0000
0000
0000
0002
0000
0000
0000
0000
0000
0000
0000
0000
0000
0000
0000
0000
0000
0000
0000
0000
0000
0000
0000
0000
0000
0000
0000
0000
0000
0000
0000
0000
0000
0000
0000
0000
0000
0000
0000
0000
0000
0000
0000
0000
0000
0000
0000
0000
0000
0000
0000
,
0010
0000
0000
0000
0000
0000
0000
0000
0000
0000
0000
0000
0000
0000
0000
0000
0000
0000
0000
0000
0000
0000
0000
0000
0003
0000
0000
0000
0000
0000
0000
0000
0000
0000
0000
0000
0000
0000
0000
0000
0000
0000
0000
0000
0000
0000
0000
0000
0020
0000
0000
0000
0000
0000
0000
0000
0000
0000
0000
0000
0000
0000
0000
0000
0000
0000
0000
0000
0000
0000
0000
0000
0000
0000
0000
0000
0000
0000
0000
0000
0000
0000
0000
0000
0000
0000
0000
0000
0000
0000
0000
0030
0000
0000
0000
0000
0100
0000
0000
0000
0000
0000
0000
0000
0000
0000
0000
0000
0000
0000
0000
0000
0000
0000
0000
0000
0000
0000
0000
0000
1000
0000
0000
0000
0000
0000
0000
0000
0000
0000
0000
0000
0000
0000
0000
0000
0000
0000
0000
0000
0000
0000
0000
0000
0100
0000
0000
0000
0000
0000
0000
0000
0000
0000
0000
0000
0000
0000
0000
0000
0000
0000
0000
0000
0000
0000
0000
0000
1000
0000
0000
0000
0000
0000
0000
0000
0000
0000
0000
0000
0000
0000
0000
0000
0000
0000
0000
0000
0000
0000
0000
0000
,
0100
0010
0001
1000
0100
0010
0101
0000
,
0010
1000
0100
0010
1000
0100
1100
1100
,
0000
0100
0010
0001
0010
0100
0110
0000
,
0001
0010
1000
0100
,
0001
0010
1000
0100
1000
0010
0010
0101
,
0000
0001
1000
0100
1000
0010
0110
0110
,
0000
0001
1000
0010
0100
1000
1100
0000
,
0010
0001
0100
0010
,
0001
0010
1000
0100
1000
0010
0100
0001
,
0010
0001
1000
0100
1000
0010
0100
0001
,
0010
0001
0010
0100
1000
0100
0010
0110
,
0000
0001
0010
1000
0100
0001
0010
0110
,
0100
0001
0010
1000
0100
1000
0100
0010
,
0001
0010
0100
1000
0100
0010
0001
0010
,
0100
0001
1000
0010
0100
0001
0010
0011
,
0000
0001
0100
1000
0010
0001
0100
0110
;
