#VERSION:0.83;
#TITLE:The Koto Chill;
#ARTIST:zircon;
#GENRE:ASTRAL CHOIR;
#MUSIC:The Koto Chill.ogg;
#BANNER:The Koto Chill-bn.png;
#BACKGROUND:The Koto Chill-bg.png;
#CDTITLE:./CDTITLES/GITADORA LIVECREW.PNG;
#SAMPLESTART:96.062;
#SAMPLELENGTH:15;
#OFFSET:-0.062;
#BPMS:0=130,112=65,152=130,216=16.250;

//--------------- dance-single - B. M'Rey ----------------
#NOTEDATA:;
#STEPSTYPE:dance-single;
#DESCRIPTION:B. M'Rey;
#CREDIT:B. M'Rey;
#DIFFICULTY:Beginner;
#METER:2;
#RADARVALUES:0,0,0,0,0;
#NOTES:
0000
0000
0000
0000
,
0000
0000
0000
0000
,
0000
0000
0000
0000
,
0000
0000
0000
0000
,
1000
0000
0000
0000
,
0010
0000
0000
0000
,
0100
0000
0000
0000
,
0001
0000
0000
0000
,
1001
0000
0000
0000
,
0100
0000
0000
0000
,
0010
0000
0000
0000
,
1000
0000
0000
0000
,
0011
0000
0000
0000
,
0100
0000
0000
0000
,
0010
0000
0000
0000
,
1000
0000
0000
0000
,
0001
0000
0000
0000
,
0100
0000
0000
0000
,
0010
0000
0000
0000
,
1000
0000
0000
0000
,
0110
0000
0000
0000
,
0001
0000
0000
0000
,
0010
0000
0000
0000
,
0001
0000
0000
0000
,
0110
0000
1000
0000
,
1000
0000
0001
0000
,
0001
0000
0100
0000
,
0100
0000
0010
0000
,
0110
0000
0001
0000
1000
0000
0100
0010
,
0100
0000
0001
0000
1000
0000
0001
0010
,
0001
0000
0100
0000
0010
0000
1000
0100
,
1000
0010
0100
0010
,
0101
0000
0010
0000
,
1000
0000
0100
0000
,
0010
0000
0001
0000
,
1000
0000
0010
0000
,
0100
0000
0010
0000
,
0001
0000
1000
0000
,
1001
0000
0010
0000
,
0100
0000
0010
0000
,
0001
0000
1000
0000
,
0100
0000
0010
0000
,
0110
0000
0000
0000
,
1000
0000
0001
0000
,
0010
0000
0000
0000
,
0100
0000
0010
0010
,
0001
0000
0000
0000
,
1000
0000
0010
0100
,
1000
0000
0000
0010
,
0100
0000
0001
1000
,
0010
0000
0000
0000
,
0100
0000
0001
0010
,
1000
0000
0000
0000
,
0100
0000
0100
0000
,
0110
0000
0000
0000
;

//--------------- dance-single - B. M'Rey ----------------
#NOTEDATA:;
#STEPSTYPE:dance-single;
#DESCRIPTION:B. M'Rey;
#CREDIT:B. M'Rey;
#DIFFICULTY:Easy;
#METER:4;
#RADARVALUES:0,0,0,0,0;
#NOTES:
0000
0000
0000
0000
,
0000
0000
0000
0000
,
0000
0000
0000
0000
,
0000
0000
0000
0000
,
1000
0010
0100
0000
,
0001
0010
0001
0000
,
0100
0010
1000
0000
,
0010
0000
0100
0000
,
0001
0010
0001
0000
,
0100
0010
1000
0000
,
0100
0010
1000
0000
,
0001
0000
0100
0000
,
0010
0001
0000
0000
,
1000
0010
0000
0000
,
0100
0010
0000
0000
,
1001
0000
0001
0001
,
1000
0010
0000
0100
,
0010
0001
1000
0010
,
0100
0000
0010
0000
,
0001
0000
0000
1000
0000
0000
0010
0000
,
0100
0010
0000
0000
,
1000
0001
0010
0100
,
1000
0000
0010
0000
,
0100
0010
0001
0010
,
1001
0000
0010
0000
,
0100
0000
0010
0001
,
0001
0000
1000
0000
,
0100
0000
0010
0000
,
1000
0000
0010
0000
0100
0000
0010
0001
,
0010
0000
1000
0000
0100
0000
1000
0100
,
0010
0000
0100
0000
0010
0000
0001
1000
,
0010
0100
0010
1000
,
0101
0000
0110
0000
,
1010
0000
0110
0000
,
0101
0000
1001
0000
,
1010
0000
0110
0000
,
0001
0000
0100
0000
,
0010
0000
1000
0000
,
0100
0000
0010
0000
,
0001
0000
1000
1000
,
0010
0000
0100
0000
,
0010
0000
0001
0001
,
1000
0010
0000
0100
,
0010
0000
1000
0001
,
0010
0000
0100
0000
,
0110
0000
0001
0001
,
1000
0010
0000
0000
,
0001
0010
0100
1000
,
0000
0000
0000
0001
,
1000
0000
0010
0000
,
0100
0010
0000
0000
,
0001
1000
0010
0100
,
0000
0000
0000
0000
,
0001
0010
0100
1000
,
1010
0000
0000
0000
;

//--------------- dance-single - B. M'Rey ----------------
#NOTEDATA:;
#STEPSTYPE:dance-single;
#DESCRIPTION:B. M'Rey;
#CREDIT:B. M'Rey;
#DIFFICULTY:Medium;
#METER:7;
#RADARVALUES:0,0,0,0,0;
#NOTES:
0000
0000
0000
0000
,
0000
0000
0000
0000
,
0000
0000
0000
0000
,
0000
0000
0000
0000
,
0001
0010
0001
0010
0000
0100
0000
0000
,
0010
1000
0010
0100
0000
0010
0000
0000
,
0001
0100
0001
0100
0000
1000
0000
0000
,
0010
0000
0100
0001
,
0001
0010
1000
0100
0000
0010
0000
0000
,
0001
0000
0010
0000
1000
0100
1000
0000
,
0010
0100
0010
0100
0000
1000
0000
0000
,
0001
0000
0000
0000
0001
0100
0010
0000
,
1000
0010
1000
0010
0000
0100
0000
0000
,
0001
0000
0010
0000
0001
0100
0010
0000
,
1000
0100
1000
0100
0000
0000
0010
0000
,
0001
0000
0000
0000
0001
1000
0010
0000
,
0100
0010
0100
0010
0000
0001
0000
1000
,
0000
0001
1000
0000
0001
0100
0010
0100
,
0000
0010
0000
1000
0000
0100
0000
0001
,
0010
0001
0000
1000
0000
0010
1000
0000
,
0100
0010
0100
0010
0000
1000
0000
0001
,
0000
0010
0100
0001
0100
0010
1000
0100
,
0000
0010
0000
0100
0000
0001
0010
0000
,
1000
0100
0010
0001
,
0001
0000
0000
1000
0000
0000
0010
0000
,
0000
0100
0000
0000
0010
0000
0001
0010
,
1000
0000
0000
0100
0000
0000
0010
0000
,
0000
1000
0000
0000
0001
0000
0001
0010
,
0100
0000
0000
0010
0000
0000
1000
0000
0000
0001
0000
0000
0010
0000
0001
0010
,
0001
0000
0000
0100
0000
0000
0010
0000
0000
1000
0000
0000
0100
0000
0010
0100
,
0010
0000
0000
0001
0000
0000
1000
0000
0000
0010
0000
0000
0100
0000
0001
0010
,
0001
0000
0000
1000
0000
0000
0010
0000
0000
0100
0000
0000
0010
0000
0100
0000
,
0100
0010
1000
0001
0010
0100
1000
0010
,
0100
0001
0100
0010
0100
0001
0010
0100
,
1000
0100
1000
0001
0010
0100
1000
0001
,
0100
0001
0010
0100
0010
0100
0010
0001
,
0100
0010
1000
0100
,
0010
0100
0010
0100
,
1000
0000
0001
0000
0010
0100
0010
0000
,
1000
0000
0100
0000
0001
0010
0001
0000
,
0100
0000
0010
0000
1000
0010
1000
0000
,
0100
0000
0010
0000
0001
0010
0001
0000
,
1001
0100
0010
1000
,
0001
0000
0010
0000
0001
0010
0001
0000
,
0100
0010
0100
0010
0000
1000
0100
0000
,
0001
0000
0000
0001
0010
0001
0010
0000
,
0100
0010
0100
0010
0000
1000
0000
0100
,
0000
0001
0100
0000
0001
1000
0000
0010
,
0100
0000
0001
0000
0010
0000
1000
0100
,
1000
0100
0000
0010
0000
0100
0001
0000
,
0010
0100
0010
0100
0000
0010
0000
0001
,
0000
0001
1000
0000
0010
1000
0000
0001
,
1000
0010
0100
0010
,
0001
0010
0001
0000
1000
0100
1000
0000
,
1001
0000
0000
0000
;

//--------------- dance-single - B. M'Rey ----------------
#NOTEDATA:;
#STEPSTYPE:dance-single;
#DESCRIPTION:B. M'Rey;
#CREDIT:B. M'Rey;
#DIFFICULTY:Hard;
#METER:11;
#RADARVALUES:0,0,0,0,0;
#NOTES:
0000
0000
0000
0000
,
0000
0000
0000
0000
,
0000
0000
0000
0000
,
0000
0000
0000
0000
,
0010
0001
1000
0001
1000
0001
0100
0010
,
1000
0000
0100
0000
1000
0010
0100
0000
,
1000
0001
1000
0100
0010
0100
1000
0010
,
1000
0000
0010
0000
1000
0010
0100
0000
,
0100
0010
1000
0001
0100
0001
1000
0100
,
0010
0000
0000
0000
0010
0000
0001
0000
1000
0000
0001
0010
0100
0000
0000
0000
,
0100
0000
0010
0000
1000
0000
0010
0000
1000
0000
0001
0000
0010
0001
0010
0000
,
0100
0000
0010
0001
0100
0010
0100
0000
,
0101
0001
0010
0001
0000
0010
0000
0010
,
0100
0000
0000
0000
0100
0000
0010
0000
1000
0000
0100
0010
0100
0000
0000
0000
,
1000
0000
0100
0000
0010
0000
0001
0000
0100
0000
0001
0000
0100
0010
0100
0000
,
1000
0000
1000
0001
1000
0001
0100
0000
,
1000
0100
1000
0010
0000
0100
0000
1000
,
0000
0001
0010
0100
0010
0100
0010
0001
,
0000
1000
0000
0001
0000
0100
0010
0100
,
0010
0100
0000
0010
0000
0001
1000
0000
,
1001
0001
0010
0100
0000
0001
1000
0000
,
0100
0001
1000
0100
1000
0001
1000
0100
,
0000
0001
0000
1000
0000
0010
1000
0000
,
1000
0001
0100
0010
1000
0001
0100
0001
,
1001
0000
0010
0200
0000
0301
0020
0000
,
1030
0200
0000
0310
0100
0010
0001
0010
,
2000
0000
3010
0200
0000
0301
0020
0000
,
1030
0200
0000
0310
0100
0010
0100
0001
,
0010
0000
1000
0001
0000
0010
0100
0000
0001
0010
0000
1000
0100
0000
0010
0100
,
0010
0000
0001
0010
0000
1000
0100
0000
0010
0100
0000
0001
0010
0000
1000
0010
,
0100
0000
0001
0010
0000
0001
0010
0000
1000
0100
0000
0010
0100
0000
0001
0010
,
0001
0000
0000
0000
1000
0000
0010
0000
0000
0000
0100
0000
0010
0000
0000
0000
0001
0000
0010
0000
0000
0000
1000
0000
0100
0000
0000
0000
0010
0100
0010
0100
,
0010
0001
0001
1000
1000
0010
0100
0000
0010
0010
0100
0100
0001
0010
1000
0000
,
0010
0010
0100
0100
0001
0010
0010
0000
1000
0100
0100
1000
0100
0100
0100
0000
,
0010
0010
0001
0010
0010
0001
0010
0000
0100
0100
0010
0010
0100
0100
0010
0000
,
0001
0001
1000
1000
0001
0001
1000
0000
0010
0100
0100
0010
0010
0001
0010
0000
,
1000
0010
0100
0001
,
1000
0000
0000
0000
0000
0000
0000
0000
0010
0000
0000
0000
0000
0000
0000
0000
0100
0000
0000
0000
0000
0000
0000
0000
0001
1000
0000
0100
0010
0000
0001
0000
,
0010
0001
1000
0100
0010
0100
0010
0100
,
1000
0001
0100
0001
0010
0100
0010
0001
,
0100
0001
1000
0001
0010
0100
1000
0010
,
0100
0001
0010
0100
1000
0010
1000
0000
,
0010
0100
0001
1000
0010
1000
0001
0010
,
0100
0000
0000
0000
0100
0000
1000
0000
0001
0000
1000
0100
0010
0000
0000
0000
,
0010
0000
0100
0000
0001
0000
0100
0000
0001
0000
1000
0000
0100
1000
0100
0000
,
0010
0000
0100
1000
0010
0100
0010
0000
,
1010
1000
0100
1000
0000
0100
0010
0000
,
0010
0100
0010
0100
0001
0010
0100
1000
,
0000
0010
0000
1000
0000
1000
0010
0100
,
0001
0010
0000
1000
0000
1000
0010
0000
,
1001
0010
0001
0100
0000
0010
0000
0001
,
0000
1000
0100
0010
0100
0010
0100
1000
,
0000
0001
0000
1000
0000
0010
0100
0010
,
1000
0001
0010
0001
0010
0001
0100
0010
1000
0010
1000
0010
0100
0001
0100
0001
,
1000
0000
0000
0000
;
