#TITLE:THE ENDLESS SUMMER;
#SUBTITLE:;
#ARTIST:泉 陸奥彦;
#TITLETRANSLIT:;
#SUBTITLETRANSLIT:;
#ARTISTTRANSLIT:Mutsuhiko Izumi;
#GENRE:;
#CREDIT:;
#MUSIC:The Endless Summer.ogg;
#BANNER:The endless summer.png;
#BACKGROUND:The endless summer-bg.png;
#CDTITLE:./cdtitles/GUITARFREAKS & drummania.png;
#SAMPLESTART:42.372;
#SAMPLELENGTH:12.000;
#SELECTABLE:YES;
#OFFSET:-0.250;
#BPMS:0.000=160.000;
#STOPS:;
#BGCHANGES:;
#FGCHANGES:;

//--------------- dance-single - B. M'Rey ----------------
#NOTES:
     dance-single:
     B. M'Rey:
     Beginner:
     2:
     0.154,0.187,0.051,0.025,0:
0000
0000
0000
0000
,
0000
0000
0000
0000
,
0000
0000
0000
0000
,
0000
0000
0000
0000
,
0100
0010
0000
0000
,
0010
0100
0000
0000
,
0000
0000
0100
0000
0000
0001
0000
0000
,
0010
0000
0000
0000
,
1000
0001
0000
0000
,
1000
0001
0000
0000
,
0000
0110
0000
0000
,
0000
0100
0000
0010
,
0000
1000
0000
0000
,
0010
0100
0000
0000
,
0000
0000
0100
0000
0000
0001
0000
0000
,
0010
0000
0000
0000
,
1000
0001
0000
0000
,
1000
0001
0000
0000
,
0000
0100
0000
0000
,
0000
0010
0000
0000
,
0000
1000
0000
0000
,
0000
0001
0000
0000
,
0000
0100
0000
0100
,
0010
0001
0000
0001
,
0000
0010
0000
0000
,
0000
0100
0000
0000
,
0000
1000
1000
1000
,
1000
1001
0000
0000
,
0000
0000
0000
0000
0010
0000
0000
0010
,
0000
0000
0000
0000
0010
0000
0000
0010
,
0000
0000
0000
0000
0100
0000
0000
0100
,
0000
0000
0000
0000
0100
0000
0000
0100
,
0000
1000
0000
0010
,
0000
1000
0000
0100
,
0000
0001
0000
0010
,
0000
0001
0000
0100
,
0000
0001
0000
0001
,
0000
1000
0000
1000
,
0000
0001
0000
0001
,
0000
0010
0000
0100
,
0000
1000
0000
0000
,
0000
0001
0000
0000
,
0000
0100
0000
0100
,
0010
0001
0000
0001
,
0000
0010
0000
0000
,
0000
0100
0000
0000
,
0000
1000
1000
1000
,
1000
1001
0000
0000
,
0000
0220
0000
0000
,
0330
0000
0000
0000
;

//--------------- dance-single - B. M'Rey ----------------
#NOTES:
     dance-single:
     B. M'Rey:
     Easy:
     3:
     0.276,0.467,0.076,0.14,0:
0000
0000
0000
0000
,
0000
0000
0000
0000
,
0000
0000
0000
0000
,
0000
0000
0000
0000
,
0000
0000
0000
0000
0001
0001
0000
0000
,
0001
0000
0000
0000
1000
1000
0000
0000
,
1000
0000
0000
0000
0010
0010
0000
0000
,
0010
0000
0000
0000
0100
0100
0000
0000
,
0100
0000
0000
0000
1000
0001
0000
0000
,
0010
0000
0000
0000
0001
1000
0000
0000
,
0100
0000
0000
0000
1000
0010
0000
0000
,
0001
0000
0000
0000
0001
0010
0000
0000
,
1000
0010
0000
0000
,
0100
0001
0000
0000
,
0000
0000
0002
0000
0000
0023
0000
0000
,
1030
0000
0000
0000
,
0100
0001
0010
0000
0000
0000
0000
0000
,
0100
1000
0010
0000
0000
0000
0000
0000
,
0000
1001
0000
0000
,
0000
0000
0001
0010
0000
0100
1000
0000
,
0000
0001
0100
0010
,
1000
0001
0100
0010
,
1000
0002
0023
2030
,
3020
2030
3020
0032
,
0003
0001
0100
0010
,
1000
0001
0100
0010
,
1000
0100
0100
0100
,
0100
0001
0000
0000
,
0000
0010
0000
0000
0010
0000
0000
0010
,
0000
0000
0000
0000
0100
0000
0000
0100
,
0000
0000
0000
0000
0001
0000
0000
0001
,
0000
0000
0000
0000
1000
0000
0000
1000
,
0000
0100
1000
0010
,
0001
0100
1000
0010
,
0001
0100
0100
0010
,
0010
0100
0001
0010
,
1000
1000
0000
0001
,
0000
0001
0000
1000
,
0000
0100
0001
1000
,
0010
0110
0110
0110
,
0110
0001
0010
0100
,
1000
0001
0010
0100
,
1000
0000
0100
0001
,
1000
0010
0100
0001
,
1000
1000
0100
0010
,
0001
1000
0100
0010
,
0001
0100
0100
0100
,
0010
0001
0000
0000
,
0000
2002
0000
0000
,
3003
0000
0000
0000
;

//--------------- dance-single - B. M'Rey ----------------
#NOTES:
     dance-single:
     B. M'Rey:
     Medium:
     7:
     0.374,0.53,0.191,0.153,0:
0000
0000
0000
0000
,
0000
0000
0000
0000
,
0000
0000
0000
0000
,
0000
0000
0000
0000
,
1000
1001
0000
0000
,
0100
0001
0010
0000
0000
0000
0000
0000
,
0000
0000
0100
0000
0000
1000
0000
0000
,
0001
0000
0000
0000
,
1000
0010
0001
0000
0000
0001
0000
0000
,
1000
0100
0001
0000
0000
1000
0000
0000
,
0000
0220
0000
0330
,
0000
0000
0100
1000
0001
0010
0000
0000
,
0010
0110
0000
0000
,
0001
1000
0001
0000
0000
0000
0000
0000
,
0000
0000
1000
0000
0000
0001
0000
0000
,
0010
0000
0000
0000
,
0100
0010
0001
0000
0000
0100
0000
0000
,
0010
0100
0001
0000
0000
0010
0000
0000
,
0000
0202
0000
0303
,
0000
0000
0100
0001
1000
0010
0000
0000
,
0000
1001
0000
0001
1000
0010
0100
1000
,
0100
0001
0000
1000
0100
1000
0001
0010
,
0001
0001
0010
1000
,
0001
0200
0302
2003
,
3000
0110
0000
0100
1000
0001
0010
0001
,
0010
0100
0000
0100
0001
1000
0010
1000
,
0010
2000
3002
0203
,
0310
1100
0000
0000
,
0000
0100
0001
1000
,
0010
0001
1000
0100
,
0001
1000
0010
0001
,
1000
0100
0001
0100
,
1000
0010
0010
0001
,
0001
1000
1000
0100
,
0100
0001
0100
0100
,
0001
1000
0100
0001
,
0100
1000
0010
0100
,
1000
0100
0100
0100
,
0100
1000
0001
1000
,
0010
0101
0101
1010
,
0101
0110
0000
0010
1000
0001
0100
1000
,
0000
1100
0000
0001
1000
0001
0010
1000
,
0001
0000
0000
0010
0100
1000
0001
0010
,
1000
0001
0100
1000
0001
0010
1000
0001
,
0100
1010
0000
0010
0100
1000
0001
0010
,
0000
0110
0000
0100
1000
0001
0010
1000
,
0001
0000
1000
1000
0010
0010
0100
0100
,
0001
2000
0000
0000
,
0000
0200
0000
0000
,
3300
0000
0000
0000
;

//--------------- dance-single - B. M'Rey ----------------
#NOTES:
     dance-single:
     B. M'Rey:
     Hard:
     9:
     0.614,0.717,0.382,0.127,0.076:
0000
0000
0000
0000
,
0000
0000
0000
0000
,
0000
0000
0000
0000
,
0000
0000
0000
0000
0000
0000
0000
0000
0000
0000
0000
0000
0001
1000
0001
1000
,
0001
1000
0001
1000
0001
0000
1000
0000
0010
0000
0100
0000
0001
0000
0000
0000
,
1001
0000
0010
1000
0100
0010
0001
0000
,
0110
0000
1000
0100
1000
0010
0100
0000
,
0101
0000
0010
1000
0100
0001
0010
0000
,
0110
0000
1000
0001
0010
0100
0010
0000
,
1001
0000
0010
0100
0001
0100
0010
0000
,
1001
0000
0010
1000
0100
0001
0010
0000
,
0110
0000
0000
0000
0001
0000
0010
0000
0100
0000
1000
0000
0010
0001
0000
0010
,
1000
0000
0100
0010
0001
0000
0010
0000
0100
0000
0001
0000
0010
0000
1000
0000
,
0100
0010
1000
0100
0001
0010
0001
0100
,
0010
1000
0200
0000
0000
0320
0000
0031
,
0002
0013
0001
0100
,
0010
0100
0001
1000
0010
0100
0010
1000
,
0100
0010
0001
0010
0001
0100
0010
1000
,
0010
0100
0020
0000
0001
0000
0001
0000
,
0001
0000
0000
0000
0031
0010
0000
0100
0001
0000
0010
0100
0000
0001
1000
0000
,
1000
0010
0000
0001
0010
1000
0010
0100
,
0001
0010
0000
1000
0001
0010
0001
0100
,
0010
1000
0010
1000
0001
0010
0100
0010
,
1000
0010
0001
0000
1000
0000
0100
0000
,
0001
0010
0000
1000
0001
0100
0010
0001
,
1000
0100
0000
0001
1000
0010
0100
0001
,
0010
1000
1100
0011
1100
0011
1100
0011
,
1100
0011
1200
0000
0010
0000
0001
0000
,
0010
0000
0301
0000
1000
0100
0010
0000
,
1001
0000
0010
0000
0001
1000
0010
0000
,
0110
0000
0001
0000
1000
0010
0100
0000
,
0110
0000
0001
0000
0010
1000
0100
0000
,
0110
0000
1000
1000
0100
0100
0001
0001
,
0010
0010
0001
0001
0100
0100
0010
0010
,
1000
1000
0010
0010
0100
0100
0001
0001
,
0010
0010
0100
1000
0100
1000
0100
1000
,
0100
0000
0010
0000
1001
0000
0000
0100
0010
0000
0001
0000
0100
0000
0010
0000
,
1000
0100
0001
0010
,
0100
0000
1000
0000
0001
0010
0100
0010
,
1000
0100
0002
0000
0010
0000
0010
0000
,
0010
0013
0000
0001
0010
1000
0010
0100
,
0001
0010
0000
1000
0001
0010
0001
0100
,
0010
1000
0010
1000
0001
0010
0100
0010
,
1000
0010
0001
0010
2000
0000
3200
0000
,
0301
0010
0000
1000
0001
0100
0010
0001
,
1000
0100
0000
0001
1000
0010
0100
0001
,
0010
1000
1100
0011
1100
0011
1100
0011
,
1100
0011
1200
0000
0010
0000
0001
0000
,
0010
0002
0000
0000
,
0303
0000
0000
0000
;
