#VERSION:0.83;
#TITLE:TURN BACK TIME (Love To Infinity's Classic Radio Mix);
#ARTIST:AQUA;
#GENRE:HOUSE;
#MUSIC:Turn Back Time (Love To Infinity's Classic Radio Mix).ogg;
#BANNER:Turn Back Time (Love To Infinity's Classic Radio Mix)-bn.png;
#BACKGROUND:Turn Back Time (Love To Infinity's Classic Radio Mix)-BG.png;
#CDTITLE:./CDTITLES/ZIPMANIA DIAMOND.PNG;
#SAMPLESTART:40.24;
#SAMPLELENGTH:15;
#OFFSET:-0.143;
#BPMS:0=57.986,16=115.971;

//--------------- dance-single - B. M'Rey ----------------
#NOTEDATA:;
#STEPSTYPE:dance-single;
#DESCRIPTION:B. M'Rey;
#DIFFICULTY:Beginner;
#METER:1;
#RADARVALUES:0,0,0,0,0;
#NOTES:
0000
0000
0000
0000
,
0000
0000
0000
0000
,
1000
0000
0000
0000
,
0010
0000
0000
0000
,
0100
0000
0000
0000
,
0001
0000
0000
0000
,
0010
0000
0000
0000
,
1000
0000
0000
0000
,
0100
0000
0000
0000
,
1000
0000
0000
0000
,
0010
0000
0000
0000
,
0100
0000
0000
0000
,
0001
0000
0000
0000
,
0010
0000
0000
0000
,
0100
0000
0000
0000
,
0100
0000
0000
0000
,
1000
0000
1000
0000
,
0001
0000
0001
0000
,
0100
0000
0100
0000
,
0010
0000
0010
0000
,
1000
0000
0100
0000
,
0010
0000
0001
0000
,
0010
0000
1000
0000
,
0100
0000
0000
0000
,
0010
0000
0000
0000
,
1000
0000
0000
0000
,
0001
0000
0000
0000
,
0010
0000
0000
0000
,
0100
0000
0000
0000
,
1000
0000
0001
0000
,
0010
0000
0000
0000
,
0100
0000
1000
0000
,
0010
0000
0000
0000
,
0100
0000
0001
0000
,
0010
0000
0000
0000
,
1000
0000
0000
0000
,
0100
0000
0100
0000
,
0010
0000
0010
0000
,
0001
0000
0001
0000
,
1000
0000
1000
0000
,
1001
0000
0010
0000
,
0010
0000
0100
0000
,
0100
0000
1000
0000
,
0010
0000
0000
0000
,
0100
0000
0000
0000
;

//--------------- dance-single - B. M'Rey ----------------
#NOTEDATA:;
#STEPSTYPE:dance-single;
#DESCRIPTION:B. M'Rey;
#DIFFICULTY:Easy;
#METER:5;
#RADARVALUES:0,0,0,0,0;
#NOTES:
0000
0000
0000
0000
,
0000
0000
0000
0000
,
1001
0010
0100
0010
,
1000
0100
1000
0010
,
0100
0010
0100
0001
,
0010
0000
0000
1000
,
0200
0000
0300
0010
,
0100
0000
0000
0001
,
1010
1000
0100
1000
,
0100
0010
0100
0010
,
0001
0010
0100
1000
,
0000
0000
0000
0000
,
0010
0100
0001
0000
,
0010
1000
0100
0000
,
0010
0000
0100
0000
,
0010
0000
1000
1000
,
0002
0000
0000
0000
0203
0000
0000
0310
,
0000
1000
0000
0000
0010
0000
0100
0000
,
1000
0000
0010
0000
,
0100
0000
0001
1000
,
0020
0000
0000
0000
0230
0000
0000
0301
,
0000
1000
0000
0000
0010
0000
0100
0000
,
0020
0000
0000
0030
1000
0000
0100
0000
,
1000
0000
0001
0010
,
0100
0000
1000
0000
,
0010
0000
0100
0000
,
0010
0000
0001
0000
,
1000
0000
0010
0000
,
0100
0100
0010
0010
,
0001
0001
1001
0000
,
0001
0010
0010
0100
,
0100
0000
1010
0000
,
1000
0100
0100
0010
,
0010
0000
0101
0000
,
0100
0010
0010
1000
,
1000
0000
0010
0100
,
0002
0000
0000
0000
0203
0000
0000
0310
,
0000
1000
0000
0000
0010
0000
0100
0000
,
1000
0000
0010
0000
,
0100
0000
0001
1000
,
0020
0000
0000
0000
0230
0000
0000
0301
,
0000
1000
0000
0000
0010
0000
0100
0000
,
0020
0000
0000
0030
1000
0000
0100
0000
,
1000
0000
0001
0010
,
0110
0000
0000
0000
;

//--------------- dance-single - B. M'Rey ----------------
#NOTEDATA:;
#STEPSTYPE:dance-single;
#DESCRIPTION:B. M'Rey;
#DIFFICULTY:Medium;
#METER:8;
#RADARVALUES:0,0,0,0,0;
#NOTES:
0000
0000
0000
0000
,
0000
0000
0000
0000
,
1001
0001
1000
0010
0100
0001
0000
0010
,
1000
0000
0010
0100
0010
0000
0001
0000
,
0001
0000
1000
0100
0010
0000
0100
0001
,
0000
0010
0000
1000
0000
0100
0010
0000
,
0200
0000
1000
0000
0301
0000
1000
0010
,
1000
0000
1000
0000
0010
0000
0100
0010
,
0100
0000
0100
0001
0100
0000
0100
0000
,
0001
0000
0010
0001
0000
0010
0000
0100
,
0100
0010
0010
0000
0001
0001
1000
0000
,
0001
1000
0010
1000
,
0100
0010
0100
0000
0100
0000
0010
0000
,
0001
0100
0001
0000
0001
0100
0001
0000
,
0001
1000
0010
1000
,
0100
0000
0010
0100
,
0002
0000
0000
0103
0020
0000
1030
0001
,
0000
1100
0000
0100
0001
0100
1000
0000
,
0110
0000
0100
0001
0000
0010
0000
0001
,
0000
0010
1000
0000
0001
0100
0001
0000
,
0020
0000
0000
0130
0002
0000
1003
0100
,
0000
0110
0000
0000
0001
1000
1000
0000
,
0110
0000
0100
0000
0110
0000
0100
0010
,
0000
0100
1000
0000
0100
0000
1000
0010
,
0010
0000
0100
0001
0001
0000
0010
0001
,
0001
0000
0100
0100
0001
0000
0100
0000
,
0010
1000
1000
0000
0001
1000
1000
0000
,
0010
1000
0010
0100
,
0010
1000
0100
1000
0000
1000
0001
0010
,
0001
0100
0000
0000
0101
0000
0110
0000
,
0100
0010
0001
1000
0000
0010
0001
1000
,
0100
1000
0000
0000
0011
0000
0110
0000
,
0010
1000
0100
0010
0000
1000
0001
0010
,
0100
0010
0000
0000
0110
0000
1010
0000
,
0100
1000
0100
1000
0000
1000
0100
0010
,
0001
0100
0000
0000
0010
0000
0100
0000
,
2000
0000
0000
3100
0020
0000
0031
1000
,
0000
0101
0000
0100
1000
0100
0001
0000
,
0110
0000
0100
1000
0000
0010
0000
1000
,
0000
0010
0001
0000
1000
0100
1000
0000
,
0020
0000
0000
0130
2000
0000
3001
0100
,
0000
0110
0000
0000
1000
0001
0001
0000
,
0110
0000
0100
0000
0110
0000
0100
0010
,
0000
0100
0001
0000
0100
0000
0001
1000
,
0220
0000
0000
0000
,
0330
0000
0000
0000
;

//--------------- dance-single - B. M'Rey ----------------
#NOTEDATA:;
#STEPSTYPE:dance-single;
#DESCRIPTION:B. M'Rey;
#DIFFICULTY:Hard;
#METER:10;
#RADARVALUES:0,0,0,0,0;
#NOTES:
0000
0000
0000
0000
,
0000
0000
0000
0000
,
1000
0000
0001
0010
0100
0000
0001
0010
0000
1000
0000
0100
0000
0010
1000
0000
,
0101
0000
0000
0010
1000
0100
0010
1000
0001
0000
0100
0000
0010
1000
0100
0010
,
0100
0010
0001
0100
0010
1000
0010
1000
,
0100
0010
0001
1000
0010
0100
0010
1000
,
0002
0000
0010
0000
1003
0100
0001
0100
,
0001
0000
0010
0000
1000
0100
0001
0010
,
0100
0000
0001
0010
0100
1000
0001
0010
,
0001
0000
0001
0100
0010
1000
0001
0100
,
0010
1000
0100
0010
0100
0010
0001
0000
,
0001
1000
0100
0000
0010
0100
0010
1000
,
0001
1000
0001
0100
0000
1000
0100
0000
,
0100
1000
0010
0100
0010
1000
0100
1000
,
0001
0000
0100
0000
0001
1000
0010
0100
,
1001
0000
0001
0010
0001
0010
0100
1000
,
0200
0000
0301
0010
0200
0000
0301
0010
,
0002
0000
0103
0000
0001
0100
0001
0100
,
0001
0000
0010
0100
0000
0100
0010
1000
,
1001
0000
1100
0000
0010
0100
0010
1000
,
0020
0000
0031
0100
0002
0000
1003
0010
,
0000
0100
0000
0010
0001
0010
0100
1000
,
0002
0000
0013
0000
0001
0100
0001
0100
,
0010
0000
0101
0000
0001
0100
0010
0100
,
0001
0010
0001
0010
0001
1000
0010
0100
,
0010
1000
0001
0010
0100
1000
0010
0100
,
0001
1000
0001
0010
0001
0100
0010
1000
,
0100
1000
0100
1000
0010
0100
0001
1000
,
1001
0010
0001
1000
0010
1000
0001
1000
,
0110
0100
0001
0100
0010
0100
0001
0010
,
1100
1000
0010
1000
0001
0010
0100
1000
,
0101
0100
0001
1000
0001
0100
0010
0100
,
1010
1000
0010
1000
0001
1000
0100
0010
,
0101
0100
0010
1000
0010
1000
0100
1000
,
0110
0010
0001
0100
0001
0010
1100
1000
,
0010
1000
0001
0010
0100
0010
0001
1000
,
0002
0000
1003
0100
2000
0000
3010
1000
,
0002
0000
0103
0000
0010
1000
0001
0010
,
0200
0000
0301
1000
0010
0100
0001
0010
,
0011
0000
0110
0000
0001
1000
0010
1000
,
0020
0000
0031
0010
0002
0000
0103
1000
,
0200
0000
0310
0000
0001
1000
0010
0100
,
0011
0000
0001
0100
0011
0000
0001
0100
,
1001
0000
1001
0000
0010
1000
0100
1000
,
2002
0000
0000
0000
,
3003
0000
0000
0000
;
