#VERSION:0.83;
#TITLE:THE MAX (Max 300 remix);
#ARTIST:Bleed Binary;
#GENRE:TECHNO;
#MUSIC:THE MAX (Max 300 remix).ogg;
#BANNER:THE MAX (Max 300 remix)-bn.png;
#BACKGROUND:THE MAX (Max 300 remix)-BG.png;
#CDTITLE:./CDTITLES/DANCE DANCE REVOLUTION EXTREME 3.PNG;
#SAMPLESTART:19.234;
#SAMPLELENGTH:15;
#OFFSET:-0.234;
#BPMS:0=300,159=150,223=300,287=150,319=300;

//--------------- dance-single - B. M'Rey ----------------
#NOTEDATA:;
#STEPSTYPE:dance-single;
#DESCRIPTION:B. M'Rey;
#DIFFICULTY:Beginner;
#METER:5;
#RADARVALUES:0,0,0,0,0;
#NOTES:
0000
0000
0000
0000
,
0000
0000
0000
0000
,
0000
0000
0000
0000
,
0000
0000
0000
0000
,
0000
0000
0000
0000
,
0000
0000
0000
0000
,
0000
0000
0000
0000
,
0000
0000
0000
0000
,
1000
0000
0000
0000
,
0010
0000
0000
0000
,
0100
0000
0000
0000
,
0001
0000
0000
0000
,
0010
0000
0000
0000
,
0001
0000
0000
0000
,
0100
0000
0000
0000
,
0010
0000
0000
0000
,
1000
0000
0000
0000
,
0100
0000
0000
0000
,
1000
0000
0000
0000
,
0010
0000
0000
0000
,
0100
0000
0000
0000
,
0001
0000
0000
0000
,
0010
0000
0000
0000
,
0001
0000
0000
0100
,
0100
0000
0000
0001
,
0001
0000
0000
1000
,
1000
0000
0000
0010
,
0000
0100
0000
0010
,
0010
0000
0000
1000
,
1000
0000
0000
0001
,
0001
0000
0000
0100
,
0000
0010
0000
1000
,
1000
0000
0000
0100
,
0100
0000
0000
1000
,
1000
0000
0000
0010
,
0000
0100
0000
0001
,
0001
0000
0000
0010
,
0010
0000
0000
0100
,
0100
0000
0000
0001
,
0000
1000
0000
0020
,
0000
0000
0000
0130
,
0000
0001
0000
0000
1000
0000
0020
0000
,
0000
0000
0000
0130
,
0000
0010
0000
0000
1000
0000
0200
0000
,
0000
0000
0000
0301
,
0000
0010
0000
0000
0100
0000
2000
0000
,
0000
0000
0000
3100
,
0000
0001
0000
0000
0010
0000
0200
0000
,
0000
0000
0000
1300
,
0000
0001
0000
0000
0100
0000
0020
0000
,
0000
0000
0000
1030
,
0000
0010
0000
0000
0100
0000
0002
0000
,
0000
0000
0000
0013
,
0000
0100
0000
0000
0001
0000
2000
0000
,
0000
0000
0000
3010
,
0000
0100
0000
0000
0001
0000
1000
0000
,
0000
0000
0000
0000
,
0000
0000
0000
0001
,
0000
0000
0100
0000
,
0000
0010
0000
1000
,
0000
0000
0000
0000
,
0000
0000
0000
0100
,
0000
0000
0001
0000
,
0000
0010
0000
0001
,
0000
0000
0000
0000
,
0000
0000
0000
0100
,
0000
0000
0010
0000
,
0000
1000
0000
0100
,
0000
0000
0000
0000
,
0000
0000
0000
0001
,
0000
0000
0010
0000
,
0000
0001
0000
0100
,
0010
0000
0000
0000
,
0000
1000
0000
0001
,
0010
0000
0000
0100
,
0000
1000
0000
0100
,
0001
0000
0000
0100
,
0000
0010
0000
1000
,
0000
0001
0000
0100
,
0000
0010
0000
1000
,
0000
0010
0000
0000
,
0000
0000
0000
0100
,
0000
0000
0000
0001
,
0000
0000
0000
0010
,
0000
1000
0000
0100
,
0000
0000
0000
0001
,
0000
0000
0000
0010
,
0000
0000
0000
0100
,
0000
0010
0000
1000
,
0000
0000
0000
0100
,
0000
0000
0000
0001
,
0000
0000
0000
0010
,
0000
0000
0000
0100
,
0000
0000
0000
1000
,
0000
0000
0000
0001
,
0000
0000
0000
1001
,
0000
0000
0000
0000
,
0000
0000
0000
0100
,
0000
0000
0000
0110
,
0000
0000
0000
0001
,
0000
0000
0000
0011
,
0000
0000
0000
1010
,
0000
1010
0000
0110
,
0000
0110
0000
0101
;

//--------------- dance-single - B. M'Rey ----------------
#NOTEDATA:;
#STEPSTYPE:dance-single;
#DESCRIPTION:B. M'Rey;
#DIFFICULTY:Easy;
#METER:7;
#RADARVALUES:0,0,0,0,0;
#NOTES:
0000
0000
0000
0000
,
0000
0000
0000
0000
,
0000
0000
0000
0000
,
0000
0000
0000
0000
,
0000
0000
0000
0000
,
0000
0000
0000
0000
,
0000
0000
0000
0000
,
0000
0000
0000
0000
,
0100
0000
0100
0000
,
0001
0000
0001
0000
,
1000
0000
0100
0000
,
0100
0000
0010
0000
,
0010
0000
1000
0000
,
0100
0000
0100
0000
,
0010
0000
0010
0000
,
0001
0000
0001
0000
,
0100
0000
0100
0000
,
1000
0000
0010
0000
,
0001
0000
0001
0000
,
0100
0000
0100
0000
,
1000
0000
1000
0000
,
0001
0000
0100
0000
,
0100
0000
0001
0000
,
0001
0000
1000
0010
,
0100
0000
0000
0010
,
0001
0000
0000
0010
,
0001
0000
0100
1000
,
0000
0010
0000
0100
,
0001
0000
0000
0100
,
0001
0000
0000
0100
,
0010
0000
0000
0100
,
0001
0000
0100
1000
,
0100
0000
0000
0100
,
0001
0000
0000
1000
,
0001
0000
1000
0100
,
0000
0001
0000
0100
,
0001
0000
0001
0010
,
0100
0000
0010
1000
,
0001
0000
0100
0010
,
0000
0100
0000
0020
,
0000
0000
0000
2030
,
0000
3200
0000
0000
0310
0000
0020
0000
,
0000
0000
0000
0230
,
0000
0302
0000
0000
0103
0000
2000
0000
,
0000
0000
0000
3020
,
0000
0032
0000
0000
0103
0000
2000
0000
,
0000
0000
0000
3020
,
0000
0230
0000
0000
0301
0000
0010
0000
,
0100
0010
0100
1000
,
0000
1000
0001
1000
,
0000
0100
0001
0100
,
0000
0100
0001
0010
,
0000
0010
0001
1000
,
0000
1000
0010
1000
,
0000
0100
0001
0100
,
0000
0010
0100
0001
,
0000
1000
0000
0100
,
0000
0001
0000
0010
,
0000
0010
0000
1000
,
0000
0001
0000
0100
,
0000
0010
0000
1000
,
0000
0100
0000
0001
,
0000
1000
0000
0010
,
0000
1000
0000
0001
,
0000
0010
0000
0100
,
0000
0100
0000
0010
,
0000
0001
0000
1000
,
0000
1000
0000
0001
,
0000
0010
0000
0100
,
0000
1000
0000
0010
,
0000
0001
0000
1000
,
0000
0100
0000
0002
,
0000
0003
0000
1000
,
0000
0010
0000
1000
,
0020
0030
0000
0100
,
0000
0010
0000
1000
,
0010
0000
0010
0100
,
0000
0100
0001
1000
,
0000
0001
0000
1000
,
0000
0010
0000
1000
,
0000
0010
0000
0001
,
0000
0010
0000
1000
,
0000
0001
0000
0010
,
0000
1000
0000
0010
,
0000
1000
0000
0001
,
0000
1000
0000
0010
,
0000
0100
0000
1000
,
0000
0010
0000
1000
,
0000
0010
0000
0100
,
0000
0010
0000
1000
,
0000
0001
0000
1000
,
0000
0100
0000
0010
,
0000
0100
0000
0001
,
0000
1000
0000
0010
,
0000
0100
0000
0001
,
0000
0100
0000
0110
,
0000
0000
0000
0001
,
0000
0000
0000
1001
,
0000
0000
0000
0110
,
0000
0000
0000
0011
,
0000
0000
0000
0110
,
0000
0000
0000
1010
,
0000
0000
0000
0110
,
0000
0000
0000
1001
;

//--------------- dance-single - B. M'Rey ----------------
#NOTEDATA:;
#STEPSTYPE:dance-single;
#DESCRIPTION:B. M'Rey;
#DIFFICULTY:Medium;
#METER:13;
#RADARVALUES:0,0,0,0,0;
#NOTES:
0000
0000
0000
0000
,
0000
0000
0000
0000
,
0000
0000
0000
0000
,
0000
0000
0000
0000
,
0001
0000
0001
0000
,
0001
1000
0010
0000
,
0010
0000
0010
0000
,
0001
0010
0100
0000
,
0100
0000
0100
1000
,
0001
0010
0100
0000
,
0100
1000
0100
1000
,
0010
1000
0001
0000
,
0001
0010
0001
1000
,
0100
1000
0100
0000
,
0001
0100
0001
0100
,
0001
1000
0010
0000
,
0010
1000
0001
0100
,
0010
0100
0010
0000
,
0001
0010
0001
1000
,
0001
1000
0010
0000
,
0010
0100
0010
1000
,
0001
1000
0001
0000
,
0010
0100
0010
0100
,
0010
1000
0001
1000
,
0001
0000
0100
0010
,
0100
0000
0100
1000
,
0010
0000
0010
1000
,
0001
0100
0001
0100
,
0010
0000
0010
1000
,
0010
0000
0001
1000
,
0010
0000
0010
0100
,
0010
1000
0100
1000
,
0100
0000
0001
0100
,
0001
0000
0001
1000
,
0010
0000
0010
1000
,
0001
0100
0001
0100
,
0001
0000
0010
1000
,
0001
0000
0010
0100
,
0010
0000
0001
0100
,
0001
0000
1000
0000
0001
0000
0200
0001
,
0000
0000
1000
0000
0000
0301
0002
0010
,
0000
0000
1000
0000
0000
0103
2000
0010
,
0000
0000
0100
0000
0000
3001
0200
0010
,
0000
0000
0010
0000
0000
0310
2000
0001
,
0000
0000
0001
0000
0000
3001
0002
1000
,
0000
0000
1000
0000
0000
1003
0002
0100
,
0000
0000
0100
0000
0000
0103
0020
0001
,
0000
0000
0001
0000
0000
0031
0001
0000
,
1000
0001
1000
0001
,
0001
1000
0001
1000
0100
1000
0100
0000
,
0010
0100
0001
0100
,
0100
1000
0010
1000
0001
1000
0010
0000
,
0010
0100
0001
0100
,
0100
1000
0100
1000
0100
0010
0001
0000
,
0100
1000
0100
0010
,
0010
1000
0010
1000
0010
0100
0001
0000
,
0100
1000
0100
1000
,
0100
0010
0001
0100
,
0001
0100
0001
0010
,
0100
1000
0001
0100
,
0010
0100
0001
1000
,
0001
1000
0001
0100
,
0010
0100
0001
0100
,
0001
1000
0001
1000
,
0100
1000
0100
0010
,
0100
0010
0001
0010
,
0001
0100
0001
0100
,
0010
0100
0010
1000
,
0001
1000
0001
1000
,
0100
0010
0100
1000
,
0100
0010
0001
1000
,
0001
0000
0000
0000
0010
0000
0000
0000
0001
0000
0000
0000
0002
0000
0000
0023
,
0000
2030
0000
0000
0000
0000
3020
0000
,
0000
0000
0032
0000
0203
0000
0000
0302
0000
0000
0023
0000
0230
0000
0000
2300
,
0000
3020
0000
0000
0000
0000
0230
0000
,
0000
0000
0302
0000
0023
0000
0000
0230
0000
0000
0302
0000
0023
0000
0000
2030
,
0000
3002
0000
0000
0000
0000
0203
0000
,
0000
0000
0320
0000
0230
0000
0000
0302
0000
0000
2003
0000
3020
0000
0000
0230
,
0000
0000
0320
0000
0230
0000
0000
0302
0000
0000
2003
0000
3020
0000
0000
0230
,
0000
0302
0023
0000
2030
0000
3100
0000
,
0010
1000
0010
1000
,
0100
0010
0100
1000
,
0100
1000
0001
1000
,
0001
0100
0001
0100
,
0010
0100
0010
1000
,
0010
1000
0100
1000
,
0100
0010
0100
0010
,
0001
1000
0001
1000
,
0001
0100
0010
0100
,
0010
0100
0001
1000
,
0001
1000
0001
0010
,
0100
0010
0100
0010
,
0001
1000
0010
1000
,
0010
1000
0100
0010
,
0100
0010
0100
1000
,
0001
0010
0001
0110
,
0000
0000
0000
0001
,
0000
0000
0000
1001
,
0000
1000
0001
1000
,
0000
1000
0010
0100
,
0000
0100
0001
0100
,
0000
1000
0001
1000
,
0000
0010
0100
0010
,
0000
1000
0001
1001
;

//--------------- dance-single - B. M'Rey ----------------
#NOTEDATA:;
#STEPSTYPE:dance-single;
#DESCRIPTION:B. M'Rey;
#DIFFICULTY:Hard;
#METER:15;
#RADARVALUES:0,0,0,0,0;
#NOTES:
0000
0000
0000
0000
,
0000
0000
0000
0000
,
0000
0000
0000
0000
,
0000
0000
0000
0000
,
0001
0000
0010
1000
0100
0000
0100
0000
,
0001
0100
0001
0000
1001
0000
0010
0000
,
0100
0000
0010
0100
0001
0000
0010
0000
,
0100
0010
0001
0000
0010
0000
0001
0000
,
0100
0010
0100
0000
0100
0010
0001
0000
,
0001
0100
0001
0000
1100
0000
0001
0000
,
0001
0100
0001
0000
0010
0100
0010
0000
,
0100
0010
0100
0000
0101
0000
0010
0000
,
0010
1000
0010
0000
0001
0100
0010
0000
,
0001
0010
0001
0000
0110
0000
0010
0000
,
0100
0010
0001
0000
0001
0100
0010
0000
,
0001
1000
0010
0000
0001
0000
1001
0000
,
0001
0000
0010
0100
0001
0000
0001
0100
,
0000
0010
0100
0000
0101
0000
0001
0100
,
0001
0000
0100
1000
0000
0010
0001
0000
,
0001
0100
0000
0100
0001
0000
1001
0000
,
0001
0000
0010
1000
0100
0000
0001
0000
,
0001
0100
0001
0000
0010
0000
0010
1000
,
0100
0000
0100
0010
0100
0000
0010
0100
,
0001
0000
0001
0100
0010
1000
0001
0000
,
0010
0000
0100
0000
1000
0100
0010
0000
,
0100
0000
0001
0000
0010
0001
0100
0000
,
1000
0010
1100
0110
,
0011
1001
1100
0110
,
0100
0000
0001
0000
0010
0001
0100
0000
,
1000
0000
0001
0000
1000
0010
0100
0000
,
1000
0001
0110
1100
,
1010
0110
1001
0011
,
0100
0000
0001
0000
0010
1000
0001
0000
,
0100
0000
0010
0000
0100
0010
0001
0000
,
1000
0000
0010
0000
0100
1000
0001
0000
,
0110
0101
1100
0110
,
0100
0000
0010
0000
1000
0100
0010
0000
,
0100
0000
0001
0000
0010
0100
0001
0000
,
0100
1000
0001
0000
0010
0001
0100
0000
,
1000
0100
0001
0000
0010
0000
0200
0001
,
0000
0001
0000
0000
1000
0000
0000
1000
0000
0000
0301
0000
0002
0000
0010
0000
,
0000
0010
0000
0000
1000
0000
0000
1000
0000
0000
0103
0000
2000
0000
0010
0000
,
0000
0100
0000
0000
0100
0000
0000
0001
0000
0000
3001
0000
0200
0000
0010
0000
,
0000
0001
0000
0000
0010
0000
0000
0001
0000
0000
0310
0000
2000
0000
0001
0000
,
0000
0010
0000
0000
0001
0000
0000
0010
0000
0000
3001
0000
0002
0000
1000
0000
,
0000
0010
0000
0000
1000
0000
0000
0010
0000
0000
1003
0000
0002
0000
0100
0000
,
0000
0010
0000
0000
0100
0000
0000
0010
0000
0000
0103
0000
0020
0000
0001
0000
,
0000
0100
0000
0000
0001
0000
0000
0100
0000
0000
0031
0000
2000
0000
0100
0000
,
0000
0010
0000
0000
0100
0000
0000
0010
0000
0000
3100
0000
0002
0000
1000
0000
,
0000
1000
0000
0100
0100
0000
1000
0000
0100
0000
1003
0000
0200
0000
0010
0000
,
0000
0001
0000
0000
0010
0000
0000
0001
0000
0000
0310
0000
2000
0000
0001
0000
,
0000
0010
0000
0001
0001
0000
0010
0000
0001
0000
0010
0000
3002
0000
0010
0000
,
0000
0100
0000
0000
0010
0000
0000
0100
0000
0000
0013
0000
0020
0000
1000
0000
,
0100
0000
0100
1000
1000
0000
0100
0000
1000
0000
0100
0000
2030
0000
0010
0000
,
0000
0100
0000
0000
0010
0000
0000
0100
0000
0000
3010
0000
2000
0000
0001
0000
,
0010
0001
0010
0000
0001
0000
0010
0000
0001
0000
3010
0000
0001
0000
1000
0000
,
0001
0000
0001
0100
0010
0000
0001
0010
,
0001
0000
0010
1000
0010
0000
0001
0100
,
0001
0000
0001
0010
0110
0000
0110
0000
,
1001
0000
1001
0000
0101
0000
0100
0010
,
0100
0000
0001
1000
0100
0000
0100
0010
,
0100
0000
0001
1000
0100
0000
0100
0010
,
0100
0000
0001
0010
0101
0000
0011
0000
,
0110
0000
1100
0000
0011
0000
0100
1000
,
0100
0000
0001
0100
0001
0000
0001
1000
,
0010
0000
0010
0100
0010
0000
0001
0100
,
0001
0000
0001
0010
1100
0000
1100
0000
,
0110
0000
0110
0000
0011
0000
0010
1000
,
0001
0000
0001
1000
0010
0000
0010
0100
,
0010
0000
0001
1000
0010
0000
0010
0100
,
0010
0000
0100
1000
0100
1000
0010
0100
,
0001
0000
0100
0000
0001
0000
0100
0000
0010
0000
1000
0000
0020
0000
0000
0230
,
0000
0302
0000
0000
0000
0000
0023
0000
,
0000
0000
1030
0000
0100
0000
0000
2000
0000
0000
3010
0000
0100
0000
0000
0020
,
0000
0032
0000
0000
0000
0000
0203
0000
,
0000
0000
0310
0000
1000
0000
0000
0020
0000
0000
1030
0000
0100
0000
0000
0020
,
0000
0032
0000
0000
0000
0000
0203
0000
,
0000
0000
0310
0000
0100
0000
0000
1000
0000
0000
0010
0000
0100
0000
0000
0001
,
0000
0000
0100
0000
0010
0000
0000
0100
0000
0000
1000
0000
0010
0000
0000
0100
,
0000
0000
0001
0000
0100
0000
0000
0010
0000
0000
0001
0000
0001
0000
1000
0000
,
0010
0000
0001
0000
0100
0010
0001
0000
,
0100
0010
0100
0010
,
1000
0000
0010
0000
0100
1000
0001
0000
,
0100
0000
0001
0000
0100
0001
0010
0000
,
1000
0000
0010
0000
0100
1000
0010
0000
,
1000
0001
0100
0001
,
0100
0000
0010
0000
0100
0001
0010
0000
,
1000
0000
0010
0000
1000
0001
0100
0000
,
1000
0000
0100
0000
0010
1000
0001
0000
,
0010
0001
0010
0100
,
1000
0000
0100
0000
1000
0001
0100
0000
,
0010
0000
0001
0000
0010
1000
0001
0000
,
0010
0000
0100
0001
1000
0000
0100
0000
,
1000
0000
0100
0001
0010
0000
0001
0000
,
0010
0000
0100
1000
0010
0000
0100
0000
,
1000
0100
0010
0001
,
1000
0001
0000
0100
0001
0000
0110
0000
,
1000
0000
0001
0000
0010
0000
1000
0100
,
0000
0001
0010
0000
0110
0000
1000
0100
,
0000
0001
0010
0000
0110
0000
1000
0100
,
0000
0001
0010
0000
0101
0000
0010
1000
,
0000
0100
0010
0000
0101
0000
0010
1000
,
0000
0100
1000
0000
0010
0000
0100
0001
,
0000
0100
0001
0000
0010
0000
1001
0000
;

//--------------- dance-single - B. M'Rey ----------------
#NOTEDATA:;
#STEPSTYPE:dance-single;
#DESCRIPTION:B. M'Rey;
#DIFFICULTY:Challenge;
#METER:18;
#RADARVALUES:0,0,0,0,0;
#NOTES:
0000
0000
0000
0000
,
0000
0000
0000
0000
,
0000
0000
0000
0000
,
0000
0000
0000
0000
,
1000
0000
0001
1000
0001
0000
0100
0001
,
0010
0000
0010
1000
0010
0000
0100
0000
,
0001
0000
0001
0010
1000
0000
1000
0010
,
1000
0000
0010
0001
0010
0001
0110
0000
,
0100
0000
0001
0010
1000
0000
0100
0000
,
1000
0100
0010
0000
0100
0001
0000
0010
,
1000
0000
0100
0001
0000
1000
0010
0000
,
0100
0001
0100
0000
1010
0000
0110
0000
,
0001
0000
0001
0010
0001
0000
1000
0100
,
0000
0010
0100
0000
0001
0010
0001
0000
,
0001
0000
0001
0010
0100
0000
0100
1000
,
0000
1000
0001
0000
0001
0010
0001
0000
,
0100
0000
0100
1000
0100
0000
0001
0010
,
0001
0010
0100
0000
1100
0000
0001
1000
,
0001
0000
0100
0010
0000
0010
0001
0000
,
0001
0100
0001
0010
0100
1000
0110
0000
,
0010
0000
0010
0100
0000
0100
0101
0000
,
0100
1000
0000
1000
0001
0000
0101
0100
,
0001
0000
1010
1000
0010
0000
0011
0010
,
0001
0000
1001
1000
0010
0000
0001
0100
,
0001
0100
0001
1000
0100
1000
0001
0010
,
0001
0010
0001
1000
0010
1000
0010
1000
,
0100
0010
0100
0010
0001
0010
0100
1000
,
0100
1000
0100
0010
0001
0010
0001
0010
,
0100
1000
0100
1000
0100
0010
0001
0100
,
0001
0100
0001
1000
0100
1000
0100
1000
,
0001
0010
0001
0010
0001
0100
0010
0100
,
0010
0100
0001
1000
0001
1000
0001
0100
,
0010
0100
0010
1000
0010
0100
0001
1000
,
0001
1000
0001
0100
0010
0100
0010
0100
,
0001
1000
0010
0100
0001
0100
0010
0100
,
0010
1000
0010
1000
0001
1000
0001
0010
,
0001
0010
0100
1000
0100
1000
0100
0010
,
0001
1000
0001
1000
0001
0100
0010
0100
,
0010
0100
0001
1000
0001
0100
0001
0100
,
0010
0100
0001
0010
0001
0010
0001
0001
,
0001
0010
0000
1000
0100
0000
0100
1000
0000
0100
0001
0010
0001
0000
0001
0000
,
0010
1000
0000
1000
0001
0000
0001
0010
0000
1000
0100
1000
0100
0000
0010
0000
,
0010
0100
0000
1000
0001
0000
0001
0010
0000
0010
0100
0010
0100
0000
0100
0000
,
0001
1000
0000
0010
0001
0000
0100
0010
0000
1000
0010
1000
0010
0000
0001
0000
,
0010
0100
0000
0100
0001
0000
0001
0010
0000
1000
0100
1000
0100
0000
0100
0000
,
0001
1000
0000
1000
0001
0000
0010
1000
0000
0100
0010
0100
0001
0000
0001
0000
,
0001
1000
0000
1000
0100
0000
0100
0010
0000
0010
0001
0100
0001
0000
0010
0000
,
0001
1000
0000
0100
0001
0000
0010
0100
0000
1000
0010
1000
0001
0000
0001
0000
,
0010
0100
0000
1000
0010
0000
0001
1000
0000
0100
0001
0000
0010
0000
1000
0000
,
0010
0100
0001
0100
0001
0100
0010
1000
0010
1000
0010
0100
0001
0000
0100
0000
,
0001
0100
0000
1000
0010
0000
0001
1000
0000
0100
0001
0000
0100
0000
0010
0000
,
0100
1000
0010
1000
0010
1000
0001
0010
0100
0010
0100
0010
0001
0000
1000
0000
,
0001
1000
0000
1000
0100
0000
0100
0010
0000
0010
0001
0000
0100
0000
1000
0000
,
0001
0100
0001
0100
0001
1000
0010
0100
0010
0100
0010
1000
0001
0000
0010
0000
,
0001
0010
0000
1000
0100
0000
0100
0010
0000
0010
0001
0000
0100
0000
1000
0000
,
0100
0010
0001
1000
0001
0010
0001
0010
0100
1000
0100
0010
0001
0000
1000
0000
,
0001
1000
0001
0010
0100
0010
0100
0010
,
0001
1000
0001
1000
0001
0010
0100
0010
,
0100
0010
0001
1000
0100
1000
0100
1000
,
0001
0010
0001
0010
0001
1000
0100
1000
,
0100
1000
0001
0010
0001
0010
0001
1000
,
0010
1000
0010
1000
0100
0010
0001
0010
,
0001
0010
0100
1000
0100
1000
0001
1000
,
0001
0010
0001
1000
0100
1000
0100
1000
,
0010
0100
0010
0100
0010
1000
0100
1000
,
0010
1000
0010
0100
0010
0100
0001
1000
,
0010
1000
0010
1000
0001
0100
0001
0100
,
0001
0010
0100
0010
0001
0010
0001
1000
,
0001
1000
0010
1000
0100
0010
0001
0010
,
0001
0010
0100
1000
0001
1000
0100
1000
,
0100
0010
0100
0010
0001
0010
0100
1000
,
0100
0000
1000
0000
0100
0000
0010
0000
0001
0000
0010
0000
2000
0000
0000
3200
,
0000
0302
0000
0000
0000
0000
0203
0000
,
0000
0000
2300
0000
3020
0000
0000
2030
0000
0000
3200
0000
0320
0000
0000
0032
,
0000
0203
0000
0000
0000
0000
0320
0000
,
0000
0000
2030
0000
3200
0000
0000
0320
0000
0000
2030
0000
3200
0000
0000
0302
,
0000
0010
0000
0100
0000
0010
0000
1000
,
0000
0000
0203
0000
0320
0000
0000
2030
0000
0000
3002
0000
0203
0000
0000
0320
,
0000
0000
0230
0000
0320
0000
0000
2030
0000
0000
3002
0000
0203
0000
0000
0320
,
0000
2030
3200
0000
0302
0000
0013
1000
,
0001
1000
0001
0100
0010
0100
0010
0100
,
0001
1000
0001
1000
0001
0010
0100
0010
,
0100
0010
0001
1000
0001
1000
0001
0100
,
0010
0100
0010
1000
0010
1000
0001
1000
,
0010
0100
0010
0100
0010
1000
0001
0010
,
0001
1000
0001
1000
0010
1000
0100
0010
,
0100
1000
0010
1000
0010
0100
0001
0100
,
0001
0100
0010
1000
0010
0100
0010
0100
,
0001
0100
0001
1000
0010
1000
0010
0100
,
0010
0100
0001
1000
0001
1000
0001
0010
,
0100
0010
0100
1000
0010
1000
0001
1000
,
0001
0010
0001
0010
0100
1000
0100
1000
,
0100
0010
0001
0010
0001
0010
0100
1000
,
0001
1000
0001
1000
0100
0010
0100
0010
,
0100
1000
0010
1000
0010
1000
0001
0100
,
0001
0100
0001
0010
0100
0010
0110
0000
,
0001
0100
0000
0010
1000
0000
0110
0000
,
0101
0000
1010
0000
0100
0010
0100
0000
,
0100
0001
0000
0010
1000
0000
0100
0001
,
0000
0010
1000
0000
0100
0000
0010
0001
,
0000
1000
0100
0000
0001
0000
0010
0100
,
0000
1000
0010
0000
0100
0000
0001
1000
,
0100
1000
0100
1000
0010
0100
0010
0100
,
0001
0010
0001
1000
0001
0010
0100
0000
;
