#TITLE:THE LOCO-MOTION;
#SUBTITLE:;
#ARTIST:KYLIE MINOGUE;
#TITLETRANSLIT:;
#SUBTITLETRANSLIT:;
#ARTISTTRANSLIT:;
#GENRE:;
#CREDIT:;
#MUSIC:The Loco-Motion.ogg;
#BANNER:THE LOCO-MOTION-bn.png;
#BACKGROUND:THE LOCO-MOTION-bg.png;
#CDTITLE:./CDTITLES/DANCEMANIA/80'S TWO.PNG;
#SAMPLESTART:30.160;
#SAMPLELENGTH:12.000;
#SELECTABLE:YES;
#OFFSET:-0.248;
#BPMS:0.000=129.054;
#STOPS:;
#BGCHANGES:;
#FGCHANGES:;

//--------------- dance-single - B. M'Rey ----------------
#NOTES:
     dance-single:
     B. M'Rey:
     Beginner:
     2:
     0,0,0,0,0:
0000
0000
0000
0000
,
0000
0000
0000
0000
,
0000
0000
0000
0000
,
0000
0000
0000
0000
,
0000
0010
0000
0100
,
0000
1000
1000
0100
,
0000
0001
0000
0010
,
0000
0100
0000
1001
,
1001
0010
0000
0100
,
0000
0001
0001
1000
,
0000
0010
0000
0100
,
0000
0010
0000
1001
,
1001
0010
0000
0100
,
0000
0001
0010
1000
,
0000
0010
0000
0100
,
0000
1000
0100
0010
,
0000
0001
0000
0000
,
1000
0000
0000
0010
,
0100
0010
0000
0000
,
1000
0100
0010
0001
,
0010
0000
0000
0000
,
1000
0000
0001
0000
,
0000
1001
0000
0010
,
0000
0100
0000
0000
,
0000
1000
1000
0001
,
0001
0010
0000
0100
,
0000
0010
0000
0000
,
0000
1000
0000
0000
,
0000
0100
0000
0000
,
0000
0001
0000
0000
,
0000
0010
0000
0000
,
0000
0100
0000
0000
,
0000
0010
0000
0000
,
0000
1000
0000
0000
,
0000
0001
0000
0010
,
0000
0100
0100
1000
,
0000
0010
0000
0100
,
0000
0010
0010
0001
,
0000
1000
0000
0000
,
0001
0000
0000
0010
,
0100
0010
0000
0000
,
0001
0100
0010
1000
,
0010
0000
0000
0000
,
0001
0000
1000
0000
,
0000
1001
0000
0010
,
0000
0100
0000
0000
,
0000
0001
0001
1000
,
1000
0010
0000
0100
,
0000
1000
0000
1000
,
0000
0001
0001
0001
,
0000
0000
0000
0000
,
0000
0000
0000
0000
,
0000
0010
0000
0010
,
0000
0100
0100
0100
,
0000
0000
0000
0000
,
0000
0000
0000
0000
,
0000
1000
0000
0010
,
0000
0100
0000
0010
,
0000
0001
0000
0010
,
0000
1000
0000
0010
,
0000
0001
0000
0000
,
1000
0000
0000
0010
,
0100
0010
0000
0000
;

//--------------- dance-single - B. M'Rey ----------------
#NOTES:
     dance-single:
     B. M'Rey:
     Easy:
     3:
     0,0,0,0,0:
0000
0000
0000
0000
,
0000
0000
0000
0000
,
0000
0000
0000
0000
,
0000
0000
0000
0000
,
0000
0010
1000
0100
,
0010
0100
1000
0100
,
0010
0000
0000
0001
0010
0000
0001
0000
,
0000
0010
0100
0000
1000
0000
1010
0000
,
1010
0001
0010
0001
,
1000
0010
1000
0010
,
0100
0000
0000
0001
0100
0000
0010
0000
,
0000
0100
0001
0000
1000
0000
1001
0000
,
1001
0010
1000
0100
,
0010
0001
1000
0010
,
0000
0010
0100
0010
,
1000
0001
1000
0000
,
0000
0000
0110
0000
0000
1001
0000
0000
,
2002
3003
0100
0010
,
1000
0001
0000
0100
,
1000
0100
0010
0100
,
0010
0001
0000
0001
,
0100
0010
0000
0000
,
0010
0000
0001
0000
0000
0002
0000
0000
,
2003
0000
3010
0001
,
1000
0100
0010
0100
,
1000
1010
0000
1100
,
0000
0010
0100
0001
,
0100
0001
1000
0001
,
0000
0000
0100
0000
,
1000
0000
1000
0000
,
0001
0001
0100
0010
,
0100
0010
1000
0010
,
0000
0000
0010
0000
,
0100
0000
0010
0000
,
1000
0100
1000
0100
,
1000
0001
0010
0100
,
0000
0010
1000
0010
,
1000
0000
0100
0000
0000
0010
0000
0000
,
1000
0000
1010
0000
0000
0101
0000
0000
,
0202
0303
0100
0001
,
1000
0100
0000
0001
,
0100
0001
0100
0001
,
0010
0000
0000
0100
,
1000
0001
0000
0000
,
1000
0000
0001
0000
0000
0020
0000
0000
,
0230
0000
0310
0000
,
0010
0001
1000
0100
,
1000
0110
0000
0110
,
0000
0001
0100
0010
,
1000
0001
0010
0001
,
0000
0000
1000
0100
,
0000
0001
0010
0000
,
1001
0010
0100
0001
,
0010
0001
0100
0010
,
0000
0000
0010
0001
,
0000
0001
0010
0000
,
1100
0001
1000
0100
,
1000
0020
0000
0032
,
0000
0103
0010
0001
,
0010
0000
0100
0000
0000
0010
0000
0000
,
0000
0000
0110
0000
0000
1001
0000
0000
,
2002
3003
0100
0010
,
1000
0022
0000
0000
,
0000
0000
0000
0000
,
0033
0000
0000
0000
;

//--------------- dance-single - B. M'Rey ----------------
#NOTES:
     dance-single:
     B. M'Rey:
     Medium:
     6:
     0,0,0,0,0:
0000
0000
0000
0000
,
0000
0000
0000
0000
,
0000
0000
0000
0000
,
0000
0000
0000
0000
,
0000
0000
1000
0000
0001
0000
0010
0100
,
0001
0000
0010
0000
1000
0100
1000
0000
,
0010
0000
0100
0010
0100
0000
0010
0100
,
0000
0001
0000
1000
0001
0000
1001
0000
,
0110
0000
0001
0010
0001
0000
1000
0100
,
1000
0000
0010
0000
0100
0010
0000
0202
,
0000
0000
0303
0010
1000
0000
0001
0100
,
0000
0010
0000
0010
1000
0100
1001
0000
,
0110
0000
0001
0010
0001
0000
1000
0100
,
1000
0000
0010
0100
0010
0001
0000
0000
,
0010
0000
1000
0100
1000
0000
0001
0010
,
0001
0000
0010
0100
0010
0100
0000
0000
,
0010
0000
1001
0000
0000
0101
0000
0000
,
0110
0000
0000
0001
1000
0010
0100
1000
,
0100
1000
0010
0000
0100
0000
0010
1000
,
0100
1000
0001
0000
0010
0000
0001
0100
,
0010
0100
1001
0000
1001
0000
0000
0100
,
0010
0000
0001
1000
0000
0010
0000
0100
,
0001
1000
0010
0000
0100
0000
1000
0010
,
0100
0001
1000
0000
0010
0000
0100
0000
,
1000
0010
0001
0000
0010
0000
0001
0000
,
0100
1000
0100
0000
0010
0000
0001
1000
,
0001
0100
0010
0001
,
0100
0001
0100
0010
,
0100
0000
0010
1000
1000
0000
0010
0100
,
0000
0001
0000
0100
0100
0001
0101
0000
,
1100
0010
1000
0010
,
1000
0001
0100
0010
,
1000
0000
0100
1000
1000
0000
0010
1000
,
0000
0100
0000
0100
0010
1000
0101
0000
,
1100
0000
1000
0001
1000
0000
0010
0100
,
0010
0000
0001
0010
0001
1000
0100
0000
,
0010
0000
0010
1000
0010
0000
0100
0010
,
0100
0000
0001
0010
0100
1000
0100
0000
,
0010
0000
1001
0000
0000
1100
0000
0000
,
0110
0000
0000
1000
0001
0010
0100
0001
,
0100
0001
0010
0000
0100
0000
0010
0001
,
0100
0001
1000
0000
0010
0000
1000
0100
,
0010
0100
1001
0000
1001
0000
0000
0100
,
0010
0000
1000
0001
0000
0010
0000
0100
,
1000
0001
0010
0000
0100
0000
0001
0010
,
0100
1000
0001
0000
0010
0000
0100
0000
,
0001
0010
1000
0000
0010
0000
1000
0000
,
0100
0001
0100
0000
0010
0000
1000
0001
,
1000
0000
0100
0100
0100
0001
0001
0001
,
0010
0010
0010
1000
0100
1000
0100
0000
,
1000
0000
0001
0010
0100
0000
1000
0100
,
0000
0010
0000
0001
0010
0000
1001
0000
,
0110
0000
1000
1000
1000
0100
0100
0100
,
0010
0010
0010
0001
0010
0001
0010
0100
,
1000
0000
0000
0010
0001
0000
0100
1000
,
0000
0010
0000
0100
0001
0000
1001
0000
,
0110
0000
0001
1000
0010
0000
0100
0010
,
0100
1000
0100
0001
,
0010
0000
0001
0010
0001
0000
1000
0100
,
1000
0000
0010
0100
0010
0000
0001
0000
,
1000
0000
1001
0000
0000
0101
0000
0000
,
0110
0000
0000
0001
1000
0010
0100
1000
,
0100
1000
0220
0000
0000
0000
0000
0000
,
0000
0000
0000
0000
,
0330
0000
0000
0000
;

//--------------- dance-single - B. M'Rey ----------------
#NOTES:
     dance-single:
     B. M'Rey:
     Hard:
     7:
     0,0,0,0,0:
0000
0000
0000
0000
,
0000
0000
0000
0000
,
0000
0000
0000
0000
,
0000
0000
0000
0000
,
0000
0000
0010
1000
0001
0010
0100
0000
,
0001
0100
0001
0000
0010
0100
0000
1000
,
0001
0000
0100
0010
0001
0000
0100
1000
,
0000
1001
0000
1000
0100
0010
0101
0000
,
1010
0000
0100
0010
0001
0010
0100
1000
,
0100
1000
0001
1000
0010
0100
0000
0020
,
0000
0030
0100
1000
0001
0000
0010
1000
,
0000
0100
0000
1000
0001
0010
0110
0000
,
0011
0000
0100
1000
0001
1000
0100
1000
,
0100
0010
0001
0100
0010
0100
0000
0010
,
0000
0010
0100
0010
0001
1000
0001
0100
,
0010
0100
0001
1000
0000
0010
0000
1000
,
0001
0000
0010
0100
0000
0100
0001
0000
,
2002
0000
3003
1000
0100
0010
0001
0100
,
0010
1000
0010
0000
0001
0000
0010
1000
,
0010
1000
0100
0000
0001
0000
0010
0000
,
0100
1000
0002
0000
0103
0000
1000
0010
,
0001
0000
0001
0100
0000
1000
0000
0010
,
0100
1000
0001
0000
0010
0000
0100
0010
,
0100
1000
0100
0000
1000
0000
0010
0000
,
0010
1000
0010
0000
0001
0000
0010
0000
,
0010
0100
0001
0100
0010
0000
0001
1000
,
0010
1000
0100
0010
0100
0010
0001
0000
,
0100
1000
0010
0000
0001
0100
0000
1000
,
0001
0000
0001
0010
0100
0000
0010
1000
,
0000
0010
0000
0010
0100
1000
0101
0000
,
1010
0000
0001
0010
0001
0010
0100
0010
,
0001
0100
0010
1000
0010
1000
0000
0001
,
0000
0100
0000
0010
0100
0000
0001
0010
,
0000
1000
0000
1000
0010
0100
0110
0000
,
1010
0000
0100
1000
0010
1000
0010
0100
,
0010
0100
0001
0100
0001
0010
0200
0000
,
0300
1000
0010
1000
0010
0100
0001
0010
,
0001
0010
0100
1000
0100
1000
0000
0100
,
0000
1000
0001
1000
0000
1000
0001
0000
,
2002
0000
3003
0100
0010
0100
0010
1000
,
0100
0010
0001
0000
0100
0000
0010
0100
,
0001
0010
0100
0000
0010
0000
0010
0100
,
0001
0010
0001
0000
0010
0000
0010
1000
,
0100
0000
0001
0010
0000
0001
0000
1000
,
0010
0100
0010
0000
1000
0001
0000
0100
,
0010
1000
0000
0010
0100
0000
0100
0010
,
0001
0100
0001
0000
0100
0000
0001
0000
,
0001
0100
0010
1000
0010
0000
0010
0100
,
0001
0100
0010
0010
0001
1000
1000
0010
,
0001
0001
0010
1000
0100
1000
0101
0000
,
0110
0000
0010
1000
0001
0000
0010
1000
,
0000
0100
0000
1000
0100
1000
0110
0000
,
0110
0000
0001
0010
0010
0100
0001
0001
,
0010
1000
1000
0010
0001
1000
0110
0000
,
0110
0000
0001
0010
0100
0000
0010
1000
,
0000
1000
0000
0100
0010
1000
1100
0000
,
0110
0000
0100
0010
0001
1000
0001
1000
,
0001
0100
0020
0000
0031
0200
0000
0301
,
0000
0100
0001
1000
0010
1000
0100
1000
,
0001
0010
0001
0010
0000
0100
0000
0100
,
0001
0000
0001
1000
0000
1000
0010
0000
,
0022
0000
0033
0010
0001
0100
0010
1000
,
0100
1000
0220
0000
0000
0000
0000
0000
,
0000
0000
0000
0000
,
0330
0000
0000
0000
;
