#TITLE:TAKE ME TO THE HILL;
#SUBTITLE:;
#ARTIST:LOUD FORCE;
#TITLETRANSLIT:;
#SUBTITLETRANSLIT:;
#ARTISTTRANSLIT:;
#GENRE:;
#CREDIT:;
#MUSIC:TAKE ME TO THE HILL.ogg;
#BANNER:TAKE ME TO THE HILL-bn.png;
#BACKGROUND:TAKE ME TO THE HILL-bg.png;
#CDTITLE:./CDTITLES/DANCEMANIA/EX6.PNG;
#SAMPLESTART:59.472;
#SAMPLELENGTH:12.000;
#SELECTABLE:YES;
#OFFSET:-0.272;
#BPMS:0.000=150.000;
#STOPS:;
#BGCHANGES:;
#FGCHANGES:;

//--------------- dance-single - B. M'Rey ----------------
#NOTES:
     dance-single:
     B. M'Rey:
     Beginner:
     2:
     0,0,0,0,0:
0000
0000
0000
0000
,
0000
0000
0000
0000
,
0000
0000
0000
0000
,
0000
0000
0000
0000
,
0000
0000
0000
0000
,
1000
0000
0001
0000
,
0100
0000
0010
0010
,
0001
0000
1000
0000
,
1001
0000
0000
0000
,
1000
0000
0000
0000
,
0010
0000
0100
0000
,
0001
0000
0000
0000
,
0100
0000
0010
0000
,
1000
0000
0000
0000
,
0001
0000
0010
0000
,
0001
0000
0000
0000
,
1000
0000
0001
0000
,
1001
1000
0001
0000
,
1000
0000
0000
0000
,
0000
0010
0100
0000
,
0010
0000
0000
0000
,
0001
1000
0000
0000
,
0100
0000
0000
0000
,
0000
0001
1000
0000
,
0010
0000
0001
0000
,
1001
0000
0000
0000
,
0101
0000
0000
0000
,
0110
0000
0000
0000
,
1001
0000
0000
0000
,
1000
0000
0001
0000
,
1000
0000
0001
1000
,
0010
0000
0100
0000
,
1000
0100
0010
0000
,
0001
0000
0010
0000
,
0001
0000
0001
0000
,
1000
0000
0010
0000
,
1000
0001
1000
0000
,
0001
0000
0000
0000
,
1000
0000
0010
0000
,
0100
0000
0000
0000
,
0001
0000
1000
0000
,
0010
0000
0000
0000
,
0100
0000
0001
0000
,
1000
0000
0000
0000
,
0010
0000
0000
0000
,
0000
0001
1000
0000
,
0010
0000
0000
0000
,
0000
0100
0001
0000
,
0100
0000
0000
0000
,
0000
1000
0100
0000
,
0001
0000
0000
0000
,
0000
0001
0010
0000
,
1001
0000
0000
0000
,
0100
0010
1000
0000
,
0001
0000
0000
0000
,
0000
0100
0010
0000
,
0001
0000
0000
0000
,
0000
0001
0010
0000
,
1000
0000
0000
0000
,
0000
0010
0100
0000
,
0001
0000
1000
0000
,
1001
0000
0000
0000
,
0101
0000
0000
0000
,
0110
0000
0000
0000
,
1010
0000
0000
0000
,
1001
0000
0000
0000
;

//--------------- dance-single - B. M'Rey ----------------
#NOTES:
     dance-single:
     B. M'Rey:
     Easy:
     4:
     0,0,0,0,0:
0000
0000
0000
0000
,
0000
0000
0000
0000
,
0000
0000
0000
0000
,
0000
0000
0000
0000
,
0000
0000
0000
0000
,
0001
1000
0001
1000
,
0001
0010
0100
0010
,
0100
0010
0001
1000
,
1001
0000
0000
0000
,
0100
0010
0100
0000
,
0001
1000
0100
0000
,
0100
1000
0001
0000
,
0001
1000
0001
0000
,
0100
1000
0010
0000
,
0010
1000
0020
0000
,
0031
1000
0001
0000
,
0011
0000
0110
0000
,
1001
1000
0010
0000
,
0010
1000
0001
0010
,
0001
0010
0001
0000
,
0020
0000
0032
0000
,
0103
0010
0001
0000
,
0001
0100
0010
0100
,
0000
1000
0010
0000
,
0101
0000
0110
0000
,
0010
0000
1000
0000
0010
0000
0000
0001
,
0000
1000
0001
0000
,
0001
0000
0010
0000
0100
0000
0000
0100
,
0000
1000
0200
0000
,
0301
0010
0001
1000
,
0001
1000
0100
1000
,
0100
0010
0100
0010
,
0001
0010
1100
0000
,
0100
1000
0100
0010
,
0001
0010
0001
0010
,
0100
1000
0100
1000
,
0100
0010
0101
0000
,
0001
0100
0001
0000
,
0100
0010
0100
0000
,
0001
0100
0001
0000
,
0001
0010
0200
0300
,
0100
1000
0100
0000
,
0001
0010
0100
0000
,
0100
1000
0010
0000
,
1100
0000
0110
0000
,
0100
0010
0001
0000
,
0001
1000
0001
0100
,
0010
0100
0010
0000
,
0002
0000
2003
0000
,
3001
0010
0100
0000
,
0100
0010
0001
1000
,
0000
1000
0001
0000
,
0110
0000
0110
0000
,
0001
1000
0001
0000
,
0001
0100
0010
0000
,
0010
0100
0001
0000
,
0002
0000
2003
0000
,
3100
0010
0100
0000
,
0001
1000
0001
1000
,
0000
0100
0010
0000
,
0110
0000
1001
0000
,
0100
0000
1000
0000
0100
0000
0000
0001
,
0000
0010
0001
0000
,
0100
0000
1000
0000
0100
0000
0000
0010
,
0000
0100
0020
0000
,
0130
0000
0000
0000
;

//--------------- dance-single - B. M'Rey ----------------
#NOTES:
     dance-single:
     B. M'Rey:
     Medium:
     6:
     0,0,0,0,0:
0000
0000
0000
0000
,
0000
0000
0000
0000
,
0000
0000
0000
0000
,
0000
0000
0000
0000
,
0000
0000
0000
0000
1000
0001
1000
0001
,
0100
0000
1000
0000
0010
0100
0000
0001
,
0000
0000
0010
0000
1000
0100
1000
0100
,
1000
0010
0100
0001
,
1001
0000
0000
0000
,
0001
1000
0001
1000
0001
0000
0000
0000
,
0100
0010
1000
0100
,
0001
0100
0001
0100
0001
0000
0000
0000
,
0010
1000
0100
1000
,
0010
1000
0010
1000
0010
0000
0000
0000
,
0100
0001
1000
0010
,
0001
0100
0001
0100
0001
0000
0000
0000
,
0010
1000
0100
1000
,
0001
0000
0001
0010
0001
0010
0000
0000
,
1000
0100
1000
0100
,
0010
0000
0001
0010
0001
0010
0000
0000
,
1000
0100
0001
0010
,
0100
0000
1000
0100
1000
0100
0000
0000
,
0010
0100
0001
0010
,
1000
0000
0001
1000
0001
1000
0000
0000
,
1001
0000
1001
0000
,
0001
0000
1000
0001
1000
0000
0000
0001
,
0000
0001
1000
0001
1000
0000
0000
0000
,
1000
0000
0001
1000
0001
0000
0000
0001
,
0000
0001
1000
0001
2000
0000
0000
0000
,
3001
0000
1000
0000
0010
0100
1000
0000
,
0010
0000
0100
0000
0001
0010
0100
0000
,
1000
0100
0010
1000
,
0001
0010
1000
0001
1000
0000
0000
0000
,
0010
0000
0100
0000
0001
0010
1000
0000
,
0100
0000
1000
0000
1000
0100
0010
0000
,
0001
0000
0010
0000
0001
0010
0100
0000
,
0001
1000
0010
0100
1000
0000
0000
0000
,
0001
1000
0001
1000
0001
0000
0000
0000
,
0010
0100
0001
0010
,
1000
0100
1000
0100
1000
0000
0000
0000
,
0001
0010
0100
0000
,
0001
0010
0001
0010
0001
0000
0000
0000
,
1000
0010
0100
0001
,
0010
0100
0010
0100
0010
0000
0000
0000
,
1000
0100
0001
0010
,
0001
0000
0001
1000
0001
1000
0000
0000
,
0010
0100
1000
0100
,
0010
0000
0001
0100
0001
0100
0000
0000
,
0001
0010
1000
0100
,
0010
0000
0010
0100
0010
0100
0000
0000
,
0001
1000
0100
1000
,
0010
0000
0010
0100
0010
0100
0000
0000
,
1001
0000
1001
0000
,
1001
0000
0001
1000
0001
1000
0000
0000
,
0010
0100
0001
0010
,
1000
0000
0100
1000
0100
1000
0000
0000
,
0010
0100
0001
0010
,
0001
0000
0001
0010
0001
0010
0000
0000
,
1000
0100
1000
0010
,
0100
0000
0010
0100
0010
0100
0000
0000
,
1001
0000
1001
0000
,
0001
1000
0001
1000
0001
0000
0000
1000
,
0000
0001
1000
0001
1000
0000
0000
0000
,
0001
1000
0001
1000
0001
0000
0000
1000
,
0000
0001
1000
0001
2000
0000
0000
0000
,
3001
0000
0000
0000
;

//--------------- dance-single - B. M'Rey ----------------
#NOTES:
     dance-single:
     B. M'Rey:
     Hard:
     8:
     0,0,0,0,0:
0000
0000
0000
0000
,
0000
0000
0000
0000
,
0000
0000
0000
0000
,
0000
0000
0000
0000
,
0000
0000
0000
0000
0001
1000
0001
1000
,
0001
0000
0010
0000
0010
0100
0000
1000
,
0000
0010
0001
0000
0100
1000
0100
1000
,
0100
0000
0001
0010
0001
0010
0100
0000
,
1100
0000
0000
0000
,
0001
1000
0001
0100
0001
0000
0100
0000
,
0100
0010
0001
1000
0001
2000
0000
0000
,
3010
0100
0010
0100
0001
0000
0100
0010
,
0002
0000
1003
0100
2000
0000
3010
0000
,
0010
1000
0001
0010
0001
0000
0001
1000
,
0010
1000
0010
1000
0002
0000
0103
0000
,
0001
0010
0100
0010
0100
0000
0001
0100
,
0101
0011
0110
1100
,
0101
0000
0001
0100
0010
0100
0000
1000
,
0010
1000
0001
0100
0001
0100
0001
1000
,
0010
0000
0010
1000
0001
0010
0000
0100
,
0010
0100
0010
0100
0001
0010
0001
0010
,
0001
0000
0100
1000
0100
1000
0000
0100
,
0001
1000
0001
1000
0010
1000
0010
0100
,
0010
0000
0001
0100
0010
1000
0000
1000
,
1001
0110
0011
1010
,
0100
1000
0010
1000
0010
0000
0010
1000
,
0000
1000
0100
1000
0200
0000
0000
0000
,
0301
1000
0001
0010
0001
0000
0100
0010
,
0000
1000
0100
1000
0002
0000
0000
0000
,
0103
0010
0100
0010
0001
1000
0001
1000
,
0001
0100
0010
0100
0010
0100
1001
0000
,
0001
1000
0010
0100
0010
0100
0010
1000
,
0001
1000
0001
1000
0110
0000
0010
0000
,
0010
1000
0001
1000
0001
1000
0010
0100
,
0010
1000
0010
1000
0001
1000
0110
0000
,
0100
0010
0100
1000
0001
1000
0001
0100
,
0001
0100
0010
0100
0110
0000
0001
0000
,
0001
1000
0100
0010
0100
0000
0100
1000
,
0001
1000
0001
1000
0100
0020
0000
0030
,
0100
1000
0001
1000
0001
0000
0010
0100
,
0010
0000
0010
1000
0002
0000
0103
0000
,
0001
0010
0100
0010
0100
0000
0001
0100
,
0001
0100
0001
1000
0010
2000
0000
3000
,
0100
0010
0100
0010
0100
0000
0001
1000
,
1100
0110
0101
1010
,
0001
0100
0001
1000
0100
1000
0000
1000
,
0001
0100
0001
0100
0001
0010
0100
0010
,
0100
0000
0001
0100
0001
0100
0000
0010
,
0100
1000
0100
1000
0100
0010
0001
1000
,
0001
0000
0001
1000
0100
1000
0000
0010
,
0100
0010
0001
0010
0001
1000
0001
1000
,
0100
0000
0100
0010
0100
0010
0000
0010
,
1100
0110
0101
1010
,
0001
0100
0001
0010
0100
0010
0000
0010
,
0001
1000
0001
0010
0001
0010
0100
0010
,
0001
0000
0001
1000
0001
0010
0000
0010
,
0100
1000
0100
1000
0001
0010
0001
0010
,
0001
0000
0010
1000
0001
1000
0000
0010
,
0001
1000
0010
1000
0010
1000
0001
0100
,
0001
0000
0001
1000
0010
1000
0000
0100
,
0101
0011
0110
1100
,
0010
0100
0001
0100
0001
0000
0010
1000
,
0000
1000
0010
0100
0002
0000
0000
0003
,
0001
0100
0010
0100
0001
0000
0001
0010
,
0000
1000
0100
0010
0200
0000
0000
0000
,
0301
0000
0000
0000
;
