#TITLE:TAKE CONTROL;
#SUBTITLE:;
#ARTIST:DJ ELYN;
#TITLETRANSLIT:;
#SUBTITLETRANSLIT:;
#ARTISTTRANSLIT:;
#GENRE:TRANCE;
#CREDIT:;
#MUSIC:Take Control.ogg;
#BANNER:Take Control-bn.png;
#BACKGROUND:Take Control-bg.png;
#CDTITLE:./CDTITLES/DANCEMANIA/The Best of World Trance -FANTASIA 4-.PNG;
#SAMPLESTART:87.087;
#SAMPLELENGTH:12.000;
#SELECTABLE:YES;
#OFFSET:-0.087;
#BPMS:0.000=140.000
,135.000=70.000
,151.000=140.000
,283.000=70.000
;
#STOPS:;
#BGCHANGES:;
#FGCHANGES:;

//--------------- dance-single - B, M'Rey ----------------
#NOTES:
     dance-single:
     B, M'Rey:
     Beginner:
     1:
     0,0,0,0,0:
0000
0000
0000
0000
,
0000
0000
0000
0000
,
0000
0000
0000
0000
,
0000
0000
0000
0000
,
0000
0000
0000
0000
,
0100
0000
0000
0000
,
1000
0000
0000
0000
,
0001
0000
0000
0000
,
0100
0000
0100
0000
,
0100
0100
0100
0010
,
0000
0000
0000
0000
,
0000
0000
0000
0001
,
0000
0000
0000
0000
,
0000
0000
0000
1000
,
0000
0000
0000
0000
,
0000
0000
0000
0010
,
0000
0100
0000
0010
,
0000
0000
0000
0001
,
0000
0000
0000
1000
,
0000
0000
0000
0100
,
0000
0000
0000
0001
,
0000
0000
0000
1000
,
0000
0000
0000
0010
,
0000
0000
0000
0100
,
0000
0100
0000
0100
,
0100
0100
0010
0001
,
0000
0000
0000
1000
,
0000
0000
0000
0010
,
0000
0000
0000
0100
,
0000
0100
0000
0001
,
0001
0001
0000
0100
,
0000
0000
0000
0010
,
0000
0000
0000
1000
,
0000
0000
0000
0001
,
0000
0000
0000
0000
,
0000
0000
0000
0000
,
0000
0000
0000
0000
,
0000
0000
0000
0010
,
0000
0100
0000
0100
,
0000
1000
0000
0010
,
0000
0100
0000
0001
,
0000
0010
0000
0100
,
0000
1000
0000
1000
,
0000
1000
0000
1000
,
1000
1000
1000
0001
,
0001
0001
0001
1000
,
0000
0000
0000
1000
,
0000
0010
0000
0100
,
0000
0001
0000
0010
,
0000
0001
0000
0100
,
0000
0010
0000
1000
,
0000
0100
0000
1000
,
0000
0010
0000
0100
,
0000
0010
0000
0100
,
0000
0001
0000
0010
,
0000
0100
0000
1000
,
0000
0100
0000
0010
,
0000
0001
0000
0010
,
0000
0100
0000
1000
,
0000
0001
0000
0010
,
0000
0100
0000
0010
,
0000
1000
0000
0100
,
0000
0000
0000
0010
,
0000
0000
0000
1000
,
0000
0000
0000
0100
,
0000
0000
0000
1000
,
0000
0000
0000
0010
,
0000
0000
0000
0100
,
0000
0000
0000
0001
,
0000
0000
0000
0010
,
0000
0000
0000
1000
;

//--------------- dance-single - B, M'Rey ----------------
#NOTES:
     dance-single:
     B, M'Rey:
     Easy:
     2:
     0,0,0,0,0:
0000
0000
0000
0000
,
0000
0000
0000
0000
,
0000
0000
0000
0000
,
0000
0000
0000
0000
,
0000
0000
0000
0000
,
0100
0000
1000
0000
,
0001
0000
0010
0000
,
0001
0000
0100
0000
,
0010
0000
0010
0000
,
0010
0010
0010
0001
,
0000
0000
0000
1000
,
0000
0010
0000
0100
,
0000
0000
0000
0001
,
0000
1000
0000
0010
,
0000
0000
0000
0100
,
0000
0010
0000
1000
,
0000
1000
0000
1000
,
0000
0001
0001
0010
,
0000
0100
0000
0010
,
0000
1000
0000
0001
,
0000
0010
0000
0100
,
0000
0010
0000
1000
,
0000
1000
0000
0001
,
0000
0001
0000
0100
,
0000
0100
0000
0100
,
0100
0100
0010
0001
,
0000
1000
0000
0010
,
0000
0100
0000
0010
,
0000
1000
0000
0001
,
0000
1000
0000
0001
,
0001
0001
0000
0100
,
0000
0010
0000
1000
,
0000
0010
0000
0100
,
0000
0000
0000
1001
,
0000
0000
0000
0000
,
0000
0000
0000
0100
,
0000
0100
0000
0100
,
0000
0100
0000
0010
,
0000
0010
0000
0010
,
0000
0001
0000
0001
,
0000
0001
0000
1000
,
0000
1000
0000
1000
,
0000
0100
0000
0010
,
0000
0001
0000
1000
,
0000
0100
0000
0010
,
0000
0001
0000
0000
,
0000
1001
1001
1000
,
0000
0010
0000
0100
,
0000
0010
0010
0001
,
0000
0100
0000
0010
,
0000
1000
1000
0010
,
0000
0100
0000
0001
,
0000
0010
0010
0100
,
0000
1000
0000
0001
,
0000
0010
0010
0100
,
0000
0001
0000
1000
,
0000
0010
0010
0100
,
0000
0010
0000
1000
,
0000
0001
0001
0100
,
0000
0010
0000
1000
,
0000
0100
0100
1000
,
0000
0010
0000
0100
,
0000
0001
0001
0010
,
0000
0001
0000
0100
,
0000
0010
0000
1000
,
0000
0100
0000
1000
,
0000
0010
0000
0100
,
0000
0010
0000
0001
,
0000
0100
0000
1000
,
0000
0010
0000
0100
,
0000
0010
0100
1001
;

//--------------- dance-single - B, M'Rey ----------------
#NOTES:
     dance-single:
     B, M'Rey:
     Medium:
     7:
     0,0,0,0,0:
0000
0000
0000
0000
,
0000
0000
0000
1001
,
0000
0110
0000
0011
,
0000
1100
0000
0110
,
0000
0101
0000
0110
,
0000
1010
0000
0100
,
0000
1000
0000
0010
,
0000
0100
0000
0001
,
0100
0010
0100
0000
0100
0010
0100
0000
,
1000
0100
1000
0001
1000
0001
0100
0000
,
0010
1000
0100
1000
,
0010
0000
0100
0001
0010
0001
0010
0000
,
0100
0010
0100
1000
,
0100
0000
0010
0100
0010
0100
1000
0000
,
0100
1000
0100
1000
,
0001
0000
0010
0100
0010
0100
0011
0000
,
1100
0000
0101
0000
1010
0000
0100
0001
,
0100
0000
0010
1000
0010
0000
0100
0000
,
0010
1000
0100
1000
,
0010
0000
0001
0010
0001
0000
0100
0000
,
0010
0100
1000
0100
,
0010
0000
0100
1000
0100
0000
0010
0000
,
0100
0010
1000
0001
,
0010
0000
0100
0001
0100
0001
0100
0000
,
0010
0100
1000
0000
0010
0100
0001
1000
,
0001
1000
0010
0100
0001
0000
1000
0000
,
0010
0100
0010
1000
,
0100
0000
0001
0010
0001
0000
1000
0000
,
0010
0000
0100
0000
0010
0100
1000
0000
,
0100
0000
0001
0010
0100
0001
1000
0001
,
1000
0001
1000
0001
1000
0001
1000
0001
,
1000
0000
0010
0000
0100
0000
0010
1000
,
0010
0100
0010
0100
,
0001
0000
0001
1000
0000
0001
1000
0000
,
0000
0010
0000
0000
0100
0000
0010
0000
,
0000
0001
1000
0000
0010
0100
1000
0000
,
0010
0100
0001
0000
0010
0000
1000
0000
,
0100
0010
1000
0000
0001
0000
1000
0000
,
0010
0100
0010
1000
,
0100
0001
0010
1001
,
0010
0100
0010
1000
,
0100
0010
1000
0001
,
0010
0001
0010
0100
,
0010
0000
1000
0000
0100
0000
0001
1000
,
0001
1000
0001
1000
0010
0100
0010
0100
,
0010
0100
0001
0010
0001
0010
1001
0000
,
0000
0000
1001
0000
1001
0000
0010
1000
,
0100
0000
1000
0100
1000
0000
0100
1000
,
0100
0000
0001
0010
0001
0000
0010
0100
,
0010
0000
1000
0100
2000
0000
3002
0000
,
0013
0000
0100
0010
0100
0000
0001
0010
,
1000
0002
0203
0320
,
0031
1000
0010
0000
0100
0001
0010
0000
,
1000
0010
2000
0000
3200
0000
0320
0000
,
0031
1000
0001
0000
0010
0100
0010
0000
,
1000
0100
1000
0000
0010
0100
0010
0000
,
0001
0010
0001
0000
0100
0010
1000
0000
,
0100
0010
0100
0000
0101
0000
1010
0000
,
0010
0100
0002
0000
0023
0000
2030
0000
,
3010
0100
0200
0000
0320
0000
2030
0000
,
3010
0100
1000
0000
0100
0010
0001
0000
,
0010
1000
2000
0000
3200
0000
0302
0000
,
0013
1000
0010
0000
0100
0000
0010
0000
,
0100
0010
1000
0100
,
1000
0010
0100
0001
,
1000
0100
1000
0100
,
1000
0010
0100
0001
,
0100
1001
1100
0110
,
0010
0001
0100
0010
,
1000
1100
1001
0011
,
0010
0000
0001
0100
0000
0100
0002
0000
,
0000
0203
0000
0000
2300
0000
3020
0000
,
0000
0030
0000
0000
;

//--------------- dance-single - B, M'Rey ----------------
#NOTES:
     dance-single:
     B, M'Rey:
     Hard:
     9:
     0,0,0,0,0:
0000
0000
0000
0000
,
0000
0000
0000
0100
,
0001
0000
0010
0100
0010
0000
1000
0100
,
1000
0000
0001
0100
0010
0000
0100
0010
,
0100
0001
0010
1000
,
0100
1000
0010
0100
,
0001
0000
0010
0001
0100
0000
0010
0000
,
1000
0000
0100
0000
1000
0000
0010
0100
,
0100
0010
0100
0000
0001
0000
1000
0000
0010
1000
0010
0000
0001
0000
1000
0000
,
0001
1000
0001
0000
0100
0010
0100
0000
0001
0010
0001
0000
0001
0000
0100
0001
,
0000
0001
0010
0000
0100
0010
0000
0010
0001
0000
0010
0000
0100
0000
1000
0000
,
0010
0000
1000
0000
0001
0000
0100
0001
0100
0001
0100
0000
0001
0000
0010
0000
,
0100
1000
0001
0100
0001
0100
0001
0010
,
0100
0000
0010
0000
0100
0000
1000
0100
1000
0100
0010
0000
0001
0000
1000
0000
,
0100
0010
0100
1000
0001
0100
0001
0010
,
0100
0000
0010
0000
0100
0000
0010
0001
0010
0001
0100
0000
1010
0000
0000
0000
,
0101
0000
1010
0000
1100
0000
0001
1000
,
0001
0000
0000
0000
0001
0001
0001
0000
0100
0000
0000
0000
0001
0000
1000
0000
,
0001
1000
0010
1000
0100
0010
0100
1000
,
0100
1000
0010
1000
0010
0100
0010
0100
,
0001
0100
0001
1000
0001
1000
0010
1000
,
0010
0100
0001
0010
0001
1000
0001
0010
,
0100
0010
0100
1000
0100
1000
0010
0100
,
0010
0100
0010
1000
0100
1000
1001
0000
,
0001
0010
0011
0000
0110
0010
0101
0100
,
0001
0000
0100
0000
0001
0010
0001
0000
0100
0000
0010
0000
0100
0000
0010
0000
,
0001
1000
0001
1000
0001
0010
0100
0010
,
0100
0010
0001
0100
0001
0100
0001
0010
,
0100
0000
0010
0000
0100
0000
0010
0000
0001
0000
1000
0001
1000
0000
1000
0100
,
0000
0010
1000
0010
0100
0000
0010
0000
0100
0000
0010
0000
0001
0000
1000
0000
,
0001
1000
0001
0100
0010
0100
0010
0100
,
0001
1000
0001
0100
0001
0100
0010
1000
,
0010
1000
0010
0100
0001
0100
0001
0100
,
0010
1000
0010
1000
0000
0100
0002
0000
,
0000
0203
0000
0000
2300
0000
3020
0000
,
0000
0230
2300
0000
3010
0100
0001
0110
,
0100
1001
1000
0110
0100
1010
1000
0110
,
0100
0000
0011
0000
0010
0000
0101
0000
0100
0000
0011
0000
0001
0000
1000
0001
,
0000
0000
1000
0000
0010
0000
0100
0010
0000
0000
0100
0000
0010
0000
1000
0100
,
0000
0000
1000
0000
0001
0000
0010
0100
0000
0100
1000
0000
0001
0000
1000
0001
,
0000
0000
1000
0000
0010
0000
0100
0010
0000
0000
0100
0000
0010
0000
1000
0100
,
0000
0000
1000
0000
0100
0000
1000
0001
0000
0000
0100
0000
0001
0000
0100
0010
,
0000
0010
0100
0000
0010
0000
1000
0010
0000
0010
1000
0000
0100
0000
1000
0010
,
0000
0010
0100
0000
0001
0000
0100
0010
0000
0010
0100
0000
0010
0000
1000
0000
,
0010
1000
0001
1000
0001
0010
0001
0010
,
0100
0010
0001
1000
0001
1000
0001
0000
,
1000
0000
0000
0000
0001
0000
0000
0000
1001
0000
0000
0000
0010
0000
0100
0010
,
0000
0010
0100
0000
0001
0000
0010
0001
0000
0001
0010
0000
0100
0000
0010
0100
,
0000
0100
0010
0000
0001
0000
0010
0100
0000
0100
1000
0000
0100
0000
1000
0100
,
0000
0100
0010
0000
0001
0000
1000
0100
0000
0100
1000
0000
0100
0000
0010
0100
,
0000
0100
0010
0000
0001
0000
0100
0001
0000
0001
0100
0000
0001
0000
0100
0010
,
0000
0010
0100
0000
0010
0000
1000
0100
0000
0100
1000
0000
0100
0000
1000
0001
,
0000
0001
0100
0000
0010
0000
0100
0010
0000
0010
0100
0000
0010
0000
0100
0001
,
0000
0001
0100
0000
0001
0000
1000
0100
0000
0100
1000
0000
0100
0000
0010
0100
,
0000
0100
0010
0000
0100
0000
0010
0100
0000
0100
0010
0000
0001
0000
1000
0010
,
0000
0010
1000
0000
0010
0000
1000
0001
0000
0001
1000
0000
0001
0000
0100
0010
,
0000
0010
0100
0000
0001
0000
0100
0001
0000
0001
0100
0000
0001
0000
0100
0001
,
0000
0001
0010
0000
0100
0000
0010
0100
0000
0100
0010
0000
0100
0000
0010
0001
,
0000
0001
1000
0000
0001
0000
1000
0100
0000
0100
0010
0000
0100
0000
1000
0100
,
0000
0100
0010
0000
0100
0000
1000
0010
0000
0010
0100
0000
0010
0000
1000
0100
,
0000
0100
1000
0000
0100
0000
1000
0100
0000
0100
0010
0000
0001
0000
0010
0001
,
0000
0001
0010
0000
0001
0000
1000
0001
0000
0001
0010
0000
0100
0000
0010
0000
,
0100
0000
1000
0000
0100
1000
0100
0000
0010
0000
0000
0000
0001
0000
1000
0000
,
0010
0100
0010
0100
0010
0100
0010
0100
,
0010
1000
0001
1000
0001
1000
0001
1000
,
0100
1000
0100
0010
0100
0010
0100
0010
,
0100
0010
0001
0010
0001
0100
0010
0100
,
0010
0100
0010
0100
0010
1000
0001
1000
,
0001
1000
0001
1000
0100
1000
0100
0010
,
0100
0010
0100
0010
0100
0010
0001
0010
,
0001
0100
0001
0100
0000
0100
0002
0000
,
0000
2003
0000
0000
3020
0000
0200
0000
,
0000
0000
0330
0000
;
