#VERSION:0.83;
#TITLE:T-E-C-H-N-O (HYPER TECHNO VERSION);
#ARTIST:BASIC ELEMENT;
#GENRE:HYPER TECHNO;
#MUSIC:T-E-C-H-N-O (HYPER TECHNO VERSION).ogg;
#BANNER:T-E-C-H-N-O (HYPER TECHNO VERSION)-bn.png;
#BACKGROUND:T-E-C-H-N-O (HYPER TECHNO VERSION)-bg.png;
#CDTITLE:./CDTITLES/DANCEMANIA SPEED BEST 2002.PNG;
#SAMPLESTART:54.015;
#SAMPLELENGTH:15;
#BPMS:0.000=159.956;

//--------------- dance-single - B. M'Rey ----------------
#NOTEDATA:;
#STEPSTYPE:dance-single;
#DESCRIPTION:B. M'Rey;
#DIFFICULTY:Beginner;
#METER:4;
#RADARVALUES:0,0,0,0,0;
#NOTES:
0000
0000
0000
0000
,
0000
0000
0000
0000
,
0000
0000
0000
0000
,
0000
0000
0000
0000
,
1000
0000
0000
0000
,
0100
0000
0000
0000
,
0010
0000
0000
0000
,
0001
0000
0000
0000
,
0001
0100
0001
1000
,
0100
0010
0001
0010
,
0001
1000
0001
1000
,
0010
0100
0001
0010
,
0200
0000
0000
0000
,
0000
0000
0000
0000
,
0310
0100
0001
0010
,
0020
0000
0000
0000
,
1030
0000
0010
0000
,
0100
0000
0001
0000
,
0010
0000
0001
0000
,
1000
0000
0010
0000
,
0100
0000
1000
0000
,
0001
0000
0010
0000
,
0001
0000
0100
0000
,
0010
0000
1000
0000
,
0001
0000
0010
0000
,
0001
0000
0100
0000
,
0010
0000
1000
0000
,
0100
0000
1000
0000
,
0010
0000
0100
0000
,
0001
0000
0010
0000
,
0001
0000
0100
0000
,
0010
0000
1000
0000
,
0020
0000
0000
0000
,
0000
0000
0000
0000
,
0030
0000
0000
0000
,
1001
0000
0000
0000
,
0001
1000
0100
1000
,
0020
0000
0000
0030
,
0010
0100
0001
1000
,
0110
0000
0100
0000
,
0001
0100
0001
0100
,
0020
0000
0000
0030
,
0100
1000
0100
1000
,
0101
0000
0001
0000
,
1001
0000
0000
0000
,
0000
0000
0000
0000
,
0000
0000
0000
0000
,
0000
0000
0000
0000
,
1000
0000
0010
0000
,
0100
0000
0001
0000
,
0010
0000
0001
0000
,
1000
0000
0010
0000
,
0100
0000
1000
0000
,
0001
0000
0010
0000
,
0001
0000
0100
0000
,
0010
0000
1000
0000
,
0001
0000
0010
0000
,
0001
0000
1001
0000
,
0010
0000
0100
0000
,
0010
0000
1000
0000
,
0001
0000
0010
0000
,
0001
0000
0100
0000
,
0010
0000
1000
0000
,
0001
0000
0000
0000
,
0020
0000
0000
0000
,
0000
0000
0000
0000
,
0030
0000
0000
0000
,
1001
0000
0000
0000
,
0001
1000
0100
1000
,
0020
0000
0000
0030
,
0010
0100
0001
1000
,
0110
0000
0100
0000
,
0001
0100
0001
0100
,
0020
0000
0000
0030
,
0100
1000
0100
1000
,
0101
0000
1000
0000
,
1000
0000
0010
0000
,
0200
0000
0000
0300
,
0001
0000
1000
0000
,
2002
0000
0000
0000
,
3003
0000
0000
0000
;

//--------------- dance-single - B. M'Rey ----------------
#NOTEDATA:;
#STEPSTYPE:dance-single;
#DESCRIPTION:B. M'Rey;
#DIFFICULTY:Easy;
#METER:8;
#RADARVALUES:0,0,0,0,0;
#NOTES:
0000
0000
0000
0000
,
0000
0000
0000
0000
,
0000
0000
0000
0000
,
0000
0000
0000
0000
,
1001
0000
0000
0000
,
0101
0000
0000
0000
,
0110
0000
0000
0000
,
1000
0001
1000
0001
,
0010
0000
1000
0000
0100
0000
1000
0100
,
0001
0000
1000
0000
0100
0000
0010
0001
,
0100
0000
1000
0000
0010
0000
1000
0010
,
0100
0000
0010
0000
0001
0000
0010
1000
,
0001
0010
0100
1000
,
0001
0010
0100
1000
,
0001
0000
0010
0000
0100
0000
0010
1000
,
0100
0010
0001
1000
,
0010
1000
0100
0010
,
0001
0010
0100
1000
,
0010
0100
0001
0010
,
0100
0010
0100
1000
,
0010
0100
0001
1000
,
0010
0100
0010
1000
,
0100
0010
0001
0010
,
0001
0100
0010
1000
,
0001
1000
0100
0010
,
0100
1000
0001
0100
,
0010
1000
0100
0010
,
0001
0100
0010
0100
,
0001
0010
0100
1000
,
0001
0100
0010
0100
,
0010
0100
0001
0010
,
0001
0010
0001
0100
,
0020
0000
0000
0000
,
0000
0000
0000
0000
,
0130
0001
0010
0100
,
2000
0000
0000
0000
,
3010
0000
0100
0000
0010
0000
0100
0000
0010
0000
0000
0001
0000
0000
0000
0000
,
0200
0000
0000
0000
0000
0310
0000
0000
,
0100
0010
0001
1000
,
0100
1000
0100
1000
,
0010
0000
1000
0000
0010
0000
1000
0000
0001
0000
0000
1000
0000
0000
0000
0000
,
0200
0000
0000
0000
0000
1300
0000
0000
,
0010
0100
0001
0010
,
0001
0100
0010
1000
,
2000
0000
0000
0000
,
0000
0000
0000
0000
,
0000
0000
0000
0000
,
3001
1001
1001
1001
,
0001
1000
0001
0010
,
0200
1300
0010
1000
,
0100
0010
0001
0100
,
0010
0100
0001
0010
,
0001
0100
0001
0010
,
0100
0010
0001
0010
,
0100
1000
0010
0100
,
0010
1000
0100
0000
,
0010
0100
0010
1000
,
0001
0010
0011
1100
,
0010
0100
0001
0100
,
0001
1000
0001
0010
,
0100
0010
0001
0100
,
0001
1000
0100
0010
,
0001
1000
0001
1000
,
0100
1000
0100
0010
,
0020
0000
0000
0000
,
0000
0000
0000
0000
,
0130
0001
0010
0100
,
2000
0000
0000
0000
,
3010
0000
0100
0000
0010
0000
0100
0000
0010
0000
0000
0001
0000
0000
0000
0000
,
0200
0000
0000
0000
0000
0310
0000
0000
,
0100
0010
0001
1000
,
0100
1000
0100
1000
,
0010
0000
1000
0000
0010
0000
1000
0000
0001
0000
0000
1000
0000
0000
0000
0000
,
0200
0000
0000
0000
0000
1300
0000
0000
,
0010
0100
0001
0010
,
0001
0100
0010
1000
,
0001
0010
0100
1000
,
0001
0100
0010
1000
,
0100
0010
0001
1000
,
1001
1001
1001
1001
,
1001
0000
0000
0000
;

//--------------- dance-single - B. M'Rey ----------------
#NOTEDATA:;
#STEPSTYPE:dance-single;
#DESCRIPTION:B. M'Rey;
#DIFFICULTY:Medium;
#METER:11;
#RADARVALUES:0,0,0,0,0;
#NOTES:
0000
0000
0000
0000
,
0000
0000
0000
0000
,
0000
0000
0000
0000
,
0000
0000
0000
0000
,
0001
0100
0010
0100
,
1000
0100
0001
0010
,
0001
0100
0010
1000
,
0001
0100
0001
1000
,
0001
1000
0100
0000
0001
1000
0010
0000
,
0010
1000
0100
0000
0001
1000
0001
0000
,
0001
0100
0010
0000
0010
1000
0100
0000
,
0100
0010
0100
0000
0001
1000
0100
0000
,
0002
0010
0010
0010
,
1000
1000
0010
0010
,
0013
1000
0001
0000
0001
0010
0100
0000
,
0100
0010
0100
0010
0001
0010
0001
1000
,
0010
0000
0001
0000
0001
1000
0010
0100
,
0000
1000
0001
0000
0001
1000
0010
0000
,
1010
0000
0001
0100
0010
0000
0001
0000
,
0010
1000
0001
0000
0100
0000
0001
0100
,
0010
0000
0000
0000
0100
0010
0100
0000
,
0100
0010
0001
0000
0001
0100
0010
0100
,
0001
0000
0000
1000
0100
0010
0100
0000
,
0001
0100
0001
0000
0001
0100
0010
0000
,
0010
0100
0000
0010
0001
0010
0100
0000
,
0000
1000
0010
0000
0001
0100
0001
0010
,
0100
0000
0100
1000
0100
0000
0001
0000
,
0010
1000
0001
0000
0001
1000
0010
0000
,
0001
0000
0001
0100
0001
1000
0010
0000
,
0010
0100
0010
0000
0001
0100
0010
0000
,
0001
0000
0010
0100
0001
0000
0100
0000
,
0100
1000
0001
0000
0010
0100
0010
0000
,
0010
0100
0010
1000
,
0100
1000
0010
0100
,
0010
0100
0001
0100
,
2000
0000
0000
0000
,
3001
0000
0010
0000
0001
0000
0010
0000
0100
0000
0000
0100
0000
0000
0000
0000
,
0001
0000
0000
1000
0000
0000
0020
0000
0000
0000
0130
0000
0000
0000
1000
0000
,
0010
0000
0000
0100
0000
0000
0010
0000
0001
0000
0010
0000
0100
0000
0000
0000
,
1010
0000
0000
0110
0000
0000
0011
0000
0000
0000
1000
0000
0001
0000
0010
0000
,
0001
0000
1000
0000
0010
0000
0100
0000
0001
0000
0000
0100
0000
0000
0000
0000
,
0010
0000
0000
1000
0000
0000
0020
0000
0000
0000
0130
0000
0000
0000
0000
0000
,
0010
0000
0000
0100
0000
0000
0010
0000
0100
0000
1000
0000
0001
0000
0000
0000
,
0101
0000
0000
0011
0000
0000
0110
0000
0000
0000
1000
0000
0001
0000
1000
0000
,
0100
0010
0001
1000
,
0010
0100
0010
1000
,
0001
1000
0010
0100
,
0002
0000
0000
0000
,
0013
1000
0100
0000
0001
0010
0100
0000
,
0001
0000
0100
0001
0010
0000
1000
0000
,
0001
1000
0010
0000
0001
0100
1000
0000
,
0001
0100
0010
0000
0100
0000
0010
0001
,
0100
0000
0000
0010
0001
1000
0100
0000
,
0010
0000
0100
0010
0001
0000
1000
0000
,
0010
1000
0100
0000
0001
0100
0010
0000
,
0001
1000
0010
0000
0001
0000
0100
0000
,
0010
0100
1000
0000
0001
0010
1000
0000
,
0100
0010
1000
0000
0100
0001
0010
0000
,
0100
1000
0010
0100
,
0001
0010
0100
0000
0001
1000
0100
0000
,
0010
0100
1000
0000
0001
0010
0100
0000
,
0010
0001
0100
0000
0001
0100
1000
0100
,
0010
0000
0100
0000
0001
1000
0100
0000
,
0001
0010
0100
0000
0010
0001
1000
0000
,
0100
0010
0100
0010
,
0001
0010
0001
0100
,
0010
0100
0010
1000
,
2000
0000
0000
0000
,
3001
0000
0010
0000
0001
0000
0010
0000
0100
0000
0000
0100
0000
0000
0000
0000
,
0001
0000
0000
1000
0000
0000
0020
0000
0000
0000
0130
0000
0000
0000
1000
0000
,
0010
0000
0000
0100
0000
0000
0010
0000
0001
0000
0010
0000
0100
0000
0000
0000
,
1010
0000
0000
0110
0000
0000
0011
0000
0000
0000
1000
0000
0001
0000
0010
0000
,
0001
0000
1000
0000
0010
0000
0100
0000
0001
0000
0000
0100
0000
0000
0000
0000
,
0010
0000
0000
1000
0000
0000
0020
0000
0000
0000
0130
0000
0000
0000
0000
0000
,
0010
0000
0000
0100
0000
0000
0010
0000
0100
0000
1000
0000
0001
0000
0000
0000
,
0101
0000
0000
0011
0000
0000
0110
0000
0000
0000
1000
0000
0001
0000
1000
0000
,
0100
0010
0001
1000
,
0010
0100
0010
1000
,
0001
1000
0010
0100
,
0002
0000
0000
0000
,
0013
0000
0000
0000
;

//--------------- dance-single - B. M'Rey ----------------
#NOTEDATA:;
#STEPSTYPE:dance-single;
#DESCRIPTION:B. M'Rey;
#DIFFICULTY:Hard;
#METER:13;
#RADARVALUES:0,0,0,0,0;
#NOTES:
0000
0000
0000
0000
,
0000
0000
0000
0000
,
0000
0000
0000
0000
,
0000
0000
0000
0000
,
0001
0000
1000
0000
0001
0000
0100
0001
,
0010
0000
1000
0000
0010
0000
0100
1000
,
0010
0000
1000
0000
0100
0000
0010
0100
,
0001
0000
1000
0010
0001
0000
1000
0100
,
0010
0100
0000
0001
1000
0000
0010
1000
0000
0001
1000
0000
0010
0000
1000
0000
,
0100
0010
0000
0001
0100
0000
0001
0010
0000
0100
1000
0000
0001
0000
1000
0000
,
0010
1000
0000
0100
0010
0000
0010
0100
0000
0010
0100
0000
0010
0000
1000
0000
,
0001
1000
0000
0100
0010
0000
0001
1000
0000
1000
0010
0000
0001
0000
1000
0000
,
0010
1000
0000
0001
0010
0000
0001
1000
0000
0001
0010
0000
1000
0000
0010
0000
,
0100
0010
0000
0100
0010
0000
0001
1000
0000
0001
0010
0000
1000
0000
0010
0000
,
0001
0100
0000
0010
0100
0000
0010
1000
0000
0001
0010
0000
0001
0000
0010
0000
,
2000
0000
0000
0000
0000
0000
0000
0000
0000
0000
0000
0000
3001
0010
0000
0000
,
0101
0000
0010
1000
0100
0010
0001
0010
,
0000
1000
0001
0100
0010
0100
0010
0000
,
1001
0000
0000
0000
0100
0000
0010
0000
0100
0000
0010
1000
0000
0010
0000
0000
,
0001
0100
0010
0000
0100
0000
1000
0000
0100
0000
1000
0000
0010
0000
0100
0000
,
0010
0100
0000
0100
0010
1000
0001
0010
,
0000
0000
1000
0100
0001
0000
0010
0000
0100
0010
1000
0000
0100
0000
1000
0000
,
0100
0010
0000
1000
0010
0100
0010
0100
,
0000
0010
1000
0001
1000
0000
0100
0000
1000
0000
0010
0000
0100
0000
0010
0000
,
0100
0000
0010
0000
0000
0100
1000
0000
0100
0000
1000
0000
0100
0000
0010
0000
,
0000
0001
0100
0000
0010
0000
1000
0000
0010
0000
1000
0000
0010
0000
0100
0000
,
0001
0100
0000
1000
0001
0010
0100
1000
,
0000
1000
0100
1000
0100
0010
0001
0100
,
0001
1000
0000
0100
0001
1000
0100
1000
,
0000
0010
0001
0100
0010
1000
0100
1000
,
0010
0100
0000
0100
0001
0010
0001
0000
,
0010
0100
0001
0010
0100
0010
0100
1000
,
0001
0100
0001
1000
,
0100
0010
0100
0010
,
0001
1000
0001
1000
,
0002
0000
0000
0000
,
0013
0100
0010
0100
0010
1000
0100
0000
0001
0000
0000
0100
0000
0000
1000
0000
,
0010
0000
0000
0100
0000
0000
1000
0000
0000
0100
0000
0000
0001
0000
0010
0000
,
0001
1000
0001
1000
0010
0100
0010
1000
,
0001
0100
0001
0100
0010
0100
0010
1000
,
0010
0100
0001
1000
0010
0100
0010
0000
0010
0000
0000
0100
0000
0000
1000
0000
,
0100
0000
0000
0010
0000
0000
0010
0000
0000
0100
0000
0000
0001
0000
1000
0000
,
0010
0100
0001
1000
0100
0010
0100
0010
,
0100
1000
0001
1000
0001
0100
0001
1000
,
0100
0010
0100
1000
,
0010
1000
0001
1000
,
0100
0010
0100
1000
,
0011
1100
1010
0110
,
0010
0100
0010
0100
0010
1000
0100
0010
,
0100
0010
0000
0010
0100
1000
0001
0100
,
0001
0010
0001
0010
0100
1000
0010
0100
,
0010
1000
0010
1000
0100
1000
0010
0100
,
0010
0100
0000
0100
0010
1000
0001
0000
,
0001
1000
0001
0010
0100
0010
0001
0100
,
0001
0100
0001
1000
0010
1000
0010
0000
,
0001
0100
0010
1000
0001
0000
0010
0000
,
0100
0010
0100
0010
0100
1000
0001
0010
,
0001
0010
0100
0000
0001
1000
0010
0000
,
0001
0010
0100
1000
0001
1000
0001
0010
,
0001
0100
0010
1000
0100
1000
0001
0010
,
0001
0100
0001
0100
0010
0100
0001
1000
,
0001
1000
0100
0010
0001
0100
0010
0100
,
0001
1000
0001
1000
0001
0010
0100
0010
,
0100
1000
0001
1000
0010
0100
0010
0000
,
0001
0100
0001
1000
,
0100
0010
0100
0010
,
0001
1000
0001
1000
,
0002
0000
0000
0000
,
0013
0100
0010
0100
0010
1000
0100
0000
0001
0000
0000
0100
0000
0000
1000
0000
,
0010
0000
0000
0100
0000
0000
1000
0000
0000
0100
0000
0000
0001
0000
0010
0000
,
0001
1000
0001
1000
0010
0100
0010
1000
,
0001
0100
0001
0100
0010
0100
0010
1000
,
0010
0100
0001
1000
0010
0100
0010
0000
0010
0000
0000
0100
0000
0000
1000
0000
,
0100
0000
0000
0010
0000
0000
0010
0000
0000
0100
0000
0000
0001
0000
1000
0000
,
0010
0100
0001
1000
0100
0010
0100
0010
,
0100
1000
0001
1000
0001
0100
0001
1000
,
0100
0010
0100
1000
,
0010
1000
0001
1000
,
0100
0010
0100
1000
,
1100
0110
1001
1010
,
2002
0000
0000
0000
,
0000
3003
0000
0000
;
