#VERSION:0.83;
#TITLE:Super Trip Machine;
#ARTIST:DE-SIRE;
#GENRE:HARDCORE TECHNO;
#MUSIC:Super Trip Machine.ogg;
#BANNER:Super Trip Machine-bn.png;
#BACKGROUND:Super Trip Machine-BG.png;
#CDTITLE:./CDTITLES/DANCE DANCE REVOLUTION EXTREME 3.PNG;
#SAMPLESTART:33.721;
#SAMPLELENGTH:15;
#OFFSET:-0.350;
#BPMS:0=178;

//--------------- dance-single - B. M'Rey ----------------
#NOTEDATA:;
#STEPSTYPE:dance-single;
#DESCRIPTION:B. M'Rey;
#CREDIT:B. M'Rey;
#DIFFICULTY:Beginner;
#METER:6;
#RADARVALUES:0,0,0,0,0;
#NOTES:
0000
0000
0000
0000
,
0000
0000
0000
0000
,
0000
0000
0000
0000
,
0000
0000
0000
0000
,
0000
0000
0000
1000
,
0000
0001
0000
0010
,
0000
0001
0000
0100
,
0000
0010
0000
1000
,
0000
0000
0000
0001
,
0001
1000
0000
0001
,
0001
1000
0000
0010
,
0010
0100
0000
1000
,
1000
0100
0000
0010
,
0010
0100
0000
0001
,
0001
1000
0000
0010
,
0010
0100
0000
1000
,
0000
0001
0000
0100
,
0100
0010
0000
1000
,
1000
0001
0000
0010
,
0010
0100
0000
0001
,
0000
1000
0000
0010
,
0010
0100
0000
1000
,
1000
0001
0000
0010
,
0010
0001
0000
0100
,
0000
0010
0000
1000
,
0000
0001
0000
1000
,
0000
0010
0000
0100
,
0000
0001
0000
1000
,
1000
0001
0001
0100
,
0000
0010
0100
1000
,
0000
0010
0100
0001
,
0000
0010
0000
1000
,
0000
0100
0000
0001
,
0000
1000
0000
0010
,
0000
0100
0100
0010
,
0000
0001
0000
1000
,
0000
0100
0100
0010
,
0000
0001
0000
1000
,
0000
0010
0010
0100
,
0000
0001
0000
0010
,
0000
0001
0001
0100
,
0000
0010
0000
1000
,
0000
0010
0000
0100
,
0000
0001
0000
0010
,
0000
1000
0000
0010
,
0000
0100
0000
0001
,
0000
0010
0000
1000
,
0000
0010
0000
0100
,
0000
0001
0000
0100
,
0001
1000
0001
0000
,
0010
1000
0010
0000
,
0001
1000
0100
0000
,
0100
0010
0100
0000
,
0010
0100
0010
0000
,
0010
1000
0001
0000
,
0100
1000
0001
0000
,
0100
0010
0001
0000
,
0220
0000
0000
0000
,
0000
0000
0000
0000
,
0330
0000
0000
0000
;

//--------------- dance-single - B. M'Rey ----------------
#NOTEDATA:;
#STEPSTYPE:dance-single;
#DESCRIPTION:B. M'Rey;
#CREDIT:B. M'Rey;
#DIFFICULTY:Easy;
#METER:9;
#RADARVALUES:0,0,0,0,0;
#NOTES:
0000
0000
0000
0000
,
0000
0000
0000
0000
,
0000
0000
0000
0000
,
0000
0000
0000
0000
,
0000
0000
0000
1000
,
0010
1000
0010
1000
,
0001
0010
0100
0010
,
0100
0010
0001
1000
,
0000
0001
0000
0010
,
0100
1000
0001
1000
,
0010
0100
0010
0100
,
0010
1000
0001
1000
,
0001
1000
0010
0100
,
0010
0100
0010
1000
,
0100
1000
0100
1000
,
0001
0100
0010
0100
,
0010
0100
0001
1000
,
0010
1000
0010
1000
,
0001
0100
0001
0100
,
0001
1000
0100
1000
,
0100
0010
0100
0010
,
0001
0100
0001
1000
,
0100
1000
0100
1000
,
0010
0100
0010
0100
,
0000
1000
0000
0100
,
0001
0100
0010
0100
,
0010
0000
1000
0000
0010
0000
0000
0001
,
0000
1000
0001
0010
,
0100
0010
0001
0010
,
0001
1000
0001
1000
,
0100
1000
0001
0010
,
0100
0010
0100
0020
,
0000
0230
0000
0301
,
0001
1000
0010
1000
,
0010
1001
0011
1100
,
0010
0100
0010
0100
,
0001
0110
0101
1010
,
0100
0010
0001
1000
,
0001
0110
1001
1100
,
0010
0100
0010
1000
,
0010
1100
0101
1010
,
0100
0010
0100
0010
,
0001
0010
0001
1000
,
0001
1000
0010
1000
,
0010
0100
0001
0100
,
0001
0100
0010
1000
,
0001
1000
0100
1000
,
0100
0010
0100
0010
,
0000
0010
0000
1000
,
0001
1000
0010
1000
,
0010
0100
0010
0100
,
0001
0110
0001
1100
,
0001
1001
0010
1010
,
0001
0100
0010
0100
,
0010
0100
0001
1100
,
0100
1010
0100
1001
,
0001
0110
0001
0100
,
2002
0000
0000
0000
,
0000
0000
0000
0000
,
3003
0000
0000
0000
;

//--------------- dance-single - B. M'Rey ----------------
#NOTEDATA:;
#STEPSTYPE:dance-single;
#DESCRIPTION:B. M'Rey;
#CREDIT:B. M'Rey;
#DIFFICULTY:Medium;
#METER:12;
#RADARVALUES:0,0,0,0,0;
#NOTES:
0000
0000
0000
0010
,
0100
0010
0100
0010
,
0001
0000
0100
0000
0001
0010
0100
0000
,
0001
1000
0100
1000
,
0010
1000
0100
0000
0010
0001
1000
0000
,
0010
0001
0100
0000
0001
1000
0100
0000
,
0001
0010
1000
0000
0001
0010
0100
0000
,
0010
1000
0100
0000
0010
0001
0100
0000
,
0001
0000
1000
0000
0001
0000
1000
0010
,
0001
0000
0010
1000
0100
0000
0010
0001
,
0100
0000
0010
1000
0001
0000
1000
0010
,
0001
0000
1000
0010
0001
0000
0010
0001
,
0100
0000
1000
0000
0010
0000
1000
0001
,
0100
0000
1000
0001
0010
0000
0100
1000
,
0001
0000
0100
0001
0010
0000
0100
1000
,
0010
0000
1000
0001
0010
0000
1000
0000
,
0001
0000
0010
0000
0001
0000
0010
0001
,
0001
0000
1000
1000
0100
0000
1000
1000
,
0100
0000
1000
0000
0001
0000
0100
0100
,
0001
0000
0100
0100
0001
0000
0010
0010
,
0100
0000
0010
0000
0100
0000
1000
1000
,
0100
0000
1000
1000
0001
0000
1000
0001
,
0001
0000
0010
0010
0001
0000
0010
0010
,
0100
0000
1000
1000
0100
0000
1000
1000
,
0100
0010
0001
0110
,
0001
1000
0010
0001
0100
1000
0000
0100
,
0001
1000
0000
0100
0000
0001
0010
0000
,
1000
0001
0010
1000
0001
0100
0010
0100
,
0000
1000
0000
0100
0000
1000
0000
0001
,
1000
0100
1000
0010
0000
0100
0000
0001
,
0010
0000
0100
1000
0010
0000
0010
0001
,
0010
0001
1000
0001
1000
0100
0010
0000
,
0000
0000
0100
0000
0010
0000
1000
0001
,
1000
0000
1000
0100
0010
0000
0010
0001
,
0010
1001
1100
1100
,
0010
0100
1000
0000
0010
0001
0010
0000
,
1000
0000
0010
0000
1000
0001
0010
0000
,
0010
0001
0100
0000
0100
0010
0100
0000
,
1000
0001
0010
0000
1000
0010
0100
0000
,
0100
0001
0100
0000
1000
0001
1000
0000
,
0100
0000
0010
0000
0001
0010
0001
0010
,
1000
0000
1000
0010
1000
0000
0100
0000
,
1000
0000
0010
0001
0010
0000
0010
0100
,
1000
0000
1000
0001
1000
0000
0100
0000
,
0010
0000
0100
0001
0010
0000
0010
0001
,
0100
0000
0100
0010
0100
0000
0010
0000
,
1000
0000
1000
0100
1000
0000
0010
0100
,
0010
0000
0010
0001
1000
0000
1000
0000
,
1000
0000
0010
0000
0010
0000
0010
0001
,
0010
1000
0100
0000
0010
0000
0100
1000
,
0001
0100
0010
0000
0001
0000
0010
0100
,
0001
0010
1000
0000
0010
0000
1000
0100
,
0010
0000
1000
0000
0100
0000
0010
0001
,
0100
1000
0010
0000
0100
0000
1000
0100
,
0010
0001
0100
0000
0010
0000
0100
0001
,
0010
0100
1000
0000
0100
0000
1000
0010
,
0100
0000
0001
0000
1000
0000
0000
0000
0001
0000
0000
0000
0100
0000
0000
0220
,
0000
0000
0000
0000
,
0000
0000
0000
0000
,
0330
0000
0000
0000
;

//--------------- dance-single - B. M'Rey ----------------
#NOTEDATA:;
#STEPSTYPE:dance-single;
#DESCRIPTION:B. M'Rey;
#CREDIT:B. M'Rey;
#DIFFICULTY:Hard;
#METER:15;
#RADARVALUES:0,0,0,0,0;
#NOTES:
0000
0000
0000
1000
,
0001
1000
0001
1000
,
0010
0100
2000
3010
,
0001
0010
0100
0010
,
0100
0100
1000
1000
0100
0100
1000
0000
,
0001
1000
0100
0010
,
0100
0010
0100
1000
,
0010
1000
0100
1000
,
0000
0000
0010
0000
0000
0000
0001
0100
,
1000
0001
1000
0001
0100
0001
0100
0010
,
0100
0010
1000
0010
1000
0001
1000
0001
,
0010
0001
0010
0100
0010
0100
1000
0100
,
1000
0010
1000
0010
0100
0010
0100
0001
,
0100
0001
0010
0001
0010
0100
0010
0100
,
1000
0001
1000
0001
1000
0100
0010
0100
,
0010
0100
1000
0010
1000
0010
1000
0100
,
0010
0100
0010
0100
1000
0001
0010
0100
,
0010
0001
0010
0001
0100
0001
0100
0010
,
1000
0010
0100
0010
1000
0001
1000
0100
,
1000
0001
0010
0001
0100
0010
1000
0010
,
1000
0010
0100
0001
0010
0001
1000
0001
,
0100
0010
0100
0010
0100
0001
1000
0001
,
1000
0001
0100
0010
0100
0010
0100
0001
,
1000
0010
1000
0010
1000
0100
0010
0100
,
0010
0100
1000
0010
1000
0001
1000
0000
,
0100
0001
0100
0010
0000
1000
0000
0010
,
1000
0001
0000
0100
0000
0001
1000
0010
,
0000
0000
0100
0000
0000
0000
0100
0000
0010
0000
0100
0000
0010
0100
0000
0100
,
1000
0000
0001
1000
0000
1000
0001
0000
1000
0100
1000
0100
0010
0000
0000
0000
,
0010
0000
0100
0000
1000
0000
0001
1000
0000
1000
0001
0000
1000
0010
0000
0010
,
0200
0000
0310
0100
2000
0000
3100
0001
,
1000
0100
0010
0001
0010
0001
0020
0000
,
1000
0000
0000
0000
1030
0000
0100
0000
0010
0001
0010
0001
0010
0000
0001
0000
,
0010
0000
1000
0100
1000
0100
0000
0001
,
0010
0100
0110
0000
1010
0000
0101
0000
,
1000
0001
0010
0001
0010
0001
1000
0010
,
1000
0010
1001
0001
0000
0001
0101
0000
,
1000
0010
1000
0010
1000
0001
0010
0001
,
0010
0001
1000
0010
1000
0010
1000
0001
,
0010
0001
0010
0100
0010
0100
1000
0100
,
1000
0000
0001
0000
0100
0000
0010
1000
0010
1000
0010
1000
0100
0000
0010
0000
,
0100
0000
0001
0000
0100
0010
0001
0000
1000
0000
0001
0000
0010
0000
0100
0000
,
1000
0000
0100
0000
0010
0100
0010
0000
0010
0000
0001
0000
1000
0000
0001
0000
,
1000
0000
0001
0000
0100
0010
0100
0000
0100
0000
0010
0000
0100
0000
0001
0000
,
0010
0000
0001
0000
0010
0100
0010
0100
0010
0100
0010
0100
0010
0000
0010
0000
,
0100
0000
0001
0000
1000
0010
0001
0000
0100
0000
0001
0000
0100
0000
0010
0000
,
0100
0000
0001
0000
1000
0010
0001
0000
1000
0010
0001
0000
0010
0000
0100
0000
,
0010
0000
0100
0000
0010
0001
0000
0010
1000
0000
0010
0000
1000
0000
0010
0000
,
1000
0000
0001
0000
0100
0001
0100
0001
0100
0001
0100
0000
1000
0000
0010
0000
,
1000
0010
1000
0001
0100
0001
0100
0001
,
1000
0100
1000
0001
0010
0001
0010
0001
,
0100
0010
0110
0000
0100
0001
1001
0000
,
1000
0001
0110
0000
0010
0110
0000
0001
,
1000
0001
0100
0001
0100
0010
0100
0001
,
1000
0001
1000
0001
0100
0010
0110
0000
,
0100
0001
0110
0000
0010
0100
0011
0000
,
0100
0001
0110
0000
0100
0010
0000
0020
,
0000
0000
0000
0000
,
0000
0000
0000
0000
0000
0000
0000
0030
;

//--------------- dance-single - B. M'Rey ----------------
#NOTEDATA:;
#STEPSTYPE:dance-single;
#DESCRIPTION:B. M'Rey;
#CREDIT:B. M'Rey;
#DIFFICULTY:Challenge;
#METER:18;
#RADARVALUES:0,0,0,0,0;
#NOTES:
0000
0000
0000
0000
0000
0000
0010
0010
,
0100
0100
0010
0010
0001
0001
0100
0100
,
0001
0000
0001
0000
1000
0000
1000
0000
0001
1000
0001
1000
0001
0000
0001
0000
,
0100
0000
0100
0000
0010
0000
0010
0000
0100
0000
0100
0000
1000
0000
1000
0001
,
1000
0000
0001
0010
0001
0010
0100
0010
0100
0000
0010
0000
0100
0000
0001
0000
,
0010
0100
0010
0000
1000
0000
0010
1000
0010
0000
0100
0000
0010
0000
0100
1000
,
0100
0000
0100
0000
1000
0010
1000
0000
0100
0000
0010
1000
0010
0000
0100
1000
,
0100
0000
0010
0000
0100
0000
0001
0000
0010
0000
0001
0100
0001
0000
0010
0000
,
1000
0000
0001
0000
0000
0000
0100
0000
0000
0000
0010
0000
0100
0010
0100
0000
,
1000
0100
1000
0000
1010
0000
1000
0100
1000
0000
0010
1000
0010
0000
0110
0000
,
0110
0000
0100
0000
0010
0001
0010
0000
0110
0000
0010
0000
1000
0100
1000
0000
,
0010
0100
0010
0000
1100
0000
1100
0000
0010
0001
0010
0000
0110
0000
0100
1000
,
0100
0000
0011
0000
0010
0000
0001
0000
0100
0010
0100
0000
0100
0000
0010
0000
,
1000
0100
1000
0000
0110
0000
0101
0000
0100
0001
0100
0000
0110
0000
0100
0000
,
0010
0001
0010
0000
0100
0000
0110
0000
1000
0100
1000
0100
0010
0000
0100
0000
,
1000
0000
1001
0000
1100
0000
0110
0000
0010
0100
0010
0000
1001
0000
0000
0011
,
0000
0000
0110
0000
0011
0000
0001
0000
0010
0001
0010
0001
1000
0000
1100
0000
,
1100
0000
0001
0010
0001
0000
1001
0000
1100
0000
0100
1000
0100
0000
1010
0000
,
1010
0000
0001
0010
0001
0000
0001
0000
1000
0010
1000
0000
0100
0000
0010
0000
,
0100
0001
0100
0000
1100
0000
0100
0000
1100
0000
0100
0010
0100
0000
0100
0000
,
1000
0001
1000
0100
0010
0100
1000
0010
,
1000
0100
0010
0000
0100
0000
0001
0010
0100
0000
0001
0000
1100
0000
0110
0000
,
0011
0000
0001
0010
1000
0000
0100
0000
0010
0100
0010
0000
1010
0000
0010
0000
,
0100
0001
0100
0000
0010
0000
0001
0000
0100
0010
0100
0000
0100
0000
0010
0000
,
1000
0000
0001
0000
0010
0000
0001
0010
0001
0010
0100
1000
0001
0000
0010
0000
,
0100
0010
0100
0010
1000
0000
0001
0000
0100
0010
0100
0010
0100
0000
0001
0000
,
0100
0000
0010
0000
1000
0000
0001
0000
1000
0010
1000
0000
1000
0000
0001
0010
,
0001
0000
0100
0000
0010
0000
0001
0000
0100
0010
0100
0000
1000
0000
0001
0010
,
0000
1000
0100
0000
1000
0000
0010
0000
0100
0001
0100
0001
1000
0000
0010
0000
,
0100
0010
0100
0010
0100
0000
0010
1000
0000
1000
0001
0000
0010
0100
0000
0100
,
0010
0100
0010
0001
0010
0000
0001
0000
0100
0001
0100
0001
0100
0000
0010
0000
,
1000
0001
1000
0100
1000
0010
0200
0000
,
0000
0000
0000
0000
0310
0001
0010
0001
0010
0100
0010
0100
0010
0000
0010
0000
,
0100
0001
0100
0000
1000
0000
0100
0010
0100
0010
0001
0000
0100
0010
0100
0000
,
1000
0100
1000
0000
0110
0000
0100
0000
0110
0000
0001
0000
0101
0000
0010
0000
,
0100
0001
0100
0000
0010
0000
0100
1000
0100
0010
0001
0000
1000
0000
0010
0000
,
0100
0010
0001
0000
1010
0000
0110
0000
0100
0000
0101
0000
0011
0000
0001
0000
,
0010
0100
0010
0000
1000
0000
0001
0100
0001
0100
0010
0000
1000
0000
1000
0100
,
1000
0000
0100
0010
0100
0000
0011
0000
0010
0000
0100
0000
0110
0000
0100
0000
,
1000
0000
0001
0010
1000
0000
0010
0000
0100
0010
0001
0000
1000
0000
0010
0000
,
0100
0000
0010
0000
1100
0000
0100
1000
0100
0010
1000
0010
0100
0000
0001
0000
,
0010
0000
0100
0000
1000
0100
1000
0100
1000
0000
0001
0000
0100
0000
0001
0010
,
1000
0000
0100
0000
0010
0001
0010
0001
0100
0000
0010
0100
1000
0000
0100
0000
,
0010
0000
0001
0000
0100
0001
0100
0001
0010
0000
0001
0000
0100
0000
0010
0000
,
1000
0000
0010
0100
1000
0000
0010
0100
,
0010
0000
0001
0000
0010
0100
0010
0100
1000
0000
0010
0000
0100
0000
0001
0000
,
0010
0000
0100
0000
0010
0001
0010
0001
0100
0000
0001
0010
0100
0000
0001
0000
,
0010
0000
0100
0000
1000
0010
1000
0010
1000
0000
0001
0000
0100
0000
0011
0000
,
0011
0000
0101
0000
0100
0010
0100
0010
0100
1000
0001
0000
1000
0000
0100
0000
,
1000
0010
1000
0010
1000
0000
0001
0000
0010
0100
0010
0100
0010
0000
0100
0000
,
0010
0001
0010
0001
1000
0000
0001
0000
0010
0000
0001
0000
0100
0000
0010
0000
,
0100
0010
0100
0010
1000
0010
0100
0000
0010
0001
0010
0001
0100
0001
0010
0000
,
1000
0000
0100
0000
0010
0001
0010
0000
0100
0000
0001
1000
0001
0000
0010
0000
,
0100
0010
0100
0010
1000
0000
0100
0000
0010
0001
0010
0001
0100
0000
0010
0000
,
1000
0100
1000
0100
1000
0000
0001
0000
1000
0000
0100
0000
0010
0100
0001
0000
,
0100
0001
0100
0001
1000
0100
1000
0000
0010
0100
0010
0100
1000
0010
1000
0000
,
1000
0010
1000
0010
0100
0010
0100
0000
0100
0000
0001
0000
0000
0000
2002
0000
,
0000
0000
0000
0000
,
0000
0000
0000
0000
0000
0000
0000
3003
;
