#TITLE:Summer Vacation;
#SUBTITLE:(Bounce-Connected Style);
#ARTIST:TaQ;
#GENRE:TRIP HOP;
#MUSIC:Summer Vacation (Bounce-Connected Style).ogg;
#BANNER:Summer Vacation (Bounce-Connected Style)-bn.png;
#BACKGROUND:Summer Vacation (Bounce-Connected Style)-BG.png;
#CDTITLE:./CDTITLES/DANCE DANCE REVOLUTION HOME VERSION.PNG;
#SAMPLESTART:48.019;
#SAMPLELENGTH:12;
#OFFSET:-0.024;
#BPMS:0=135.014,59.5=67.507,61.5=135.014,104=270.028,105.5=135.014;
#STOPS:30=0.222,104=0.333,197=0.444;

//--------------- dance-single - B. M'Rey ----------------
#NOTES:
     dance-single:
     B. M'Rey:
     Beginner:
     2:
     0,0,0,0,0:
0000
0000
0000
0000
,
0000
0000
0000
0000
,
0000
0000
0000
0000
,
0000
0000
0000
0000
,
1000
0000
0000
0000
,
0001
0000
0000
0000
,
0100
0000
0000
0000
,
0010
0000
0000
0000
1001
0001
0000
1000
,
0000
0000
0000
0010
0000
0000
0000
0100
,
0000
0000
0000
0010
0000
0000
0000
1000
,
0000
0000
0000
0001
0000
0000
0000
0010
,
0000
0000
0000
0000
0000
0000
0000
0100
,
0000
0000
0000
0010
0000
0000
0000
1000
,
0000
0000
0000
0100
0000
0000
0000
0001
,
0000
0000
0000
0010
0000
0000
0000
0001
,
0000
0000
0000
1000
0000
0000
0000
0010
,
0000
0000
0000
0100
0000
0000
0000
0010
,
0000
0000
0000
1000
0000
0000
0000
0001
,
0000
0000
0000
0010
0000
0000
0000
0000
,
0000
0000
0000
0100
0000
0000
0000
0010
,
0000
0000
0000
1000
0000
0000
0000
0100
,
0000
0000
0000
0001
0000
0000
0000
0010
,
0000
0000
0000
0001
0000
0000
0000
0000
,
0000
1000
0000
0000
0000
0000
0000
0000
,
0000
0001
0000
0000
0000
0000
0000
0000
,
0000
0100
0000
0000
0000
0000
0000
0000
,
0110
0000
0000
0001
0000
0000
0000
1000
,
0000
0000
0000
0010
0000
0000
0000
0100
,
0000
0000
0000
0010
0000
0000
0000
0001
,
0000
0000
0000
1000
0000
0000
0000
0010
,
0000
0000
0000
0110
0000
0000
0000
1000
,
0000
0000
0000
0101
0000
0000
0000
0010
,
0000
0000
0000
0110
0000
0000
0000
0110
,
0000
0000
0000
0110
0000
0000
0000
0000
,
0000
0000
0000
0001
0000
0000
0000
1000
,
0000
0000
0000
0010
0000
0000
0000
0100
,
0000
0000
0000
1000
0000
0000
0000
0010
,
0000
0000
0000
0100
0000
0000
0000
0001
,
0000
0000
0000
0010
0000
0000
0000
0001
,
0000
0000
0000
0100
0000
0000
0000
0010
,
0000
0000
0000
1000
0000
0000
0000
0100
,
0000
0000
0000
1000
0000
0000
0000
0010
,
0000
0000
0000
0110
0000
0000
0000
0001
,
0000
0000
0000
1000
0000
0000
0000
0010
,
0000
0000
0000
0101
0000
0000
0000
0010
,
0000
0000
0000
1000
0000
0000
0000
0010
,
0000
0000
0000
0110
0000
0000
0000
1000
,
0000
0000
0000
0001
0000
0000
0000
0100
,
0000
0000
0000
1010
0000
0000
0000
0110
,
0000
0101
0000
0000
,
0000
1000
0000
0000
0000
0010
0000
0000
,
0000
0100
0000
0000
0000
0010
0000
0000
,
0000
0001
0000
0000
0000
0100
0000
0000
,
0000
0010
0000
0000
0000
0000
0000
0000
,
0000
1000
0000
0000
0000
0100
0000
0000
,
0000
1000
0000
0000
0000
0010
0000
0000
,
0000
0100
0000
0000
0000
0001
0000
0000
,
0000
0010
0000
0000
0000
0000
0000
0000
;

//--------------- dance-single - B. M'Rey ----------------
#NOTES:
     dance-single:
     B. M'Rey:
     Easy:
     4:
     0,0,0,0,0:
0000
0000
0000
0000
,
0000
0000
0000
0000
,
0000
0000
0000
0000
,
0000
0000
0000
0000
,
1000
0000
1000
0000
,
0001
0000
0001
0000
,
0100
0000
1000
0000
,
1000
0000
0000
0000
1000
0010
0000
0100
,
0000
0010
0000
0100
0000
0010
0000
0001
,
0000
1000
0000
0001
0000
0000
0000
0001
,
0000
0010
0000
0100
0000
0010
0000
0100
,
0000
1000
0000
0000
0000
0001
0000
1000
,
0000
1000
0000
0100
0000
0010
0000
0100
,
0000
0010
0000
0100
0000
0000
0000
0010
,
0000
1000
0000
0010
0000
1000
0000
0001
,
0000
0100
0000
0010
0000
1000
0000
0001
,
0000
1000
0000
0010
0000
1000
0000
0010
,
0000
0000
0000
0001
0000
0100
0000
0001
,
0000
0100
0000
0010
0000
0000
0000
0001
,
0000
0000
0000
0100
0000
0010
0000
0001
,
0000
0010
0000
0001
0000
0100
0000
0001
,
0000
0000
0000
0010
0000
0100
0000
0010
,
0000
1000
0000
0001
0000
0100
0000
0000
,
0000
0010
0000
0000
0000
0001
0000
0000
,
0000
0010
0000
0000
0000
1000
0000
0000
,
0000
0010
0000
0000
0000
0100
0000
0000
,
1000
0000
0000
0001
0000
0010
0000
0100
,
0000
1000
0000
0100
0000
1000
0000
0010
,
0000
1000
0000
0100
0000
0010
0000
0001
,
0000
0010
0000
0001
0000
1000
0000
0100
,
0000
1000
0000
1100
0000
0000
0000
0110
,
0000
0000
0000
0110
0000
0000
0000
0011
,
0000
0000
0000
0001
0000
1000
0000
0001
,
0000
1000
0000
0200
0000
0000
0000
0002
,
0000
0000
0303
0010
0000
1000
0000
0100
,
0000
0010
0000
0001
0000
0010
0000
0001
,
0000
0010
0000
0100
0000
1000
0000
0100
,
0000
1000
0000
0100
0000
0010
0000
0001
,
0000
0010
0000
0001
0000
0010
0000
0100
,
0000
1000
0000
0100
0000
1000
0000
0100
,
0000
0010
0000
0001
0000
0010
0000
0001
,
0000
1000
0000
0010
0000
1000
0000
0001
,
0000
0010
0000
0011
0000
0010
0000
0001
,
0000
1000
0000
0100
0000
1000
0000
0100
,
0000
1000
0000
0110
0000
0100
0000
0010
,
0000
0100
0000
0010
0000
1000
0000
0100
,
0000
1000
0000
1100
0000
1000
0000
0010
,
0000
0100
0000
0010
0000
0100
0000
0010
,
0000
1000
0000
1100
0000
0000
0000
0110
,
0000
0000
0010
0100
0000
0000
0000
0001
,
0000
1000
0000
0000
0000
0010
0000
0000
,
0000
0100
0000
0000
0000
0010
0000
0000
,
0000
1000
0000
0000
0000
0100
0000
0000
,
0000
1000
0000
0000
0000
0000
0000
0000
,
0000
0001
0000
0000
0000
0010
0000
0001
,
0000
0100
0000
0000
0000
0010
0000
1000
,
0000
0100
0000
0000
0000
0001
0000
0010
,
0000
0100
0000
0000
0000
0100
0000
0000
,
0000
0100
0000
0000
0000
0000
0000
0000
;

//--------------- dance-single - B. M'Rey ----------------
#NOTES:
     dance-single:
     B. M'Rey:
     Medium:
     6:
     0,0,0,0,0:
0000
0000
0000
0000
,
0000
0000
0000
0000
,
0000
0000
0000
0000
,
0000
0000
0000
0000
,
1000
0010
1000
0010
,
1000
0100
0010
0100
,
0010
0100
1000
0001
,
1000
0000
0000
0000
0010
1000
0000
0010
,
0000
1000
0000
0010
0100
1000
0000
0001
,
0000
0100
0000
0001
0010
0100
0000
0001
,
0000
0010
0000
0100
0001
0010
0000
0001
,
0000
0010
0000
0001
0000
0100
0000
0010
,
0000
0100
0000
0010
1000
0100
0000
0001
,
0000
0010
0000
0001
0100
0010
0000
0001
,
0000
1000
0000
0010
0001
1000
0000
1000
,
0000
0001
0000
1000
0000
0001
0000
1000
,
0010
0100
0000
0010
0000
0100
0000
0010
,
0001
0100
0000
1000
0000
0001
0000
1000
,
0010
0001
0000
1000
0000
0000
0000
0010
,
0000
0100
0000
0010
0000
0100
0000
1000
,
0100
0001
0000
1000
0000
0001
0000
1000
,
0100
0010
0000
0100
0000
0001
0000
0100
,
0010
0001
0000
0100
0000
0010
0000
0000
,
0000
0010
0000
0000
0000
0010
0000
0000
,
0000
0001
0000
0000
0000
0001
0000
0000
,
0000
0100
0000
0000
0000
0100
0000
0000
,
0001
0000
0000
1000
0000
0100
0001
0100
,
0001
0000
0100
1000
0000
1000
0001
1000
,
0001
0000
0001
0100
0000
0100
0001
1000
,
0001
0000
0001
0100
0000
0100
0010
0100
,
0001
0000
0001
1000
0000
1000
0100
0010
,
0100
0000
0100
1000
0000
1000
0010
0100
,
0010
0000
0001
0100
0000
1000
0000
0001
,
0000
1000
0000
0100
0000
0010
0000
1000
,
0000
0100
0000
0010
0100
0001
1000
0010
,
0000
0010
0100
0001
0000
0001
0100
0010
,
0000
0010
1000
0010
0000
0001
0100
0001
,
0000
0010
1000
0010
0000
0010
0100
0001
,
0000
0010
1000
0010
0000
0001
0100
0001
,
0000
0010
1000
0010
0000
0010
0100
0001
,
0000
0001
0100
0010
0000
0001
0010
0100
,
0000
0100
0010
0001
0000
0001
0000
0100
,
0000
0100
0000
1100
0000
0001
0010
0001
,
0000
0001
0100
0010
0000
0010
1000
0010
,
0000
0001
0000
0101
0000
0001
1000
0010
,
0000
0001
0100
0001
0000
0100
1000
0100
,
0000
0110
0000
0011
0000
0001
0010
0100
,
0000
0100
1000
0001
0000
0001
0100
0001
,
0000
0010
0100
0010
0000
0010
0100
0001
,
0000
0001
1000
0100
0000
1000
0000
0001
,
0000
1000
0000
0001
0000
1000
0010
0001
,
0000
1000
0000
0010
0000
0100
0010
0001
,
0000
0100
0000
0001
0000
0100
1000
0010
,
0000
1000
0000
0010
0000
1000
0000
0010
,
0000
0100
0000
0001
0000
1000
0010
0001
,
0000
1000
0000
0001
0000
0100
1000
0010
,
0000
0100
0000
0010
0000
0100
0010
0001
,
0000
0010
0000
0001
0000
0100
0000
0001
,
0000
0100
0000
0000
0000
0000
0000
0000
;

//--------------- dance-single - B. M'Rey ----------------
#NOTES:
     dance-single:
     B. M'Rey:
     Hard:
     8:
     0,0,0,0,0:
0000
0000
0000
0000
,
0000
0000
0000
0000
,
0000
0000
0000
0000
,
0000
0000
0000
0000
,
0010
0100
0001
0010
,
0001
0100
0001
0010
,
0100
1000
0010
0100
,
0001
0000
0000
0000
0010
1000
0000
0001
,
1000
0010
1000
0010
1000
0001
0010
0001
,
0010
0001
0100
0010
0100
0010
0100
0001
,
0010
0100
1000
0010
1000
0010
1000
0001
,
0010
0001
0000
0100
0000
0001
0000
0001
,
1000
0010
1000
0001
1000
0001
0010
0100
,
0010
0100
0010
0001
0100
0010
0100
0010
,
0100
0001
1000
0100
1000
0100
1010
2000
,
0000
3020
0000
0031
1000
0001
1000
0010
,
1000
0100
0010
0100
0010
0100
1000
0001
,
1000
0001
0100
0001
0100
0010
1000
0001
,
1000
0001
1000
0010
0200
0000
1300
0010
,
0000
0101
0000
0001
0010
0001
0010
0001
,
0100
0010
0100
0010
0100
0001
1000
0001
,
1000
0001
0010
0100
0010
0001
0010
0100
,
1000
0010
1000
0010
1000
0010
0010
0100
,
0100
0001
0001
0010
0010
0100
0100
1000
,
1000
0001
0001
1000
1000
0010
0010
0100
,
0100
0001
0001
0010
0010
0100
0100
1000
,
2002
0000
3003
0001
0010
0001
0010
0001
,
0100
0001
0000
0010
1000
0000
0010
0000
1000
0000
0010
0000
0100
0000
0001
0000
,
0100
0001
0000
0001
0100
0000
0010
0000
1000
0000
0010
0000
0100
0000
0010
0000
,
0100
0001
0000
0001
0100
0000
0001
0000
1000
0000
0001
0000
0010
0000
0100
0000
,
0010
0100
0000
0100
0010
0000
1001
0000
0000
0000
0001
0000
1000
0000
0101
0000
,
0000
0010
0100
0110
0000
0001
0010
0011
,
0000
0001
0001
1000
1000
0010
0010
0100
,
0100
0010
0010
0200
0000
0002
0300
0203
,
0000
0000
0320
0000
0000
0000
0130
0000
0010
0100
0010
0000
0010
0000
1000
0000
,
0001
0000
0010
0000
0100
0010
0100
0000
0100
0000
0010
0000
0001
0000
0100
0000
,
0001
0000
0010
0000
0100
0010
0100
0000
0100
0000
0010
0000
0001
0000
0100
0000
,
0010
0000
0100
0000
0001
0100
0001
0000
0001
0000
0010
0000
0001
0000
0010
0000
,
0100
0000
1000
0000
0001
0010
0100
0000
0001
0000
1000
0000
0100
0000
1000
0000
,
0010
0000
0100
0000
0010
0100
1000
0000
0010
0000
0100
0000
0001
0000
0100
0000
,
0010
0000
0100
0000
0010
0100
1000
0000
0001
0000
0100
0000
0001
0000
1000
0000
,
0001
0000
0100
0000
0010
0001
0100
0010
0000
0000
1000
0100
0000
0000
0010
0100
,
0000
0010
0000
1000
0010
0100
0010
1000
,
0001
0000
0010
0100
0001
0000
0100
0000
0001
0000
1000
0100
1000
0000
1000
0000
,
0100
0000
0010
0000
0001
0100
1000
0000
0100
0000
0010
0000
0001
0010
0100
0000
,
0001
0000
0100
0000
0001
0010
0100
0000
0001
0000
1000
0100
0010
0000
0100
0000
,
0010
0000
0100
0000
1001
0000
0011
0000
0000
0000
0010
1000
0100
0000
1000
0000
,
0001
0000
0100
0000
0001
0100
0010
0000
0100
0000
1000
0010
0001
0000
0100
0000
,
0010
0000
1000
0000
0001
0010
0100
0000
0001
0000
0010
0000
0100
0000
1001
0000
,
0000
0010
0101
0100
0000
1000
0000
0001
,
0000
0010
0100
1000
0000
0010
0001
0100
,
0000
1000
0100
1000
0000
1000
0010
0100
,
0000
0010
0001
0100
0000
0100
0010
0100
,
0000
1000
0001
0000
0010
0000
0001
0200
,
0000
1300
0001
1000
0001
1000
0100
0010
,
0100
0010
0100
1000
0001
1000
0001
1000
,
0010
0100
0010
0100
0010
1000
0001
0010
,
0001
1000
0000
0100
0000
0010
0000
0001
,
0000
1000
0000
0000
0000
0000
0000
0000
;

//--------------- dance-single - B. M'Rey ----------------
#NOTES:
     dance-single:
     B. M'Rey:
     Challenge:
     9:
     0,0,0,0,0:
0000
0000
0000
0000
,
0000
0000
0000
0000
,
0000
0000
0000
0000
,
0000
0000
0000
0000
,
0010
0100
0010
1000
,
0001
1000
0100
1000
,
0010
0100
0010
1000
,
0001
0000
0000
0000
0010
1000
0000
0100
,
1000
0000
0001
0000
0100
0010
0001
0000
0100
0010
0001
0000
0010
0000
0100
0000
,
1000
0000
0001
0000
1000
0010
0001
0000
0100
1000
0001
0000
0100
0000
0010
0000
,
0100
0000
0001
0000
0010
1000
0100
0000
0010
0001
0100
0000
0010
0000
0001
0000
,
0100
0010
0000
0100
0000
0001
0000
0001
,
1000
0000
0001
0000
1000
0100
0010
0000
0100
0010
0001
0000
0010
0000
0001
0000
,
1000
0000
0010
0000
1000
0100
0010
0000
0100
0001
0010
0000
1000
0000
0001
0000
,
1000
0000
0100
0000
1000
0010
0100
0000
0010
0001
0100
0000
0010
0000
1001
0000
,
0000
0000
0011
0000
0000
0000
0010
0000
1000
0000
0100
0000
1000
0001
0100
0000
,
1000
0100
0001
0000
0010
0000
0001
0000
0010
0000
0001
0000
1000
0010
0100
0000
,
0010
0001
0100
0000
1000
0000
0001
0000
1000
0000
0001
0000
1000
0010
0100
0000
,
0010
0100
0001
0000
1000
0000
0001
0000
1000
0000
0000
0000
1000
0000
0010
0000
,
0000
0000
0101
0000
0000
0000
0010
0000
0100
0000
0010
0000
0100
0010
0001
0000
,
0010
1000
0001
0000
0100
0000
0010
0000
1000
0000
0100
0000
1000
0001
0010
0000
,
1000
0100
0010
0000
0100
0000
0001
0000
0010
0000
0001
0000
1000
0100
0010
0000
,
1000
0001
0010
0000
1000
0000
0001
0000
1000
0000
0001
0000
0001
0100
0010
0000
,
0010
0100
0001
0000
0001
1000
0100
0000
0100
0010
0100
0000
0001
0010
0001
0000
,
0010
0100
0010
0000
0010
1000
0100
0000
0100
0010
0100
0000
0001
1000
0001
0000
,
0100
0010
0100
0000
0001
0010
0001
0000
0001
0100
0010
0000
0010
1000
0010
0000
,
1000
0000
0000
0000
0000
0000
0100
0000
0010
0100
0010
0100
0010
0000
0100
0000
,
1000
0010
0000
0010
1000
0000
0010
0000
1000
0100
1000
0100
0010
0000
0100
0000
,
0010
0100
0000
0100
1000
0000
0010
0000
0010
0001
0010
0001
1000
0000
0010
0000
,
0100
0010
0000
0010
0100
0000
0010
0000
1000
0100
1000
0100
1000
0000
0100
0000
,
1000
0010
0000
0010
0100
0000
1001
0000
0000
0000
0010
0000
0100
0000
0101
0000
,
0000
0010
1000
0110
0000
0001
0010
1100
,
0000
0010
0100
0010
1000
0010
1000
0001
,
1000
0000
0001
0000
0100
0000
0001
0010
0100
0010
0001
0010
0100
1000
0100
1000
,
0100
0010
0001
0010
0001
0010
0001
0000
0001
1000
0001
0100
0010
0100
0001
0000
,
0010
0000
0100
1000
0100
1000
0001
0000
0001
0010
0001
0010
0100
0010
0100
0000
,
1000
0000
0001
1000
0001
0010
0001
0000
0100
0010
0100
1000
0100
1000
0001
0000
,
0010
0000
0001
0010
0100
1000
0100
0000
0100
0010
0001
0010
0100
1000
0100
0000
,
0010
0000
0010
0100
0010
0100
0001
0000
0010
1000
0010
1000
0010
0100
0001
0000
,
0010
0000
0010
1000
0010
1000
0001
0000
0001
1000
0001
1000
0100
1000
0100
0000
,
0100
0000
0001
0010
0001
0100
0001
0000
0100
0010
0100
0010
0001
0100
0001
0000
,
0001
0000
0100
0010
0100
0010
0001
0000
0001
1000
0001
0010
0100
0010
0100
0000
,
0001
0000
0001
0100
0001
0000
1001
0000
1000
0001
1000
0010
0100
0010
1000
0000
,
0100
0000
0010
0001
0010
0001
1000
0000
1000
0100
1000
0100
0010
0100
0010
0000
,
0001
0000
1000
0001
1000
0000
1010
0000
0010
0100
0010
0001
0010
0001
1000
0000
,
0100
0000
1000
0100
0010
0001
0010
0000
0010
0100
1000
0100
0010
0001
0010
0000
,
0100
0000
0000
0000
0110
0000
1010
0000
0100
0001
0100
0001
0100
0010
1000
0000
,
0100
0000
0100
0001
0100
0001
1000
0000
1000
0001
1000
0001
0010
0001
0010
0000
,
0010
0000
1000
0100
0000
0010
1000
0000
0010
0100
0010
0100
1000
0000
1010
0000
,
1000
0100
0010
0100
0010
0000
0100
0000
0000
0000
1000
0000
0000
0000
0001
0000
,
0000
0000
0010
0000
1000
0000
0010
0000
1000
0100
0000
0100
1000
0000
0010
0000
,
0100
0000
0001
0000
0010
0000
0100
0000
1000
0100
0000
0100
0010
0000
0001
0000
,
0100
0000
0001
0000
0010
0000
0001
0000
1000
0010
0000
0010
0100
0000
0010
0000
,
1000
0100
0010
0100
0000
0001
0000
0200
,
0000
1300
0001
1000
0010
0001
1000
0100
,
0010
0001
1000
0010
1000
0010
0100
0010
,
1000
0001
0010
0001
0010
0001
0100
0010
,
0100
0000
0001
0010
0000
0100
1000
0000
0100
0010
0000
0010
0100
0000
0001
0000
,
0010
1000
0000
0000
0000
0000
0000
0000
;
