#TITLE:Sphere;
#SUBTITLE:(FLASH BACK MIX);
#ARTIST:Tatsh feat. K.Nayuki Remixed by PINK PONG;
#TITLETRANSLIT:;
#SUBTITLETRANSLIT:;
#ARTISTTRANSLIT:;
#GENRE:DDR EXTREME 3;
#CREDIT:;
#MUSIC:Sphere (FLASH BACK MIX).ogg;
#BANNER:Sphere (FLASH BACK MIX)-bn.png;
#BACKGROUND:Sphere (FLASH BACK MIX)-BG.png;
#CDTITLE:./CDTITLES/DANCE DANCE REVOLUTION/EXTREME 3.PNG;
#SAMPLESTART:82.790;
#SAMPLELENGTH:12.000;
#SELECTABLE:YES;
#OFFSET:-0.031;
#BPMS:0.000=145.000;
#STOPS:;
#BGCHANGES:;
#FGCHANGES:;

//--------------- dance-single - B. M'Rey ----------------
#NOTES:
     dance-single:
     B. M'Rey:
     Beginner:
     1:
     0,0,0,0,0:
0000
0000
0000
0000
,
0000
0000
0000
0000
,
0000
0000
0000
0000
,
0000
0000
0000
0000
,
0000
0000
0000
0000
,
0000
0000
0000
0000
,
0000
0000
0000
0000
,
0000
0000
0000
0000
,
0000
0000
0000
0000
,
0000
0000
0000
0000
,
0000
0000
0000
0000
,
0000
0000
0000
0000
,
0000
0000
0000
0000
,
0000
0000
0000
0000
,
0000
0000
0000
0000
,
0010
0000
0000
0000
,
0100
0000
0100
0000
,
1000
0000
1000
0000
,
0001
0000
0001
0000
,
0100
0000
0100
0000
,
0010
0000
0010
0000
,
1000
0000
1000
0000
,
0001
0000
0001
0000
,
0100
0000
0100
0000
,
0010
0000
0010
0000
,
1000
0000
1000
0000
,
0001
0000
1000
0000
,
0001
0000
0100
0000
,
0010
0000
0100
0000
,
1000
0000
0100
0000
,
0001
0000
1000
0000
,
0010
0000
0000
0000
,
0100
0000
0000
0000
,
1000
0000
0000
0000
,
0001
0000
0000
0000
,
0010
0000
0000
0000
,
0001
0000
0000
0000
,
0100
0000
0000
0000
,
1000
0000
1000
0000
,
0001
0000
0001
0000
,
0100
0000
0000
0000
,
1000
0000
0000
0000
,
0010
0000
0000
0000
,
0100
0000
0000
0000
,
0001
0000
0000
0000
,
0010
0000
0000
0000
,
0001
0000
0000
0000
,
1000
0000
0000
0000
,
0010
0000
0000
0000
,
0000
0000
0000
0000
,
1000
0000
1000
0000
,
0001
0000
0001
0000
,
0100
0000
0100
0000
,
0010
0000
0010
0000
,
1000
0000
1000
0000
,
0001
0000
0001
0000
,
0100
0000
0100
0000
,
0010
0000
0010
0000
,
1000
0000
0001
0000
,
1000
0000
0010
0000
,
0100
0000
0010
0000
,
1000
0000
0001
0000
,
0100
0000
0010
0000
,
0001
0000
0100
0000
,
1000
0000
0010
0000
,
0100
0000
0010
0000
,
1000
0000
0000
0000
,
0001
0000
0000
0000
,
0100
0000
0000
0000
,
0010
0000
0000
0000
,
1000
0000
0000
0000
,
0001
0000
0000
0000
,
1000
0000
1000
0000
,
0001
0000
0001
0000
,
0100
0000
0000
0000
,
0010
0000
0000
0000
,
1000
0000
0000
0000
,
0100
0000
0000
0000
,
1000
0000
0000
0000
,
0010
0000
0000
0000
,
0001
0000
0000
0000
,
1000
0000
0000
0000
,
2002
0000
0000
0000
,
0000
0000
0000
0000
,
3003
0000
0000
0000
;

//--------------- dance-single - B. M'Rey ----------------
#NOTES:
     dance-single:
     B. M'Rey:
     Easy:
     4:
     0,0,0,0,0:
0000
0000
0000
0000
,
0000
0000
0000
0000
,
0000
0000
0000
0000
,
0000
0000
0000
0000
,
1000
0000
0000
0000
,
0010
0000
0000
0000
,
0100
0000
0000
0000
,
0001
0000
0000
0000
,
1000
0000
0000
0000
,
0010
0000
0000
0000
,
0100
0000
0000
0000
,
1000
0000
0000
0000
,
0001
0000
0000
0000
,
0010
0000
0000
0000
,
0001
0000
0000
0000
,
0020
0000
0000
0000
,
0130
0010
0100
0010
,
1000
0001
0100
0001
,
0010
0001
0100
0010
,
1000
0100
1000
0100
,
1000
0010
0100
0001
,
0010
0001
0010
0100
,
0010
0100
1000
0001
,
0100
0001
0100
0010
,
1000
0010
1000
0010
,
0100
0001
0100
0010
,
1000
0001
0010
0001
,
0010
0100
1000
0100
,
1000
0100
0010
0001
,
0010
0001
0100
0010
,
0100
0001
0010
0001
,
1000
0000
0001
0000
,
1000
0000
0010
0000
,
0020
0000
0000
0031
,
0100
0000
0000
0010
0000
0000
0020
0000
,
0000
0000
0000
0031
,
0010
0000
0000
0001
0000
0000
0200
0000
,
0000
0000
0000
0300
,
0002
0000
0013
0100
,
2000
0000
3010
0000
,
2000
0000
0000
0000
,
3020
0000
0000
0031
,
0200
0000
0300
0010
,
2000
0000
0000
3100
,
2000
0000
0000
3010
,
0002
0000
0000
0003
,
2000
0000
0000
3010
,
1010
0000
0110
0000
,
0202
0000
0000
0000
,
0003
0000
0000
0000
,
1300
0001
0010
0100
,
0010
0100
1000
0010
,
1000
0100
0010
0100
,
0010
0001
0100
0001
,
1000
0001
0010
0100
,
1000
0100
1000
0100
,
0010
0001
1000
0100
,
1000
0100
1000
0010
,
0100
0010
1000
0010
,
1000
0100
1000
0100
,
0010
0100
0010
0001
,
1000
0100
1000
0010
,
1000
0010
0100
0001
,
1000
0100
1000
0100
,
1000
0010
0100
0010
,
0100
0001
1000
0010
,
0001
0000
0010
0000
,
0020
0000
0000
1030
,
0100
0000
0000
0010
0000
0000
0020
0000
,
0000
0000
0000
1030
,
0010
0000
0000
1000
0000
0000
0200
0000
,
0000
0000
0000
0300
,
2000
0000
3010
0100
,
0002
0000
0013
0000
,
0002
0000
0000
0000
,
0023
0000
0000
1030
,
0200
0000
0300
0010
,
0002
0000
0000
0103
,
0002
0000
0000
0013
,
2000
0000
0000
3000
,
0002
0000
0000
0013
,
0011
0000
0110
0000
,
0200
0000
0000
0000
,
0000
0000
0000
0000
,
0300
0000
0000
0000
;

//--------------- dance-single - B. M'Rey ----------------
#NOTES:
     dance-single:
     B. M'Rey:
     Medium:
     5:
     0,0,0,0,0:
0000
0000
0000
0000
,
0000
0000
0000
0000
,
0000
0000
0000
0000
,
0000
0000
0000
0000
,
1000
0000
1000
0000
,
0010
0000
0010
0000
,
1000
0000
0010
0000
,
1000
0000
0010
0000
,
0001
0000
0100
0000
,
0001
0000
1000
0000
,
0010
0000
0100
0000
,
0001
0000
0010
0000
,
1000
0000
0100
0000
,
0010
0000
0001
0000
,
0010
0000
1000
0000
,
0200
0000
0000
0000
,
0310
0001
1000
0000
0100
0000
1000
0000
,
0100
0010
1000
0000
1000
0000
0010
0000
,
0010
0001
0100
0000
0010
0000
0010
0000
,
1000
0001
1000
0000
0010
0000
0100
0000
,
1000
0010
1000
0000
0010
0100
0010
0000
,
1000
0010
0100
0000
1000
0100
0010
0000
,
1000
0000
0100
0001
0000
0001
1000
0000
,
0010
0000
1000
0010
0000
0010
0100
0000
,
0100
0001
0100
0000
1000
0000
0010
0000
,
0010
0001
1000
0000
0100
0000
0010
0000
,
1000
0010
1000
0000
0010
0001
1000
0000
,
0010
0100
0010
0000
1000
0100
0010
0000
,
0010
0001
0100
0000
1000
0000
0010
0000
,
0100
0001
1000
0000
1000
0000
0010
0000
,
0100
0001
1000
0000
0010
0001
0010
0000
,
1000
0000
0001
0000
0010
1000
0001
0100
,
0020
0130
0020
0130
,
2000
0010
0100
3010
,
1000
0001
1000
0002
,
0010
0100
0013
0100
,
1000
0010
1000
0020
,
1000
0100
1000
0130
,
2000
0000
3010
0100
,
0020
0000
0032
0000
,
2003
0100
0100
3001
,
0020
0001
0130
0001
,
2000
0100
3010
0100
,
0020
0100
1030
0001
,
2000
0010
3100
0010
,
0200
0001
1000
0301
,
2000
0000
0000
3100
,
0101
0000
0110
0000
,
2020
0000
0000
0000
0000
0000
0000
3030
,
0202
0000
0000
0000
0000
0000
0000
0303
,
0010
0001
1000
0000
0100
0000
1000
0000
,
0100
0010
1000
0000
1000
0000
0010
0000
,
0010
0001
0100
0000
0010
0000
0010
0000
,
1000
0001
1000
0000
0010
0000
0100
0000
,
1000
0010
1000
0000
0010
0100
0010
0000
,
1000
0010
0100
0000
1000
0100
0010
0000
,
1000
0000
0100
0001
0000
0001
1000
0000
,
0010
0000
1000
0010
0000
0010
0100
0000
,
0100
0001
0100
0000
1000
0000
0010
0000
,
0010
0001
1000
0000
0100
0000
0010
0000
,
1000
0010
1000
0000
0010
0001
1000
0000
,
0010
0100
0010
0000
1000
0100
0010
0000
,
0010
0001
0100
0000
1000
0000
0010
0000
,
0100
0001
1000
0000
1000
0000
0010
0000
,
0100
0001
1000
0000
0010
0001
0010
0000
,
1100
0001
0100
0001
,
0200
0310
0200
0310
,
0002
0100
0010
0103
,
0001
1000
0001
2000
,
0100
0010
3100
0010
,
0001
0100
0001
0200
,
0001
0010
0001
0310
,
0002
0000
0103
0010
,
0200
0000
2300
0000
,
3002
0010
0010
1003
,
0200
1000
0310
1000
,
0002
0010
0103
0010
,
0200
0010
0301
1000
,
0002
0100
0013
0100
,
0020
1000
0001
1030
,
0002
0000
0000
0013
,
2000
0000
3200
0000
,
0002
0000
0000
0000
,
0000
0000
0000
0000
,
0303
0000
0000
0000
;

//--------------- dance-single - B. M'Rey ----------------
#NOTES:
     dance-single:
     B. M'Rey:
     Hard:
     9:
     0,0,0,0,0:
0000
0000
0000
0000
,
0000
0000
0000
0000
,
0000
0000
0000
0000
,
0000
0000
0000
0000
,
0100
1000
0001
0100
,
0001
0100
0001
0010
,
0100
1000
0100
1000
,
0100
0010
0001
1000
,
0001
0100
0001
0100
,
0010
0100
0001
1000
,
0001
0010
0001
0010
,
0100
0010
0001
1000
,
0010
1000
0010
0100
,
0010
1000
0001
0100
,
0001
0010
0001
0010
,
0002
0000
0000
0000
,
1003
0000
0001
0000
0010
0100
0010
0000
0001
0000
0010
0000
0100
0010
0000
1000
,
0100
0000
1000
0000
0100
1000
0100
0000
0010
0000
1000
0000
0010
0100
0000
0001
,
0010
0000
0100
0000
0001
0100
0001
0000
0010
0000
1000
0000
0001
1000
0000
1000
,
0100
0000
0010
0000
0001
0100
0010
0000
0100
0000
0010
0000
0001
1000
0000
1000
,
0010
0000
1000
0000
0010
1000
0010
0000
0100
0000
0010
0000
0001
0010
0000
0010
,
0001
0000
0100
0000
0001
0100
0001
0000
0010
0000
0100
0000
0010
1000
0000
1000
,
0010
0000
1000
0000
0100
1000
0100
0000
0001
0000
0100
0000
0010
0000
0100
0000
,
0010
0100
0001
0010
0001
0010
0001
1000
,
0010
0000
1000
0000
0001
0100
0001
0000
0001
0000
0100
0000
0001
1000
0000
1000
,
0100
0000
0010
0000
0100
0010
0100
0000
0010
0000
1000
0000
0001
0010
0000
0010
,
0100
0000
0010
0000
0100
0010
0000
0010
0001
0000
1000
0000
0001
1000
0000
1000
,
0001
0000
0010
0000
0100
0010
0000
0010
0100
0000
0010
0000
0001
0100
0000
0100
,
0001
0000
1000
0000
0100
1000
0100
0000
0100
0000
1000
0000
0001
0000
0100
0000
,
0001
0100
0001
1000
0100
1000
0100
1000
,
0010
0100
0010
1000
0001
1000
0001
1000
,
0020
0000
0000
0130
0000
1000
0100
0001
,
0010
0000
1000
0100
1000
0000
0010
0001
,
0200
0010
0010
0010
,
1300
0000
1000
0010
0000
0001
0100
0000
,
0010
0001
1000
0010
,
1000
0000
1000
0001
0000
0001
0020
0000
,
0001
1000
0001
0130
,
0100
0000
1000
0010
1000
0000
0100
0000
,
0020
0000
0000
0000
0031
0000
1000
0001
,
0200
1000
1000
1000
,
0320
0001
0001
0130
,
0002
0000
0100
0000
1000
0000
1003
0010
,
0200
0000
0010
0000
0010
0000
0310
0100
,
2000
0000
0001
0000
0001
0000
3010
0100
,
2000
0000
0010
0000
0010
0000
3010
0100
,
1000
0000
1000
0010
0100
0000
1000
0001
,
0110
0000
0010
0100
0011
0000
1000
0001
,
2002
0000
0000
0000
0000
0000
0000
3003
,
0220
0000
0000
0000
0000
0000
0000
0330
,
1000
0100
0010
0100
0010
0100
1000
0001
,
0100
0001
0100
0001
1000
0100
1000
0100
,
1000
0001
0010
0001
0010
0001
0100
0010
,
0100
0001
0100
0001
1000
0100
1000
0001
,
1000
0010
0100
0001
0100
0001
0100
0010
,
1000
0001
1000
0001
1000
0100
0010
0001
,
0010
0001
0010
0100
1000
0010
1000
0010
,
1000
0100
0010
0001
0010
0001
0010
0100
,
1000
0001
1000
0001
0010
0100
0010
0100
,
0010
0001
1000
0100
1000
0100
1000
0010
,
0100
0010
0100
0010
1000
0100
1000
0100
,
1000
0010
0100
0010
0100
0010
1000
0100
,
1000
0001
1000
0001
0100
0001
0100
0010
,
0100
0010
1000
0001
1000
0100
1000
0100
,
0010
0100
0010
0001
0010
0001
1000
0001
,
1000
0100
0010
0100
0010
0100
1000
0001
,
0100
0000
0001
0010
0001
0000
0100
1000
,
0020
0100
0100
0100
,
0031
0000
0001
0100
0000
1000
0010
0000
,
0100
1000
0001
0100
,
0001
0000
0001
1000
0000
1000
0200
0000
,
1000
0001
1000
0310
,
0010
0000
0001
0100
0001
0000
0010
0000
,
0200
0000
0000
0000
1300
0000
0001
1000
,
0020
0001
0001
0001
,
0230
1000
1000
0310
,
2000
0000
0010
0000
0001
0000
3001
0100
,
0020
0000
0100
0000
0100
0000
0130
0010
,
0002
0000
1000
0000
1000
0000
0103
0010
,
0002
0000
0100
0000
0100
0000
0103
0010
,
0001
0000
0001
0100
0010
0000
0001
1000
,
0010
0000
0100
0010
1000
0000
0001
1000
,
0020
0000
0000
0000
,
0000
0000
0000
0000
,
0030
0000
0000
0000
;
