#VERSION:0.83;
#TITLE:Shooting Star;
#ARTIST:小坂りゆ;
#ARTISTTRANSLIT:RIYU KOSAKA;
#GENRE:J-POP;
#MUSIC:Shooting Star.ogg;
#BANNER:Shooting Star-bn.png;
#BACKGROUND:Shooting Star-BG.png;
#CDTITLE:./CDTITLES/DANCE DANCE REVOLUTION EXTREME 3.PNG;
#SAMPLESTART:68.702;
#SAMPLELENGTH:15;
#OFFSET:-0.094;
#BPMS:0.000=140.015;

//--------------- dance-single - B. M'Rey ----------------
#NOTEDATA:;
#STEPSTYPE:dance-single;
#DESCRIPTION:B. M'Rey;
#DIFFICULTY:Beginner;
#METER:2;
#RADARVALUES:0,0,0,0,0;
#NOTES:
0000
0000
0000
0000
,
0000
0000
0000
0000
,
0000
0000
0000
0000
,
0000
0000
0000
0000
,
1000
0000
0000
0000
,
0010
0000
0000
0000
,
0100
0000
0000
0000
,
0001
0000
0000
0000
,
1000
0000
1000
0000
,
1000
0000
1000
0000
,
0001
0000
0001
0000
,
0001
0000
0001
0000
,
0100
0000
0100
0000
,
0100
0000
0100
0000
,
0010
0000
0010
0000
,
0010
0000
0010
0000
,
1000
0000
0000
0000
,
0010
0000
0000
0000
,
0100
0000
0000
0000
,
0001
0000
0000
0000
,
0010
0000
0100
0000
,
1000
0000
0100
0000
,
1000
0000
0001
0000
,
0010
0000
0000
0000
,
0100
0000
1000
0000
,
0010
0000
0100
0000
,
0001
0000
0010
0000
,
0001
0000
0100
0000
,
0010
0000
1000
0000
,
0100
0000
1000
0000
,
0010
0000
0100
0000
,
0001
0000
0000
0000
,
1000
0000
0010
0000
,
0100
0000
0010
0000
,
0001
0000
1000
0000
,
0100
0000
1000
0000
,
0001
0000
0010
0000
,
0100
0000
0010
0000
,
1000
0000
0010
0000
,
0100
0000
0000
0000
,
0001
0000
1000
0000
,
0001
1000
0000
0000
,
0010
0000
0100
0000
,
1000
0100
0000
0000
,
0010
0000
0100
0000
,
0001
0010
0000
0000
,
1000
0000
0010
0000
,
0100
0010
0000
0000
,
1000
0000
0001
0000
,
0010
0000
0001
0000
,
0100
0000
0010
0000
,
0000
0000
0000
0000
,
1000
0000
0000
0000
,
0001
0000
0000
0000
,
0100
0000
0000
0000
,
0000
0000
0000
0000
,
0010
0000
0001
0000
,
0010
0000
0100
0000
,
1000
0000
0000
0000
;

//--------------- dance-single - DWI Extreme ----------------
#NOTEDATA:;
#STEPSTYPE:dance-single;
#DESCRIPTION:DWI Extreme;
#DIFFICULTY:Easy;
#METER:4;
#RADARVALUES:0.152,0.22,0.009,0.066,0;
#NOTES:
0000
0000
0000
0000
,
0000
0000
0000
0000
,
0000
0000
0000
0000
,
0000
0000
0000
0000
,
1000
0000
0000
0000
,
0001
0000
0000
0000
,
1000
0000
0010
0000
,
0100
0100
0100
0100
,
0010
0000
1000
0000
,
0001
0000
0010
0000
,
1000
0000
0100
0000
,
0010
0000
0100
0010
,
1000
0000
0001
0000
,
0010
0000
0100
0000
,
0010
0000
0001
0000
,
1000
0000
0100
0010
,
0001
0000
0000
0000
,
1000
0000
0000
0000
,
0010
0000
0010
0000
,
0020
0000
0030
0000
,
1000
1000
0010
0100
,
0001
0001
0010
0100
,
1000
0000
1000
0000
,
1000
0000
0010
0010
,
0100
0000
0000
0000
,
0001
0000
0001
0000
,
1000
0000
1000
0000
,
0010
0000
0100
0000
,
0001
0000
0000
0001
,
1000
0000
0000
1000
,
0010
0000
0000
0010
,
0100
0000
0100
0100
,
0010
1000
0001
0000
,
1000
0001
0100
0000
,
0010
0000
0010
0000
,
0010
0000
0100
0000
,
1000
1000
1000
0000
,
0001
0001
0001
0000
,
1000
0000
0010
0000
,
0220
0000
0330
0000
,
1000
0000
0000
0000
,
0010
0000
0000
0000
,
0100
0000
0100
0000
,
0001
0000
0001
0000
,
0010
0000
0000
0000
,
1000
0000
0000
0000
,
1000
0000
1000
0000
,
0010
0000
0100
0000
,
0010
0100
0010
0000
,
1000
0001
1000
0000
,
0010
0000
0100
0000
,
1000
0000
0001
0000
,
0020
0000
0000
0030
,
0200
0000
0000
0300
,
2000
0000
0000
0000
,
0002
0000
0000
0000
,
3003
0000
0000
0000
;

//--------------- dance-single - DWI Extreme ----------------
#NOTEDATA:;
#STEPSTYPE:dance-single;
#DESCRIPTION:DWI Extreme;
#DIFFICULTY:Medium;
#METER:7;
#RADARVALUES:0.302,0.318,0.113,0.103,0.005;
#NOTES:
0000
0000
0000
0000
,
0000
0000
0000
0000
,
0000
0000
0000
0000
,
0000
0000
0000
0000
,
0020
0000
0000
0000
0030
0000
0000
1000
,
0002
0000
0000
0000
0103
0000
0000
0010
,
1000
1000
0001
0001
,
2002
0000
0000
3003
,
0010
0000
1000
0001
0100
0000
0010
1000
,
0100
0000
0010
0001
0100
0000
0001
1000
,
0010
0000
1000
0100
0001
0000
0100
1000
,
0010
0000
0100
0001
1000
0000
0100
0100
,
0010
0000
0001
0100
0001
0000
1000
0100
,
1000
0000
0010
1000
0100
0000
0001
0100
,
1000
0000
0010
1000
0010
0000
0100
0001
,
0100
0000
0010
1000
0100
0000
0010
0001
,
0002
0000
0000
0003
,
2000
0000
0000
3000
,
0020
0030
0200
0300
,
0002
0003
0200
0300
,
0010
1000
1000
0100
,
0010
0001
1000
0100
,
0010
0010
0001
1000
,
0100
1000
0010
0010
,
1100
0010
0100
0010
,
1000
0100
0010
0001
,
1000
1000
0010
0010
,
0100
1000
0100
0001
,
0010
0000
0100
0000
1000
0000
0010
0100
,
0001
1000
1000
0100
,
0001
0001
0010
1000
,
1000
0000
0010
0010
,
1100
0000
0101
0000
1100
0000
0010
1000
,
0100
0010
1000
0100
,
0001
0001
1000
1000
,
0010
0010
0010
0100
,
1000
0000
0100
0000
0010
0000
0100
1000
,
0010
0000
0100
0000
0010
0000
0001
1000
,
0100
0010
0001
0001
,
1000
0000
0000
0010
0000
0000
1000
0000
0010
0000
0000
0000
1001
0000
0000
0000
,
1000
0000
1000
0000
,
0010
0010
1000
0100
,
0001
0000
1000
0000
,
0010
0100
0010
0100
,
0010
0000
0001
0000
,
0100
1000
0010
0001
,
0010
1000
0100
0000
0010
0001
0100
0000
,
1000
1100
0010
0110
,
0001
0011
0010
0100
,
1000
1100
0010
0100
,
0010
1000
0010
0100
,
1000
0110
1000
0001
,
0010
0000
0010
0000
,
0001
0000
1000
0000
,
0020
0000
0000
0030
,
1000
1000
0010
0100
,
0110
0000
0000
0000
;

//--------------- dance-single - DWI Extreme ----------------
#NOTEDATA:;
#STEPSTYPE:dance-single;
#DESCRIPTION:DWI Extreme;
#DIFFICULTY:Hard;
#METER:11;
#RADARVALUES:0.507,0.489,0.216,0.085,0.249;
#NOTES:
0000
0000
0000
0000
,
0000
0000
0000
0000
,
0000
0000
0000
0000
,
0000
0000
0000
0000
,
1000
0000
1000
0000
1000
0000
0001
0010
0000
0000
0000
0000
0110
0000
0000
0000
,
0100
0000
0100
0000
0100
0000
1000
0010
0000
0000
0000
0000
0101
0000
0000
0000
,
0010
0000
0010
0000
0010
0000
0100
0001
0000
0000
0100
0000
1000
0000
0100
0000
,
0001
0010
0100
1000
0010
0100
0010
1000
,
0100
0000
0010
0000
0001
0000
0001
1000
0000
0000
0010
0000
0100
0000
0100
0001
,
0000
0000
0010
0000
0100
0000
0100
1000
0000
0000
0001
0000
1000
0000
1000
0100
,
0000
0000
0010
0000
0001
0000
0001
0100
0000
0000
0010
0000
1000
0000
1000
0001
,
0000
0000
0010
0000
0100
0000
0100
1000
0000
0000
0010
0000
0100
0000
0010
0000
,
1000
0000
0100
0000
1000
0000
0010
0200
0000
0000
0310
0000
1000
0000
0100
0020
,
0000
0000
0031
0000
0100
0000
1000
0200
0000
0000
0301
0000
1000
0000
0001
0200
,
0000
0000
0310
0000
1000
0000
0001
0200
0000
0000
0310
0000
0001
0000
0010
2000
,
0000
0000
3100
0000
0010
0000
0001
0020
0000
0000
0130
0000
1000
0000
0010
0000
,
0100
0000
0000
0010
0000
0000
0010
0000
0000
0000
1000
0000
0100
0000
0010
0000
,
0001
0000
0000
0001
0000
0000
1000
0000
0010
0000
0000
0000
0100
0000
0000
0000
,
0010
0000
0000
1000
0000
0000
0100
0000
0010
0000
0000
1000
0000
0000
0010
0000
,
0001
0000
0000
0100
0000
0000
0010
0000
0100
0000
0000
0000
0110
0000
0000
0000
,
0001
1000
0001
0000
0010
0100
0010
0000
,
0001
0000
1000
0000
0010
0000
0001
0000
0010
0000
1000
0000
0100
0000
0010
0001
,
0010
0000
0000
0010
0000
0000
0100
0000
1000
0000
0000
1000
0000
0000
0010
0000
,
0100
0101
1100
1010
,
0010
0000
0100
0010
0000
0000
1000
0000
0100
0000
0010
0000
0100
0000
1000
0000
,
0010
0000
0000
0100
0000
0000
0010
0000
1000
0000
0000
0000
0001
0000
0000
0000
,
0010
0100
1000
0000
0010
0100
0001
0100
,
0010
0000
0000
1000
0000
0000
0100
0000
0010
0000
0000
0000
0001
0000
1000
0100
,
1000
0010
0100
0001
0100
0010
1000
0100
,
1000
0001
0010
0001
1000
0000
1001
0000
,
0010
0000
0000
1000
0000
0000
0010
0000
0100
0000
0000
0001
0000
0000
0100
0000
,
0010
0101
1100
0010
,
0101
0000
1010
0000
0011
0000
1000
0100
,
0010
0000
0000
0001
0000
0000
0010
0000
0000
0000
0100
0000
1000
0000
0010
0000
,
0100
0000
0100
0001
0000
0000
0010
0000
0100
0000
0100
1000
0000
0000
0010
0000
,
0100
0000
0000
0100
0000
0000
0010
0000
0001
0000
0010
0000
1000
0000
0100
0000
,
1000
0000
0000
0100
0000
0000
0001
0000
0000
0000
0100
0000
1000
0000
0001
0000
,
1000
0000
0000
0100
0000
0000
0001
0000
0000
0000
0000
0000
0100
0000
1000
0010
,
1000
0100
0010
0100
1000
0010
0100
0001
,
0010
0000
0000
1000
0000
0000
0010
0000
0110
0000
0000
0000
1001
0000
0000
0000
,
1000
0010
1000
0010
0100
0010
0100
0010
,
1000
0000
0000
0001
0000
0000
0010
0000
0100
0000
0000
0000
1000
0000
0010
0100
,
0010
1000
0100
0010
0000
0001
1000
0100
,
0010
0001
0010
0001
1000
0100
1000
0100
,
0010
0000
0000
0001
0000
0000
0100
0000
0010
0000
1000
0100
0000
0000
0010
0000
,
0001
0000
0100
0000
0010
0000
1000
0000
0100
0000
0000
0000
0010
0000
0001
1000
,
0001
0000
0010
0100
0000
0000
1000
0000
0010
0000
0000
0100
0000
0000
0010
0000
,
1000
0100
0010
0000
0001
0010
0100
1000
,
0010
0000
0100
0000
1000
0000
0100
0000
0001
0000
0100
0000
0000
0000
0010
1000
,
0010
0000
0000
0001
0000
0000
0010
0000
1000
0000
0000
0100
0000
0000
0010
0000
,
1000
0000
0000
0010
0000
0000
0001
0000
0100
0000
0000
0000
0110
0000
0000
0000
,
1100
0101
1100
0101
,
0001
0100
1000
0100
0001
0000
1001
0000
,
0010
0000
0000
0010
0000
0000
1000
0000
0100
0000
0000
0100
0000
0000
0001
0000
,
0100
0000
0000
2000
0000
0000
0002
0000
0000
0000
0000
0000
3003
0000
0000
0000
,
0110
0000
1100
0000
1000
0001
0100
0010
,
1001
0000
0000
0000
;
