#TITLE:Sazaragi ~サザラギの者達~;
#ARTIST:Zektbach;
#TITLETRANSLIT:Sazaragi ~Sazaragi no monotachi~;
#GENRE:ASTRAL CHOIR;
#MUSIC:Sazaragi ~Sazaragi no monotachi~.ogg;
#BANNER:Sazaragi ~Sazaragi no monotachi~-bn.png;
#BACKGROUND:Sazaragi ~Sazaragi no monotachi~-BG.png;
#CDTITLE:./CDTITLES/DANCE DANCE REVOLUTION EXTREME 3.PNG;
#SAMPLESTART:58.417;
#SAMPLELENGTH:12;
#OFFSET:-0.028;
#BPMS:0=149;

//--------------- dance-single - B. M'Rey ----------------
#NOTES:
     dance-single:
     B. M'Rey:
     Beginner:
     2:
     0,0,0,0,0:
0000
0000
0000
0000
,
0000
0000
0000
0000
,
0000
0000
0000
0000
,
0000
0000
0000
0000
,
0000
1000
0000
0000
,
0001
0000
0000
0000
,
0000
0100
0000
0000
,
0010
0000
0000
0000
,
0000
0001
0000
0000
,
1000
0000
0000
0000
,
0000
0010
0000
0000
,
0100
0000
0000
0000
,
0000
0001
0000
0000
,
1000
0000
0000
0000
,
0000
0100
0000
0000
,
0010
0000
0000
0000
,
0000
0001
0000
0000
,
1000
0000
0000
0000
,
0000
0010
0000
0000
,
0100
0000
0000
0000
,
0000
0001
0000
0001
,
0000
1000
0000
1000
,
0000
0010
0000
0010
,
0000
0100
0000
0100
,
0000
0010
0000
0010
,
0000
1000
0000
1000
,
0000
0001
0000
0001
,
0000
0100
0000
0000
,
0000
0010
0000
0010
,
0000
0001
0000
0001
,
0000
1000
0000
1000
,
0000
0010
0000
0010
,
0000
0100
0000
0100
,
0000
0010
0000
0010
,
0000
0001
0000
0001
,
0000
1000
0000
0000
,
0000
0010
0000
0001
,
0000
0100
0000
0010
,
0000
1000
0000
0100
,
0010
0001
0000
0001
,
0010
1000
0000
0010
,
0000
0100
0000
0010
,
0000
1000
0000
0001
,
0010
0100
0000
1000
,
0000
0010
0000
0100
,
0001
0010
0000
1000
,
0000
0100
0000
0010
,
0000
0001
0000
1000
,
0000
0010
0000
0100
,
0001
1000
0000
0010
,
0100
1000
0000
0001
,
0000
0100
0000
0000
,
0000
0000
0010
0000
0000
0001
0000
0000
,
1000
0000
0000
0010
0000
0000
0100
0000
,
0000
0000
0000
0000
0001
0000
0000
1000
,
0000
0000
0010
0000
0000
0100
0000
0000
,
0000
0000
0000
0000
0001
0000
0000
1000
,
0000
0000
0010
0000
0000
0100
0000
0000
,
0000
0000
0000
0001
0000
0000
1000
0000
,
0000
0010
0000
0000
0100
0000
0000
0000
,
0000
0100
0000
1000
,
0000
0010
0000
0100
,
0000
0001
0000
0010
,
0100
1000
0000
1000
,
0100
0001
0000
0100
,
0000
0010
0000
0100
,
0000
0001
0000
1000
,
0100
0010
0000
0001
,
0000
0100
0000
0010
,
1000
0100
0000
0001
,
0000
0010
0000
0100
,
0000
1000
0000
0001
,
0000
0100
0000
0010
,
1000
0001
0000
0100
,
0010
0001
0000
1000
,
0000
0010
0000
0000
,
0000
0100
0000
0000
,
0000
0001
0000
0000
,
0000
1000
0000
0000
,
0000
0010
0000
0000
,
0000
0100
0000
0000
,
0000
0001
0000
0000
,
0000
0010
0000
0000
,
0000
1000
0000
0000
,
0000
0100
0000
0000
,
0000
0010
0000
0000
,
0000
1000
0000
0000
,
0000
0001
0000
0000
,
0000
0010
0000
0000
,
0000
0100
0000
0000
,
0000
0001
0000
0000
,
0000
1000
0000
0000
,
0000
0000
0100
0000
0000
0100
0000
0000
,
0100
0000
0000
0100
0000
0000
0000
0000
,
0000
0000
0010
0000
0000
0010
0000
0000
,
0010
0000
0000
0010
0000
0000
0000
0000
,
0000
0000
0001
0000
0000
0001
0000
0000
,
0001
0000
0000
0001
0000
0000
0000
0000
,
0000
0000
1000
0000
0000
1000
0000
0000
,
1000
0000
0000
1000
0000
0000
0000
0000
,
0000
0100
0000
0000
,
0000
0000
0000
0000
,
0000
0010
0000
0000
,
0000
0000
0000
0000
,
0000
0001
0000
0000
,
0000
0000
0000
0000
,
0000
1000
0000
0000
;

//--------------- dance-single - B. M'Rey ----------------
#NOTES:
     dance-single:
     B. M'Rey:
     Easy:
     3:
     0,0,0,0,0:
0000
0000
0000
0000
,
0000
0000
0000
0000
,
0000
0000
0000
0000
,
0000
0000
0000
0000
,
0000
1000
0000
0000
,
0100
0000
0000
0000
,
0000
0010
0000
0000
,
0001
0000
0000
0000
,
0000
1000
0000
0000
,
0100
0000
0000
0000
,
0000
0010
0000
0000
,
0100
0000
0000
0000
,
0000
0001
0000
0001
,
0100
0010
0000
0010
,
0100
1000
0000
0001
,
0100
0001
0000
0000
,
0001
0010
0000
0010
,
0001
0000
0100
0001
,
1000
0010
0000
1000
,
0001
0000
1000
0001
,
0100
0001
1000
0100
,
1000
0100
1000
0001
,
0100
0001
0100
0010
,
0100
0010
1000
0100
,
1000
0100
1000
0010
,
0100
0001
0010
0001
,
0010
0001
0100
0010
,
0100
0001
0010
0001
,
0100
1001
1000
0010
,
0100
0010
0100
0010
,
1000
0001
0010
0001
,
0010
0001
1000
0100
,
1000
0100
1000
0010
,
0100
0010
0100
0010
,
1000
0100
0010
0100
,
0010
0100
0000
0010
,
0000
0100
0000
0001
,
0000
0010
0000
0100
,
0010
0100
0000
0100
,
1000
0001
0000
0010
,
1000
0010
0000
0001
,
0000
0100
0000
0010
,
0100
0001
0000
0001
,
0100
0001
0000
0100
,
0010
0001
0000
0100
,
0000
0001
0000
0100
,
1000
0010
0000
0001
,
0000
0100
0000
1000
,
0010
0100
0000
0010
,
0000
0001
0000
1000
,
0000
0100
0000
0001
,
0100
0020
0000
0000
,
0000
0000
1030
0000
0000
0010
0000
0000
,
0100
0000
0000
0001
0000
0000
0010
0000
,
0000
0000
1000
0000
0000
0010
0000
0000
,
0100
0000
0000
0001
0000
0000
0010
0000
,
0000
0000
1000
0000
0000
0010
0000
0000
,
0100
0000
0000
0010
0000
0000
1000
0000
,
0000
0000
0001
0000
0000
0010
0000
0000
,
0001
0000
0000
0100
0000
0000
0010
0000
,
0000
0100
0000
0001
,
0000
0010
0000
0100
,
0010
0100
0000
0100
,
1000
0001
0000
0010
,
1000
0010
0000
0001
,
0000
0100
0000
0010
,
0100
0001
0000
0001
,
0100
0001
0000
0100
,
0010
0001
0000
0100
,
0000
0001
0000
0100
,
1000
0010
0000
0001
,
0000
0100
0000
1000
,
0010
0100
0000
0010
,
0000
0001
0000
1000
,
0000
0100
0000
0001
,
0100
0020
0000
0000
,
0000
0031
0100
0001
,
0000
0001
1000
0010
,
0000
0001
0100
0010
,
0000
0010
0100
0001
,
0000
0001
1000
0001
,
0000
0010
1000
0100
,
0000
0001
0010
0001
,
0000
0100
1000
0100
,
0000
0100
0010
0001
,
0000
0001
0010
0100
,
0000
0100
1000
0100
,
0000
0001
0010
0001
,
0000
0100
1000
0100
,
0000
0001
0100
0001
,
0000
0001
1000
0100
,
0000
0001
0100
0010
,
0100
0000
0001
0000
0000
1000
0000
0000
,
0010
0000
0000
0100
0000
0000
0010
0000
,
0010
0000
0001
0000
0000
1000
0000
0000
,
0010
0000
0000
0100
0000
0000
0010
0000
,
0010
0000
1000
0000
0000
0001
0000
0000
,
0010
0000
0000
0100
0000
0000
0010
0000
,
0010
0000
1000
0000
0000
0010
0000
0000
,
0100
0000
0000
0001
0000
0000
0010
0000
,
0010
0000
2000
0000
0000
3000
0000
0000
,
0200
0000
0000
0300
0000
0000
0000
0000
,
0000
0000
0020
0000
0000
0030
0000
0000
,
0002
0000
0000
0003
0000
0000
0000
0000
,
0000
0000
0020
0000
0000
0030
0000
0000
,
0002
0000
0000
0003
0000
0000
0000
0000
,
0000
0000
2000
0000
0000
3000
0000
0000
,
0200
0000
0000
0300
0000
0000
0000
0000
;

//--------------- dance-single - B. M'Rey ----------------
#NOTES:
     dance-single:
     B. M'Rey:
     Medium:
     7:
     0,0,0,0,0:
0000
0000
0000
0000
,
0000
0000
0000
0000
,
0000
0000
0000
0000
,
0000
0000
0000
0000
,
0000
1000
0001
0000
0000
0010
0000
0000
,
0100
0000
0000
0010
0000
0000
1000
0000
,
0100
0000
1000
0000
0000
0010
0000
0000
,
0100
0000
0000
0001
0000
0000
0010
0000
,
0001
0000
0100
0000
0000
0010
0000
0000
,
1000
0000
0000
0010
0000
0000
0100
0000
,
0001
0000
0010
0000
0000
0100
0000
0000
,
0001
0000
0000
1000
0000
0000
0010
0000
,
0100
0000
0001
0010
0000
0010
0100
0000
,
0001
0100
0000
0100
0010
0000
0001
0000
,
1000
0000
0001
0100
0000
0100
0010
0000
,
0001
1000
0000
1000
0001
0000
0100
0000
,
0010
0000
0001
0100
0000
0100
0010
0000
,
0001
1000
0000
1000
0001
0000
0010
0000
,
0100
0000
0010
1000
0000
1000
0100
0000
,
0100
0010
0000
0010
0001
0000
0001
0000
,
0010
0000
1000
0001
1000
0000
1000
0010
,
0100
0000
0100
0001
0100
0000
1000
0001
,
1000
0000
1000
0010
0100
0000
0100
0001
,
0100
0000
1000
0010
1000
0000
1000
0000
,
0010
0000
0010
0100
1000
0000
1000
0100
,
0010
0000
1000
0100
0010
0000
0010
0100
,
0010
0000
1000
0100
1000
0000
1000
0010
,
0100
0000
0100
0000
1000
0000
1000
0100
,
1000
0000
0100
0001
0100
0001
1000
0010
,
1000
0010
1000
0001
0100
0001
0100
0001
,
1000
0010
1000
0010
1000
0100
0010
0100
,
0010
0100
1000
0010
1000
0010
1000
0001
,
0100
0001
0100
0001
1000
0100
1000
0100
,
1000
0001
0100
0001
0100
0001
0010
0100
,
0010
0100
0010
0001
0100
0001
0010
0001
,
1000
0100
1000
0000
1000
0000
0100
0000
,
0100
0000
1001
0000
0001
0100
0001
0000
,
0100
1000
0100
0000
0100
0010
0001
0000
,
0010
0000
0001
0000
0010
0100
0010
0000
,
0010
0000
0001
0000
0001
0100
0010
0000
,
0010
0000
0010
0000
0001
0010
0100
0000
,
0100
0010
0001
0000
0001
0100
0001
0000
,
0100
0000
0100
0000
0001
1000
0001
0000
,
0001
0000
0010
0000
0010
0100
0001
0000
,
0001
1000
0200
0000
0301
0100
0002
0000
,
1003
0000
0010
0000
0100
0000
0001
0010
,
0001
0010
0002
0000
0013
0000
0001
0000
,
0100
0010
0200
0000
0301
1000
0020
0000
,
1030
0000
0002
0000
0103
0001
0100
0000
,
0010
1000
0100
0000
0010
0100
0001
0000
,
0010
0200
0000
0310
,
0010
0100
0020
0000
0000
0000
0000
0000
,
0000
0000
0031
0000
0000
1000
0000
0000
,
0010
0000
0000
0100
0000
0000
0001
0000
,
0010
0000
1000
0000
0000
0010
0000
0000
,
0100
0000
0000
0001
0000
0000
0010
0000
,
0100
0000
1000
0000
0000
0010
0000
0000
,
0100
0000
0000
0010
0000
0000
0001
0000
,
1000
0000
0010
0000
0000
0100
0000
0000
,
0010
0000
0000
1000
0000
0000
0001
0000
,
1000
0000
1001
0000
1000
0010
1000
0000
,
0010
0001
0010
0000
0010
0100
1000
0000
,
0100
0000
1000
0000
0100
0010
0100
0000
,
0100
0000
1000
0000
1000
0010
0100
0000
,
0100
0000
0100
0000
1000
0100
0010
0000
,
0010
0100
1000
0000
1000
0010
1000
0000
,
0010
0000
0010
0000
1000
0001
1000
0000
,
1000
0000
0100
0000
0100
0010
1000
0000
,
1000
0001
0020
0000
1030
0010
2000
0000
,
3001
0000
0100
0000
0010
0000
1000
0100
,
1000
0100
2000
0000
3100
0000
1000
0000
,
0010
0100
0020
0000
1030
0001
0200
0000
,
0301
0000
2000
0000
3010
1000
0010
0000
,
0100
0001
0010
0000
0100
0010
1000
0000
,
0100
0020
0000
0130
,
0100
0010
0200
0000
0000
0000
0000
0000
,
0000
0000
0301
0000
1000
0000
0010
0100
,
0010
0000
0001
0000
0010
0000
1000
0100
,
1000
0000
0010
0000
0100
0000
0001
0010
,
0001
0000
1000
0000
0010
0000
0100
0010
,
0100
0000
0001
0000
0010
0000
1000
0100
,
1000
0000
0010
0000
0100
0000
0010
0001
,
0010
0000
0100
0000
0010
0000
1000
0100
,
1000
0000
0010
0000
0100
0000
0001
0010
,
0001
0000
1001
0000
0010
0100
0010
0000
,
0001
0010
0001
0000
1000
0100
1000
0000
,
0010
0100
0010
0000
0001
0010
0001
0000
,
1000
0100
1000
0000
0010
0100
0010
0000
,
0001
0010
0001
0000
1000
0100
1000
0000
,
0010
0100
0010
0000
0001
0010
0001
0000
,
1000
0001
1000
0000
0010
0100
0010
0000
,
0001
0010
0001
0000
1000
0100
1000
0000
,
0010
0100
0001
0000
0000
1000
0000
0000
,
0010
0000
0000
0100
0000
0000
0001
0000
,
1000
0000
0010
0000
0000
0100
0000
0000
,
0010
0000
0000
1000
0000
0000
0001
0000
,
0010
0000
0100
0000
0000
0010
0000
0000
,
1000
0000
0000
0100
0000
0000
0001
0000
,
0010
0000
0001
0000
0000
0100
0000
0000
,
0010
0000
0000
1000
0000
0000
0010
0000
,
0100
1002
0000
0000
,
2003
0000
0000
3020
,
0230
0320
0000
0000
,
2030
0000
0000
3000
0000
0000
0000
0000
,
0000
0012
0000
0000
,
0023
0000
0000
0230
,
0320
2030
0000
0000
,
3002
0000
0003
0000
;

//--------------- dance-single - B. M'Rey ----------------
#NOTES:
     dance-single:
     B. M'Rey:
     Hard:
     9:
     0,0,0,0,0:
0000
0000
0000
0000
,
0000
0000
0000
0000
,
0000
0000
0000
0000
,
0000
0000
0000
0000
,
0000
0001
1000
0000
0000
0010
0000
0000
,
0100
0000
0000
0001
0000
0000
0000
0000
,
0000
0000
0010
0000
0000
1000
0000
0000
,
0010
0000
0000
0100
0000
0000
0000
0000
,
0000
0001
1000
0000
0000
0010
0000
0000
,
0100
0000
0000
0001
0000
0000
0000
0000
,
0000
0000
0010
0000
0000
1000
0000
0000
,
0100
0000
0000
1000
0000
0000
0000
0000
,
0000
0000
0001
1000
0000
0010
0001
0000
,
0100
0000
0010
0001
0000
1000
0010
0000
,
0100
0000
1000
0100
0000
0010
0001
0000
,
0100
0010
0000
0001
1000
0000
0100
0000
,
0001
0000
0010
1000
0000
0100
0010
0000
,
0001
0010
0000
1000
0100
0000
0001
0000
,
1000
0000
0010
0001
0000
0100
1000
0000
,
0001
0100
0000
0010
1000
0000
0001
0000
,
0100
0000
0000
0000
1000
0000
0010
1000
0100
0000
0010
1000
0010
0000
0010
1000
,
0001
0000
0010
0100
0001
0000
0010
1000
0001
0000
0001
1000
0010
0000
0010
0100
,
0001
0000
0001
0100
0001
0000
0010
1000
0100
0000
0100
1000
0100
0000
0001
1000
,
0001
0000
0001
0010
0100
0000
0100
1000
0100
0000
0001
0010
0100
0000
0100
0010
,
0001
0000
0100
1000
0001
0000
0100
1000
0010
0000
0010
0100
0001
0000
0010
1000
,
0001
0000
0100
1000
0001
0000
0001
1000
0010
0000
0010
0100
0010
0000
0100
0010
,
0001
0000
0100
0010
0001
0000
0100
0010
0100
0000
0100
1000
0010
0000
0001
0100
,
0001
0000
0001
0100
0010
0000
0001
0100
0010
0000
0100
0000
0010
0000
0001
0000
,
1000
0000
0010
0000
0001
0000
0100
1000
0001
0000
0100
1000
0001
0000
0001
1000
,
0100
0000
0100
1000
0010
0000
0001
0100
0010
0000
0010
1000
0100
0000
0001
1000
,
0001
0000
0010
1000
0001
0000
0010
0100
0001
0000
0001
0010
0100
0000
0010
1000
,
0010
0000
0010
0100
0001
0000
0001
1000
0001
0000
0100
1000
0100
0000
0001
0010
,
0100
0000
0001
0100
0001
0000
0001
1000
0100
0000
0100
0010
0001
0000
0001
0100
,
0010
0000
0001
0100
0010
0000
0100
1000
0100
0000
0010
0100
0001
0000
0010
0100
,
0010
0000
0001
0010
0001
0000
0001
1000
0100
0000
0100
0010
0100
0000
0001
0010
,
0100
0001
0010
0100
1000
0100
1000
0100
,
0010
0000
0001
0000
1100
0000
0000
0000
0010
0000
0100
0010
0100
0000
1000
0000
,
0100
0000
0001
0010
0001
0000
0010
0000
0001
0000
0100
1000
0100
0000
0010
0001
,
0010
0000
0100
0000
1000
0000
0100
0000
0001
0000
0010
0100
0020
0000
0000
0000
,
2030
0000
0000
0000
3100
0000
0001
0000
1000
0000
0010
0100
0010
0000
0001
0010
,
0001
0000
0100
0000
0010
0000
1000
0000
0100
0000
0001
0010
0001
0000
0010
0000
,
0001
0000
0100
1000
0100
0000
0001
0000
1000
0000
0010
0100
0010
0000
0001
0010
,
0001
0000
1000
0000
0010
0000
0100
0000
0001
0000
0010
0100
0020
0000
0000
0000
,
2030
0000
0000
0000
3100
0000
0010
0000
1000
0000
0001
0010
0001
0000
0010
0100
,
0010
0000
2000
0000
3100
0001
0020
0000
,
0130
0000
1000
0000
0010
1000
0001
0100
,
0001
1000
0200
0000
0010
0000
0301
0010
,
0001
1000
0020
0000
1030
0100
0002
0000
,
0100
0000
2003
0000
3001
0100
0020
0000
,
0031
0010
2000
0000
3001
0010
0200
0000
,
0301
0000
2000
0000
0100
0000
3001
0010
,
0001
1000
0100
0000
0010
0000
0001
1000
,
0001
0000
1001
0000
0001
0010
0000
0010
,
0100
0000
0100
1000
0000
0100
0001
0010
,
0001
0000
0100
0010
0001
1000
0000
1000
,
0001
0000
0100
0010
0000
0010
0001
0100
,
0001
0100
0001
0000
0100
1000
0000
1000
,
0010
0000
0001
0100
0000
1000
0100
1000
,
0001
1000
0000
0100
0001
0100
0000
0100
,
0010
0000
0010
1000
0000
1000
0001
0000
,
0010
0000
0100
0000
1001
0000
0000
0000
0001
0000
1000
0010
0100
0000
1000
0000
,
0100
0000
0010
0001
0100
0000
0010
0000
0001
0000
1000
0010
0001
0000
0010
0000
,
0100
0000
0010
0000
0001
0000
0100
0000
0001
0000
0100
0001
0010
0000
1000
0000
,
0100
0000
1000
0000
0001
0000
0010
0000
0001
0000
0010
0100
0001
0000
1000
0100
,
0010
0000
1000
0000
0010
0000
1000
0000
0100
0000
0010
0100
0001
0000
1000
0000
,
0001
0000
0010
1000
0001
0000
0100
0000
0010
0000
0100
0001
0010
0000
1000
0010
,
0100
0000
1000
0000
0100
0000
1000
0000
0010
0000
0100
0010
0001
0000
0100
0000
,
0001
0000
0010
0000
0001
0000
0010
0000
0100
0000
0010
1000
0100
0000
1000
0100
,
0001
0010
0001
0010
0001
1000
0100
1000
,
0100
1000
0010
0100
0010
0100
0010
1000
,
0100
1000
0100
0010
0100
0010
0001
1000
,
0001
0100
0010
0100
0010
0100
0001
1000
,
0001
1000
0100
1000
0100
0010
0001
0100
,
0001
0100
0001
1000
0010
0100
0010
0100
,
0010
1000
0100
1000
0010
1000
0010
0100
,
0010
0100
0001
0100
0010
1000
0100
1000
,
0010
0000
0001
1000
0001
0100
0001
0100
,
0010
0100
0010
1000
0010
1000
0001
0010
,
0001
0010
0001
0100
0010
1000
0010
0100
,
0010
0100
0001
0100
0001
0010
0001
1000
,
0100
0010
0100
1000
0100
1000
0001
1000
,
0010
0100
0010
0100
0010
1000
0100
1000
,
0001
1000
0001
0100
0001
0010
0100
0010
,
0100
0010
0001
1000
0001
0010
0100
0010
,
0100
0000
0000
0000
1010
0000
0000
0000
0010
1000
0000
1000
0001
0000
0100
0001
,
0000
0001
1000
0000
0010
0000
1000
0000
0010
0100
0000
0100
0001
0000
0100
0001
,
0000
0001
0100
0000
0010
0000
1000
0000
0010
1000
0000
1000
0010
0000
0100
0001
,
0000
0001
1000
0000
0100
0000
1000
0000
0010
0100
0000
0100
0001
0000
0100
0010
,
0000
0010
0100
0000
0001
0000
0010
0000
0001
1000
0000
1000
0001
0000
0100
0010
,
0000
0010
1000
0000
0001
0000
1000
0000
0001
1000
0000
1000
0100
0000
0010
0100
,
0000
0100
0010
0000
0100
0000
1000
0000
0001
1000
0000
1000
0001
0000
0100
0001
,
0000
0001
0100
0000
0010
0000
0100
0000
0010
1000
0000
1000
0010
0000
0100
0001
,
0000
0001
0100
0000
0010
0000
1000
0000
0010
0000
1000
0000
0001
0000
0100
0000
,
0001
0000
0001
0010
0001
0000
0100
0000
,
0001
0000
1000
0010
0001
0100
0010
0100
,
0010
0000
0001
1000
0001
0000
0100
0000
,
0010
0000
0001
0100
0001
0010
0001
0010
,
0100
0000
0100
1000
0100
0000
0010
0000
,
0100
0000
0010
1000
0001
0100
0010
0100
,
0001
0000
0001
0010
0100
0000
0001
0000
,
0100
0000
2001
0000
0000
3020
0000
0000
,
0230
0000
0000
0301
0000
0000
0000
0000
,
0000
0000
0020
0000
0000
0230
0000
0000
,
0302
0000
0000
1003
0000
0000
0000
0000
,
0000
0000
0020
0000
0000
0230
0000
0000
,
0302
0000
0000
0013
0000
0000
0000
0000
,
0000
0000
2000
0000
0000
3020
0000
0000
,
0230
0000
0000
0301
0000
0000
0000
0000
;
