#VERSION:0.83;
#TITLE:SUNRISE;
#ARTIST:SAFRI DUO MEETS AYLA;
#GENRE:TRANCE;
#MUSIC:SUNRISE.ogg;
#BANNER:SUNRISE-bn.png;
#BACKGROUND:SUNRISE-bg.png;
#CDTITLE:./CDTITLES/DANCEMANIA The Best of World Trance -FANTASIA 4-.PNG;
#SAMPLESTART:91.965;
#SAMPLELENGTH:15;
#OFFSET:-0.235;
#BPMS:0=138.014,113=69.007,145=138.014,209=69.007;

//--------------- dance-single - B. M'Rey ----------------
#NOTEDATA:;
#STEPSTYPE:dance-single;
#DESCRIPTION:B. M'Rey;
#DIFFICULTY:Beginner;
#METER:1;
#RADARVALUES:0,0,0,0,0;
#NOTES:
0000
0000
0000
0000
,
0000
0000
0000
0000
,
0000
0000
0000
0000
,
0000
0000
0000
0000
,
0000
1000
0000
0001
,
0000
0010
0000
0000
,
0000
1000
0000
0010
,
0000
0100
0000
0000
,
0000
0001
0000
0010
,
0000
0001
0000
0000
,
0000
1000
0000
0010
,
0000
1000
0000
0000
,
0000
0001
0000
0010
,
0000
0001
0000
1000
,
0000
0100
0000
1000
,
0000
0010
0000
0100
,
0000
0001
0000
0010
,
0000
0001
0000
1000
,
0000
0010
0000
0100
,
0000
1000
0000
0001
,
0000
2002
0000
0000
,
0000
0000
0000
0000
,
0000
0000
0000
0000
,
0000
0000
0000
0000
,
0000
0003
0000
0000
,
0000
0000
0000
0000
,
0000
0000
0000
0000
,
0000
0000
0000
0000
,
0000
3000
1000
0001
,
0010
0000
0000
0000
0100
0000
0000
0000
0000
0000
0000
0000
0001
0000
0000
1000
,
0000
0000
0010
0100
,
0001
1000
0000
0000
,
0000
0000
1000
0000
0000
0010
0000
0000
,
0000
0100
0001
0000
0000
0000
0010
0000
,
0000
0000
0100
0000
0000
0001
0000
0000
,
0000
1000
0000
0000
0000
0000
0010
0000
,
0000
0001
0000
0001
,
0000
0001
0000
1000
,
0000
1000
0000
1000
,
0000
0010
0000
0010
,
0000
0100
0000
0100
,
0000
0001
0000
0001
,
0000
1000
0000
1000
,
0000
0010
0000
0100
,
0000
0001
0000
0001
,
0000
1000
0000
0100
,
0000
1000
0000
0010
,
0000
0100
0000
0001
,
0000
0010
0000
0001
,
0000
0100
0000
0010
,
0000
1000
0000
0100
,
0000
1000
0000
0001
,
0000
0000
2000
0000
,
0000
0000
0000
0000
0000
0000
0000
0000
0000
0000
0000
0000
3010
0000
0000
0001
,
0000
0000
0200
0000
,
0000
0000
0000
0020
0000
0000
0000
0000
0000
0000
0000
0000
0000
0000
0000
0000
,
0000
0330
0000
0000
;

//--------------- dance-single - B. M'Rey ----------------
#NOTEDATA:;
#STEPSTYPE:dance-single;
#DESCRIPTION:B. M'Rey;
#DIFFICULTY:Easy;
#METER:5;
#RADARVALUES:0,0,0,0,0;
#NOTES:
0000
0000
0000
0000
,
0000
0000
0000
0000
,
0000
0000
0000
0000
,
0000
0000
0000
0000
,
0000
1000
0001
1000
,
0010
0000
0000
0000
,
0000
0100
0010
0100
,
0001
1000
0000
0000
,
0010
0100
0010
0100
,
0001
0000
0000
0000
,
0010
1000
0100
1000
,
0010
0000
0100
0000
0000
0001
0000
0000
,
0000
0001
1000
0001
,
1000
0001
0100
0010
,
0100
0010
0100
0001
,
1000
0100
1000
0001
,
1000
0100
0010
0001
,
0010
0001
0010
0100
,
1000
0100
1000
0100
,
0010
0001
1000
0010
,
1000
0001
0000
0000
,
0000
0000
0000
0000
,
0000
1000
0000
0000
,
0000
0000
0000
0000
,
0000
0100
0000
0000
,
0000
0000
0000
0000
,
0000
0000
0000
0000
,
0000
0000
0000
0000
,
0000
0000
0000
0000
0000
0000
0000
0000
0001
0000
0010
0000
0000
1000
0000
0100
,
0000
1000
0000
0010
0000
0100
0000
0000
0000
0000
0000
0000
0001
0000
0000
1000
,
0000
0000
0000
0000
0000
0000
0000
0000
1000
0000
0010
0000
0000
0100
0000
0001
,
0000
0010
0000
2000
0000
0000
0000
0000
0000
0000
0000
0000
0000
3002
0000
0000
,
0000
0000
0000
0000
0103
0000
0000
0010
0000
0000
0100
0000
0000
0000
0000
0000
,
0000
0000
0001
0000
0001
0000
0000
0000
0000
0000
0000
0000
1000
0000
0000
0010
,
0000
0000
0100
0000
0001
0000
0000
0010
0000
0000
0001
0000
0000
0000
0000
0000
,
0000
0000
0100
0000
0010
0000
0000
1000
0000
0000
0100
0000
1000
0000
0000
0000
,
0000
0000
0001
0000
0000
0010
0000
0000
,
0001
1000
0001
0100
,
0010
0100
0000
0010
,
1000
0000
0001
0000
0000
1000
0000
0000
,
0010
0000
0100
0000
0000
0001
0000
0000
,
1000
0001
0010
0100
,
0010
0000
0100
0000
0000
0001
0000
0000
,
0010
0000
0001
0000
0000
1000
0000
0000
,
0010
0100
0000
0010
,
0001
0010
0000
1000
0000
0100
0000
1000
,
0000
0010
0000
0100
0000
0000
0001
0000
,
0010
0000
0001
0000
0000
1000
0000
0000
,
0010
0100
0000
0001
,
0010
1000
0000
0100
0000
1000
0000
0010
,
0000
0001
0000
0000
0000
0000
0001
0000
,
0100
0010
0000
1000
0000
0100
0000
1000
,
0000
0000
0000
0000
0100
0000
0000
0000
0001
0000
0010
0000
0000
1000
0000
0100
,
0000
1000
0000
0010
0000
0100
0000
0000
0000
0000
0000
0000
0001
0000
0000
1000
,
0000
0000
0000
0000
0000
0000
0000
0000
0010
0000
0100
0000
0000
0001
0000
0010
,
0000
1000
0000
0100
0000
0000
0000
0000
0010
0000
0000
0000
0001
0000
0000
0000
,
1000
0000
0010
0000
0000
0100
0000
0000
0000
0000
0000
0000
0000
0000
0000
0000
;

//--------------- dance-single - B. M'Rey ----------------
#NOTEDATA:;
#STEPSTYPE:dance-single;
#DESCRIPTION:B. M'Rey;
#DIFFICULTY:Medium;
#METER:6;
#RADARVALUES:0,0,0,0,0;
#NOTES:
0000
0000
0000
0000
,
0000
0000
0000
0000
,
0000
0000
0000
0000
,
0000
0000
0000
0000
,
0000
1000
0001
0010
,
0001
0100
0010
0000
,
1000
0001
0010
0001
,
0100
0010
1000
0000
,
0001
0101
0010
1000
,
0100
0010
1010
0001
,
0100
0010
0001
0010
,
0101
0000
0010
0000
0000
1010
0000
0000
,
0000
0001
1000
0001
,
1000
0001
1000
0001
,
0010
0100
0010
0000
1000
0000
0100
0000
,
1000
0001
0010
0001
,
0001
0010
0001
0000
0100
0000
0010
0000
,
0100
0010
0100
0010
,
1000
0100
1000
0000
0001
0000
0010
0000
,
0001
0100
0010
1000
,
0100
1000
0200
0000
0000
0000
0000
0000
,
0000
0000
0000
0000
,
0000
0320
0000
0000
,
0000
0032
0000
0000
,
0000
2003
0000
0000
,
0000
0000
0000
0000
,
0000
3020
0000
0000
,
0000
0032
0000
0000
,
0000
0000
0000
1003
0000
0000
0000
0000
0001
0000
0010
1000
0000
0100
0000
1000
,
0000
0100
0000
0010
0000
0100
0000
0000
0000
0000
0000
0000
0001
0000
0000
2000
,
0000
0000
0000
0000
3000
0000
0000
0000
0010
0000
0100
0010
0000
0001
0000
0010
,
0000
1000
0000
0200
0000
0000
0000
0000
0000
0000
0000
0000
0000
0010
0000
0010
,
0000
0010
0000
0000
0301
0000
0000
1000
0000
0000
0010
0000
0000
0000
0000
0000
,
0000
0000
0100
0000
0001
0000
0000
0000
0000
0000
0000
0000
1000
0000
0000
0010
,
0000
0000
0100
0000
0001
0000
0000
0010
0000
0000
0001
0000
0000
0000
0000
0000
,
0000
0000
1000
0000
0010
0000
0000
0100
0000
0000
0001
0000
1000
0000
0000
0000
,
0000
0000
1000
0100
1000
0000
0001
0010
,
0001
0000
0100
0010
0100
0000
1000
0100
,
1000
0000
0001
0010
0001
0000
0010
0100
,
0010
1000
0001
0010
,
0010
0100
0010
0000
0001
0000
1000
0000
,
0010
0100
1000
0000
0100
0000
0010
0000
,
0001
0010
1000
0000
0100
1000
0100
0000
,
0010
0001
0010
0000
1000
0000
0100
0000
,
0010
0001
1000
0000
0100
0010
0100
0000
,
0001
1000
0000
0100
0000
0010
0000
1000
,
0000
0001
0100
0010
0000
0001
1000
0010
,
0000
0100
1000
0000
0001
0000
0010
0000
,
0001
0000
0100
0010
0100
0000
1000
0000
,
0001
1000
0000
0010
0000
0100
0000
0010
,
0000
0001
1000
0000
0010
0100
0010
0000
,
1000
0100
0000
0001
0000
0010
0000
0001
,
0000
0000
1000
0000
0100
0000
0000
0000
0001
0000
1000
0010
0000
0100
0000
0010
,
0000
1000
0000
0001
0000
0010
0000
0000
0000
0000
0000
0000
0100
0000
0000
0001
,
0000
0000
0000
0000
0000
0000
0000
0000
1000
0000
0010
0100
0000
1000
0000
0001
,
0000
0010
0000
0200
0000
0000
0000
0000
0000
0000
0000
0000
0000
0000
0000
0000
,
0000
0310
0000
0000
;

//--------------- dance-single - B. M'Rey ----------------
#NOTEDATA:;
#STEPSTYPE:dance-single;
#DESCRIPTION:B. M'Rey;
#DIFFICULTY:Hard;
#METER:9;
#RADARVALUES:0,0,0,0,0;
#NOTES:
0000
0000
0000
0000
,
0000
0000
0000
0000
,
0000
0000
0000
0000
,
0000
0000
0000
0000
,
0000
0000
0001
0000
1000
0000
0001
1000
,
0001
1000
0010
0000
0100
0000
0000
0000
,
0010
0000
0001
0000
0100
0000
0010
0100
,
0010
0100
1000
0000
0100
0000
0010
0000
,
0001
0000
0001
0010
0001
0000
1000
0100
,
1000
0100
0010
1000
,
0100
0000
0001
0010
0001
0000
1000
0100
,
1000
0000
0010
0000
0000
0200
0000
0000
,
0000
0000
0301
0100
0001
1000
0001
0010
,
0100
0010
0100
0010
0001
0100
0001
0100
,
0001
1000
0010
1000
0010
1000
0100
0010
,
0001
0010
0001
0010
0100
1000
0100
1000
,
0100
0010
0001
0010
0100
0010
0001
1000
,
0001
1000
0001
0010
0100
0010
0100
0010
,
0001
0100
0001
0010
0001
0010
0100
0010
,
0100
1000
0010
1000
0010
1000
0001
0100
,
0001
0000
0100
0000
0010
1000
0000
0100
0010
0000
0100
1000
0000
1000
0010
0000
,
0010
0100
0000
1000
0001
0000
0001
0010
0000
0100
0010
0000
0001
0010
0000
0010
,
0100
0000
1000
0000
0100
1000
0000
1000
0001
0000
0010
0100
0000
0010
0100
0000
,
0100
1000
0000
1000
0001
0000
1000
0000
0001
0000
0010
0000
0001
0000
0100
0000
,
0010
0100
0001
0000
1000
0000
0001
0000
,
0010
0001
0010
0100
,
0010
0002
0000
0000
,
0000
0000
0000
0000
,
0000
0000
0103
0000
1000
0100
1000
0010
,
0100
0000
0001
0000
0010
0000
0000
0000
0000
0000
0000
0000
1000
0000
0000
0100
,
0000
0000
0000
0000
0001
1000
0001
1000
,
0010
1000
0002
0000
0000
0000
1003
0000
,
0001
0000
0000
0000
1001
0000
0000
0101
0000
0000
0110
0000
0000
0000
0000
0000
,
0000
0000
0001
0000
1000
0000
0000
0000
0000
0000
0000
0000
0010
0000
0000
0100
,
0000
0000
0001
0000
0010
0000
0000
0001
0000
0000
1000
0000
0000
0000
0000
0000
,
0000
0000
0010
0000
0100
0000
0000
0001
0000
0000
1000
0000
0000
0000
0000
0000
,
0000
0000
0001
1000
0001
1000
0001
0100
,
0010
0100
0010
0100
0001
1000
0001
1000
,
0001
0010
0100
0010
0100
0010
0001
1000
,
0001
1000
0001
0010
0100
0010
0100
0010
,
0001
1000
0010
1000
0010
1000
0001
0010
,
0001
0010
0001
1000
0100
1000
0100
1000
,
0001
0100
0001
0100
0001
1000
0010
1000
,
0010
1000
0001
0100
0001
0100
0001
1000
,
0100
1000
0100
1000
0001
0010
0001
1000
,
0100
1000
0100
1000
0001
0010
0001
0100
,
0001
0100
0010
0100
0010
1000
0010
0100
,
0001
0010
0001
0010
0001
0100
0010
0100
,
0010
0100
0001
1000
0100
0010
0100
1000
,
0100
1000
0010
1000
0010
0100
0010
0100
,
0001
0100
0001
0010
0001
1000
0010
1000
,
0010
0001
0000
0010
0000
0100
0000
1000
,
0000
0000
0100
0000
0010
0000
0000
0001
0000
0000
0010
1000
0000
0100
0000
1000
,
0000
0100
0000
0010
0000
0002
0000
0000
0000
0000
0003
0000
0001
0000
0000
2000
,
0000
0000
0000
0000
3010
0000
0000
0000
0100
0000
0001
0010
0000
1000
0000
0100
,
0000
0010
0000
0002
0000
0000
0000
0000
0000
0000
0000
0000
0000
0000
0000
0000
,
0000
1003
0000
0000
;
