#TITLE:STARS;
#SUBTITLE:(NM Trance Dub Mix);
#ARTIST:TЁЯRA;
#GENRE:TRANCE TECHNO;
#MUSIC:STARS (NM Trance Dub Mix).ogg;
#BANNER:STARS (NM Trance Dub Mix).png;
#BACKGROUND:STARS (NM Trance Dub Mix)-bg.png;
#CDTITLE:./CDTITLES/DANCE DANCE REVOLUTION HOME VERSION.PNG;
#SAMPLESTART:13.560;
#SAMPLELENGTH:12;
#OFFSET:-0.362;
#BPMS:0.000=139.985,33.000=69.993,49.000=139.985;

//--------------- dance-single - B. M'Rey ----------------
#NOTES:
     dance-single:
     B. M'Rey:
     Beginner:
     1:
     0,0,0,0,0:
0000
0000
0000
0000
,
0000
0000
0000
0000
,
0000
0000
0000
0000
,
0000
0000
0000
0000
,
0000
1000
0000
0000
,
0000
0010
0000
0000
,
0000
0100
0000
0000
,
0000
0001
0000
1000
,
0000
0001
0000
0100
,
0000
0010
0000
1000
,
0000
0100
0000
0010
,
0000
0001
0000
1000
,
0000
0100
0000
0010
,
0000
0100
0000
0010
,
0000
0001
0000
1000
,
0000
0001
0000
0100
,
0000
0110
0000
1000
,
0000
0010
0000
0100
,
0000
0001
0000
0001
,
0000
0001
0000
1000
,
0000
1000
0000
0000
,
0000
0010
0000
0000
,
0000
0100
0000
0000
,
0000
0001
0000
0000
,
0000
1000
0000
0000
,
0000
0010
0000
0000
,
0000
0100
0000
0000
,
0000
0001
0000
0000
,
0000
0010
0000
1000
,
0000
0100
0000
1000
,
0000
0010
0000
0100
,
0000
0010
0000
0001
,
0000
0010
0000
0100
,
0000
0010
0000
1000
,
0000
0010
0000
0100
,
0000
0010
0000
0001
,
0000
1001
0000
0000
,
0000
0100
0000
0000
,
0000
0010
0000
0000
,
0000
0001
0000
0000
,
0000
1000
0000
0000
,
0000
0100
0000
0000
,
0000
0010
0000
0000
,
0000
0100
0000
0000
,
0000
0101
0000
0000
,
0000
0010
0000
0000
,
0000
1000
0000
0000
,
0000
0010
0000
0000
,
0000
0110
0000
0000
,
0000
0001
0000
0000
,
0000
0010
0000
0000
,
0000
1000
0000
0000
,
0000
0110
0000
0000
;

//--------------- dance-single - DWI Extreme ----------------
#NOTES:
     dance-single:
     DWI Extreme:
     Easy:
     2:
     0.164,0.219,0.03,0.03,0:
0000
0000
0000
0000
,
0000
0000
0000
0000
,
0000
0000
0000
0000
,
0000
0000
0000
0000
,
0000
0000
1000
0000
,
0010
0000
0100
0000
,
0001
0000
1000
0000
,
0010
0000
0100
0001
,
0001
0001
0000
0010
,
0000
0100
0000
0001
,
0000
1000
1000
0010
,
0010
0100
0100
0001
,
1000
0010
0000
0000
,
0000
0100
0000
0000
,
0000
0001
0000
0000
,
0000
1000
0000
0000
,
0000
0010
0000
0010
,
0000
1000
0000
0100
,
0000
0001
0000
0001
,
0000
0200
0000
0000
,
0300
1000
1000
0010
,
0000
0001
0001
0010
,
0000
1000
0000
0001
,
0000
0010
0000
0100
,
0000
1000
1000
0010
,
0000
0100
0100
0001
,
0000
1000
0000
0001
,
0000
0001
0000
0010
,
0000
0100
0000
0100
,
0100
0000
0001
0000
,
0001
1000
0000
0010
,
0010
0000
0100
0000
,
0100
0001
0000
1000
,
1000
0000
0100
0000
,
0100
0010
0000
0001
,
0001
0000
0010
0000
,
0010
1000
0000
0001
,
0000
0100
0000
0000
,
0000
0010
0000
1000
,
0000
0100
0000
0000
,
0000
0001
0000
1000
,
0000
0001
0000
0010
,
0000
0100
0000
0100
,
0000
1000
1000
0010
,
0001
1001
0000
0010
,
0000
0100
0000
0001
,
0000
1000
0000
0100
,
0000
0010
0001
0001
,
0000
1001
0000
0100
,
1000
0010
0000
0100
,
0000
0001
0000
1000
,
0000
0010
0100
0001
,
1000
2002
0000
0000
,
3003
0000
0000
0000
;

//--------------- dance-single - DWI Extreme ----------------
#NOTES:
     dance-single:
     DWI Extreme:
     Medium:
     4:
     0.267,0.414,0.09,0.04,0.005:
0000
0000
0000
0000
,
0000
0000
0000
0000
,
0000
0000
0000
0000
,
0000
0000
0000
0000
,
0000
1000
0110
0001
,
0001
0001
0110
1000
,
1000
1000
0101
0010
,
1100
0010
0001
0100
,
1000
0000
0100
0000
0001
0000
1000
0010
,
1000
0000
0100
0000
0010
0000
0000
0000
0001
0000
0000
0100
0000
0000
0010
0000
,
1000
0100
0010
0010
0010
0001
0100
0100
,
0100
0010
1000
0001
0001
0001
0010
0100
,
0100
0100
1000
0000
0000
0000
0001
0000
,
0000
0100
0000
0010
,
0000
1000
0000
0001
,
0000
0100
0000
1000
,
0000
2000
0010
0001
,
3010
0020
0100
1000
,
0130
1000
0001
0110
,
1000
0110
0011
1010
,
0000
0100
0000
0100
,
0010
0001
0000
0001
,
1000
0100
0000
0010
,
0000
0001
1000
0100
,
0010
0001
0010
0000
1000
0000
0100
0000
,
0000
0010
0001
0100
,
0000
1000
0100
0001
,
0100
1000
0010
0100
,
0000
0010
1000
0001
,
0000
1000
0001
0000
0000
0000
0001
0000
,
0000
0010
0100
1000
,
0000
0010
1000
0000
0000
0000
1000
0000
,
0000
0001
1000
0010
,
0000
0100
0010
0000
0000
0000
0010
0000
,
0000
1000
0001
0100
,
0000
0001
0100
0000
0000
0000
0100
0000
,
0000
1000
0000
1000
,
0100
0001
0000
0001
,
0010
1000
0001
0100
,
0010
1000
0100
1000
,
0001
1000
0000
0010
,
0000
0100
0001
0100
,
0001
1000
0000
0001
,
0000
1000
0100
1000
,
0010
0000
1000
0000
0010
0000
0100
0001
,
1000
0100
0001
0100
,
0000
0000
1000
0000
0001
0000
0100
0010
,
1000
0100
1000
0010
,
0000
1000
0000
0001
,
0000
0100
0010
1000
,
0000
1000
0100
0010
,
0001
1000
0010
0100
,
1000
0010
2002
0000
0000
0000
0000
0000
,
3003
0000
0000
0000
;

//--------------- dance-single - DWI Extreme ----------------
#NOTES:
     dance-single:
     DWI Extreme:
     Hard:
     7:
     0.519,0.633,0.07,0.03,0.36:
0000
0000
0000
0000
,
0000
0000
0000
0000
,
0000
0000
0000
0000
,
0000
0000
0000
0000
,
0000
0000
1000
0000
0001
1000
1000
0000
,
0010
0000
0010
0000
0100
0000
0000
0001
0000
0000
0001
0000
1000
0000
0000
0010
,
0000
0010
0100
0001
0100
0001
1000
0100
,
1000
0100
0010
0001
1000
0100
1000
0000
,
0010
0000
0000
0000
0100
0000
0000
0000
0001
0000
0000
0000
0000
0000
1000
0000
0001
0000
0000
0000
0000
0000
0010
0000
0100
0000
0000
0100
0000
0000
1000
0000
,
0001
0000
0000
0010
0000
0000
0010
0000
1000
0000
0000
0000
0000
0000
0001
0000
0100
0000
0000
0000
0100
0000
0010
0000
0000
0000
0010
0000
1000
0000
0000
0000
,
0000
0100
0010
0100
1000
0001
0010
0100
0000
0010
0001
0010
0100
1000
0100
0001
,
0000
0100
1000
0100
0010
1000
0001
0100
0000
1000
0010
1000
0001
0010
0100
1000
,
0000
0000
1000
0010
0000
0010
0000
0100
,
0001
0100
0010
1000
0000
1000
0000
0001
,
0100
0001
1000
0010
0000
0010
0000
0100
,
0010
0000
0100
0000
0001
0000
1000
0000
0000
0000
1000
0000
0010
0000
0100
0001
,
0000
0001
0100
0000
0010
0000
1000
0000
0100
0000
0000
0000
0100
0000
0010
0000
,
0001
0000
0001
1000
0100
0000
0100
1000
,
0010
0100
0101
0000
0001
0000
1100
0000
,
0100
0000
1000
0010
0100
0001
0020
0000
,
0000
0030
0100
1000
0010
0100
0001
0001
,
1000
0100
0010
0001
1000
0100
0010
0010
,
0100
0000
1000
0000
0010
0000
0100
0000
0001
0000
1000
0000
0100
0000
0000
0010
,
0000
0001
0100
0010
0100
1000
0100
0001
,
1000
0000
0100
0000
0010
0000
0000
0001
0000
0000
0001
0000
0100
0000
0000
0000
,
0010
0000
1000
0000
0100
0000
0000
0100
0000
0000
0010
0000
0001
0000
0000
0000
,
1000
1000
0010
0100
0010
0100
0001
1000
,
0100
0000
0010
0000
0001
0000
1000
0010
0000
0010
1000
0000
0001
0000
0010
0100
,
0000
0100
0010
0000
0001
0000
1000
0000
0010
0000
0100
0000
0001
0000
0000
0010
,
0000
0100
0010
0000
0001
0000
0100
0000
,
1000
0000
0000
0000
0100
0000
0001
0000
0010
0000
0100
0000
0001
0000
0000
0100
,
0000
0000
1000
0000
0010
0000
0100
0001
0000
0001
0100
0000
0010
0000
1000
0100
,
0000
0100
1000
0000
0010
0000
0100
0000
0001
0000
0100
0000
0010
0000
0000
1000
,
0000
0100
0010
0000
0100
0000
1000
0000
,
0001
0000
0000
0000
1000
0000
0010
0000
0100
0000
1000
0000
0100
0000
0000
0001
,
0000
0000
0010
0000
0100
0000
1000
0001
0000
0001
1000
0000
0100
0000
0010
1000
,
0000
1000
0010
0000
0001
0000
0000
0000
0100
0000
0010
0000
1000
0000
0000
0110
,
0000
0001
0010
1000
0010
0000
0010
1000
,
0010
0000
0000
0000
0001
0000
0000
0000
1000
0000
0010
0000
0100
0000
0000
1001
,
0000
0100
0010
0001
0010
0000
0010
0001
,
0010
0000
0000
0000
1000
0000
0000
0000
0001
0000
0100
0000
0010
0000
0000
1100
,
0000
0010
0001
1000
0001
0010
0001
1000
,
0001
0000
0100
0000
0010
0000
0000
0000
1000
0000
0001
0000
0010
0000
0000
0101
,
0000
0010
1000
0100
1000
0001
1000
0100
,
1000
0000
0010
0000
1000
0000
0001
0010
0000
0010
0000
0000
0001
0000
1000
0010
,
0000
0010
0000
0000
1000
0000
0001
0100
0000
0100
0000
0000
0001
0000
1000
0100
,
0000
0100
0000
0000
1000
0000
0010
0001
0000
0001
0000
0000
0010
0000
1000
0001
,
0000
0001
0000
0000
0010
0000
0100
1000
0000
1000
0000
0000
0001
0000
0100
1000
,
0000
1000
0000
0000
0100
0000
0001
0000
1000
0000
0100
0000
0010
0000
0001
1000
,
0000
1000
0000
0000
0010
0000
0100
0000
0001
0000
1000
0000
0100
0000
0010
0001
,
0000
0001
0000
0000
1000
0000
0100
0000
0001
0000
0100
0000
1000
0000
0010
0000
,
0100
0001
0010
0100
0001
0100
1000
0010
,
0100
0001
2002
0000
0000
0000
0000
0000
,
3003
0000
0000
0000
;
