#TITLE:STAR OF MUSE;
#ARTIST:鈴木健治;
#ARTISTTRANSLIT:Kenji Suzuki;
#GENRE:POP ROCK;
#MUSIC:STAR OF MUSE.ogg;
#BANNER:STAR OF MUSE.png;
#BACKGROUND:STAR OF MUSE-bg.png;
#CDTITLE:./cdtitles/GUITARFREAKS & drummania.png;
#SAMPLESTART:7.870;
#SAMPLELENGTH:12;
#OFFSET:-0.441;
#BPMS:0.000=116.000;

//--------------- dance-single - B. M'Rey ----------------
#NOTES:
     dance-single:
     B. M'Rey:
     Beginner:
     1:
     0,0,0,0,0:
0000
0000
0000
0000
,
0000
0000
0000
0000
,
0000
0000
0000
0000
,
0000
0000
0000
0000
,
1000
0000
0000
0000
,
0100
0000
0000
0000
,
0001
0000
0000
0000
,
0010
0000
0000
0000
,
0110
0000
0000
0000
,
1000
0000
0000
0000
,
0001
0000
0000
0000
,
0010
0000
0000
0000
,
0100
0000
0000
0000
,
1000
0000
1000
0000
,
0010
0000
0010
0000
,
0001
0000
0001
0000
,
0100
0000
0000
0000
,
0010
0000
0010
0000
,
1000
0000
1000
0000
,
0001
0000
0000
0000
,
0100
0000
0000
0000
,
0010
0000
1000
0000
,
0001
0000
0010
0000
,
0100
0000
0010
0000
,
1000
0000
0001
0000
,
1001
0000
0000
0000
,
0010
0000
0000
0000
,
0110
0000
0000
0000
,
0101
0000
0000
0000
,
1000
0000
0000
0000
,
0100
0000
0000
0000
,
0001
0000
0000
0000
,
0010
0000
0000
0000
,
0110
0000
0000
0000
,
1000
0000
0000
0000
,
0001
0000
0000
0000
,
0010
0000
0000
0000
,
0100
0000
0001
0000
,
2000
0000
0000
0000
,
3020
0000
0000
0000
,
0230
0000
0000
0000
,
0302
0000
0000
0000
,
1003
0000
1000
0000
,
2002
0000
0000
0000
0000
0000
0000
3003
,
0200
0000
0000
0000
0000
0000
0000
0300
,
1000
0000
0000
0000
,
0100
0000
0000
0000
,
0001
0000
0000
0000
,
0010
0000
0000
0000
,
0110
0000
0000
0000
,
1000
0000
0000
0000
,
0001
0000
0000
0000
,
0010
0000
0000
0000
,
0100
0000
0000
0000
,
1000
0000
1000
0000
,
0001
0000
0000
0000
,
1001
0000
0000
0000
;

//--------------- dance-single - DWI Extreme ----------------
#NOTES:
     dance-single:
     DWI Extreme:
     Easy:
     2:
     0.231,0.266,0.301,0.201,0.004:
0000
0000
0000
0000
,
0000
0000
0000
0000
,
0000
0000
0000
0000
,
0000
0000
0000
0000
,
1000
0000
1000
0000
,
0001
0000
0001
0000
,
0010
0000
0100
0000
,
0010
0000
1001
0000
,
1000
0000
0010
0000
,
0100
0000
0001
0000
,
1000
1000
1000
0000
,
1001
0000
0001
0000
,
0110
0000
1000
0000
,
1010
0000
0010
0000
,
0101
0000
0100
0000
,
1000
0010
1000
0000
,
0001
0000
0100
0000
,
1001
0000
0020
0030
,
1001
0000
0200
0300
,
1000
0000
0001
0000
,
0010
0000
0110
0000
,
1001
0000
0001
0001
,
0002
0003
1000
1000
,
2000
3000
0010
0000
,
0100
0000
0110
0000
,
1001
1000
2000
3000
,
1001
0001
0002
0003
,
1001
0000
0110
0000
,
0010
0100
1001
0000
,
1001
1000
0001
1000
,
0010
0100
0020
0030
,
0110
1000
0100
1000
,
0100
1000
0002
0003
,
1010
1000
0010
1000
,
0001
1000
0200
0300
,
1001
0010
0100
0001
,
1001
0000
0100
0000
,
1001
0000
0000
0000
,
0220
0000
0000
0330
,
2002
0000
0000
3003
,
1000
0100
0010
0001
,
1000
0100
0010
0000
,
0220
0330
2002
3003
,
1000
0100
1000
0000
,
0110
0000
1001
0000
,
0001
0100
0001
1000
,
0010
0100
0002
0003
,
1001
1000
1001
0001
,
0010
0100
0020
0030
,
1010
1000
0001
0100
,
0010
0100
0002
0003
,
1000
0010
1001
0110
,
1001
0000
0020
0030
,
0110
0000
0200
0300
,
1001
0000
0220
0000
,
0000
0000
0000
0000
0000
0000
0000
0000
0000
0000
0330
0000
0000
0000
0000
0001
;

//--------------- dance-single - DWI Extreme ----------------
#NOTES:
     dance-single:
     DWI Extreme:
     Medium:
     5:
     0.346,0.399,0.1,0.218,0.033:
0000
0000
0000
0000
,
0000
0000
0000
0000
,
0000
0000
0000
0000
,
0000
0000
0000
0000
,
1000
0100
1000
0000
0001
0100
0001
0000
,
2000
0010
3001
1001
,
1000
0010
0100
0000
0001
0010
0100
0000
,
0020
1000
0130
0110
,
1000
0100
0001
0000
0001
0100
1000
0000
,
0001
1000
2002
3003
,
1000
0100
0010
0001
1000
0100
0010
0001
,
0001
1000
0002
0010
,
0100
1000
0100
1003
,
1000
0001
0010
0000
0001
1000
0010
0000
,
1000
0001
0100
0000
0001
1000
0100
0000
,
0020
1000
0100
1000
,
0100
1000
0100
1030
,
1000
0100
0001
0000
0001
0100
1000
0000
,
1000
0010
0001
0000
0001
0010
1000
0000
,
2000
0010
0001
3100
,
1000
0100
0010
0001
0010
0100
1000
0010
,
1000
0000
0010
0000
0100
0100
0100
0000
,
1000
0000
0001
0000
0010
0010
0010
0000
,
2000
0000
3001
0000
1000
0001
1000
0000
,
0002
0000
1003
0000
0001
1000
0001
0000
,
2000
0100
0001
3010
,
0002
0100
1000
0013
,
0200
1000
0001
1300
,
1001
0000
1001
0000
,
1000
0010
1000
0010
1000
0010
1000
0000
,
0001
0100
0001
0100
0001
0100
0001
0000
,
0001
1000
0200
0300
1000
0001
0200
0300
,
1001
0000
0000
1001
0000
0000
2002
0000
0000
0000
0000
0000
3003
0000
0010
0000
,
0002
1000
0100
1003
,
0100
0000
0000
0100
0000
0000
0200
0000
0000
0000
0000
0000
0300
0000
1000
0000
,
0001
0000
0100
0000
0010
1000
0010
1000
,
0001
0200
1000
0010
,
0001
0010
0310
0000
,
0110
0000
1000
0000
0001
0100
0001
0000
,
1001
0000
0100
0000
1000
0010
1000
0000
,
0001
0010
0100
1000
1000
0100
0010
0001
,
1000
0100
0001
0100
1000
0001
0001
0000
,
2002
0000
0000
0000
,
0000
0000
0000
0000
0000
0000
0000
3003
,
0010
0000
0000
0010
0000
0000
0010
0000
0000
0000
0000
0000
0000
0000
0000
0000
,
1000
0001
1000
0000
0010
0100
0010
0000
,
1000
0100
0001
0100
2000
0000
3001
0000
,
0001
0010
0001
0000
1000
0100
1000
0000
,
0002
0000
0000
0010
0000
0000
1003
0000
0000
0000
0000
0000
0100
0000
1000
0000
,
0001
0000
0010
0000
0100
1000
0100
0000
,
1000
0000
0000
0001
0000
0000
1001
0000
0000
0000
0000
0000
0000
0000
0010
0000
,
0002
0000
1000
0000
1003
0100
0010
0001
,
1000
0200
0001
1000
,
0001
0010
1000
1300
,
1000
0000
0000
0001
0000
0000
1000
0000
0000
0001
0000
0000
1000
0000
0200
0000
,
0000
0000
0000
0000
0000
0000
0000
0000
0000
0000
0000
0000
0300
0000
1000
0001
;

//--------------- dance-single - DWI Extreme ----------------
#NOTES:
     dance-single:
     DWI Extreme:
     Hard:
     8:
     0.542,0.487,0.151,0.134,0.636:
0000
0000
0000
0000
,
0000
0000
0000
0000
,
0000
0000
0000
0000
,
0100
0000
1000
0001
0000
0100
0000
0100
0000
1000
0000
0000
0100
0000
0010
0000
,
0001
0000
1000
0000
1000
0100
0000
0100
0000
0000
0010
0000
0001
0000
1000
0000
,
0010
0000
0000
0100
0000
0000
0002
0000
0000
0000
0003
0000
0000
0010
1000
0010
,
0001
0000
0100
0000
0100
0001
0000
0010
0000
0000
1000
0000
0100
0000
0001
0000
,
0100
0000
0000
1000
0000
0000
0020
0000
0000
0000
0030
0000
0000
0000
0010
0000
,
0100
0000
0001
0000
0001
1000
0000
1000
0000
0000
0010
0000
0100
0000
0010
0000
,
0001
0000
0000
1000
0000
0000
2002
0000
0000
0000
3003
0000
0000
1000
0010
0100
,
0001
0000
0001
1000
0000
1000
0000
0010
0000
0000
0100
0000
0010
0000
0001
0000
,
1000
0000
0000
0000
0001
0000
0000
1000
0000
1000
0000
0010
0100
0000
0000
0000
,
1000
0100
0010
0000
0001
0010
0100
0000
1000
0100
0001
0100
1000
0000
0010
0000
,
0010
0000
0100
0001
0100
0001
0000
1000
0000
0010
0000
1000
0000
0000
0010
0100
,
0001
0000
1000
0100
1000
0010
0000
1000
0000
0000
1001
0000
1000
0000
0001
0000
,
1000
0000
0100
0000
0010
0000
0001
1000
0000
0000
0110
0000
1000
0000
0001
0000
,
0002
0000
0000
0010
0000
0000
1003
0000
0000
0000
0010
0000
0010
0000
1000
0001
,
0100
0000
1000
0001
1000
0001
0000
1000
0000
0010
0000
0100
0000
0000
0001
0010
,
0100
0000
1000
0001
1000
0001
0000
0010
0000
0000
0010
0000
1000
0000
0100
0000
,
0010
0000
0000
0001
0000
0000
2002
0000
0000
0000
0000
0000
0000
0000
3003
0000
,
0010
1000
0001
0000
0001
1000
0100
0000
0010
0000
0001
0000
1000
0000
0100
0000
,
1000
0010
1000
0000
0001
0000
1000
0001
0000
1000
0001
0000
0100
0000
0000
0000
,
0001
0100
0001
0000
1000
0000
0010
0100
0000
0010
0100
0000
0001
0000
0000
0000
,
0001
1000
0001
0000
1000
0000
0001
0010
0000
0100
1000
0000
0010
0000
0000
0000
,
1000
0100
1000
0000
0010
0000
1000
0100
0000
0010
0001
0000
0100
0000
0000
0000
,
1000
0010
0100
0000
0001
0000
0010
0100
0000
0010
0001
0000
0011
0000
0000
0000
,
0010
1000
0100
0000
1000
0000
0001
1000
0000
0001
0100
0000
0101
0000
0000
0000
,
0010
0001
1000
0000
0100
0000
1000
0001
0000
1000
0010
0000
1010
0000
0000
0000
,
0001
0000
0100
0010
0000
0010
0000
1000
0000
0001
0000
0000
1000
0000
0100
0000
,
0010
0000
0001
0000
0001
0100
0000
0001
0000
0000
1000
0000
1000
0000
0100
0000
,
0010
0000
0000
0010
0000
0000
0002
0000
0000
0000
0003
0000
0000
0010
0100
0010
,
1000
0000
0100
0000
0100
0010
0000
0010
0000
0000
1000
0000
0100
0000
0010
0000
,
0001
0000
0000
1000
0000
0000
2002
0000
0000
0000
3003
0000
0000
0000
0100
0000
,
1000
0000
0001
0000
0001
0010
0000
0010
0000
0000
1000
0000
1000
0000
0001
0000
,
1010
0000
0000
0011
0000
0000
0200
0000
0000
0000
0300
0000
0000
0010
0001
0010
,
0001
0000
1000
0001
0000
0001
0000
1000
0000
0000
0100
0000
0010
0000
0100
0000
,
1000
0000
0000
0000
0001
0000
0000
1000
0000
0100
1000
0000
0010
0000
0000
0010
,
1000
0000
0000
0000
0001
0000
1000
1000
0000
0010
0000
0100
0000
0001
0000
0000
,
1001
0000
1000
0000
0001
0000
1000
0100
0000
0001
0100
0000
0010
0000
0100
0000
,
0110
0000
0001
0000
1000
0000
1000
0010
0000
0001
0010
0000
0100
0000
1000
0000
,
1010
0000
1000
0000
0001
0000
0010
0001
0000
0100
0001
0000
1000
0000
0001
0000
,
0101
0000
0100
0000
0010
0000
1000
0100
0000
1000
0001
0000
0010
0000
0001
0000
,
1000
0100
0000
0010
0000
0001
0000
0100
0000
0010
1000
0000
0000
0000
0000
0000
,
0010
0000
0000
0010
0001
0010
0100
1000
0010
0100
0001
0010
0001
0010
0100
0000
,
1000
0000
0000
0110
0000
0000
2002
0000
0000
0000
0000
0000
3003
0000
1000
0000
,
0001
0000
0001
0010
0000
0100
0000
1000
0000
0000
0001
0000
0001
0000
0010
0000
,
0100
0000
0000
1000
0000
0000
0020
0000
0000
0000
0030
0000
0000
1000
0001
1000
,
0010
0000
0010
0100
0000
0001
0000
0001
0000
0000
1000
0000
0100
0000
0100
0000
,
0001
0000
0000
0001
0000
0000
0002
0000
0000
0000
0000
0000
0003
0000
1000
0000
,
0010
0000
0010
1000
0000
0100
0000
0100
0000
0000
0010
0000
0001
0000
0010
0000
,
1000
0000
0000
1000
0000
0000
2000
0000
0000
0000
3000
0000
0000
1000
0010
0100
,
0010
0000
0100
0001
0000
1000
0000
0010
0000
0000
1000
0000
0100
0000
1000
0000
,
1001
0000
0000
0000
0110
0000
0000
0100
0000
0100
0000
0001
1000
0000
0001
0000
,
0010
0000
0010
0000
0001
0001
0010
0100
,
1000
0000
1000
0100
0000
0100
0010
0000
0010
0001
0000
0001
0100
0000
0010
0000
,
1000
0100
0010
0001
1000
0010
0100
0001
1000
0001
0010
0100
1000
0000
1000
0001
;
