#TITLE:SPIDERMAN;
#SUBTITLE:(SPIDER MIX);
#ARTIST:MARK FOSTER;
#TITLETRANSLIT:;
#SUBTITLETRANSLIT:;
#ARTISTTRANSLIT:;
#GENRE:;
#CREDIT:;
#MUSIC:SPIDERMAN (SPIDER MIX).ogg;
#BANNER:SPIDERMAN (SPIDER MIX)-bn.png;
#BACKGROUND:SPIDERMAN (SPIDER MIX)-bg.png;
#CDTITLE:./CDTITLES/LOVE PARA²/4.PNG;
#SAMPLESTART:64.700;
#SAMPLELENGTH:12.000;
#SELECTABLE:YES;
#OFFSET:-0.029;
#BPMS:0.000=167.000;
#STOPS:;
#BGCHANGES:;
#FGCHANGES:;

//--------------- dance-single - B. M'Rey ----------------
#NOTES:
     dance-single:
     B. M'Rey:
     Beginner:
     2:
     0,0,0,0,0:
0000
0000
0000
0000
,
0000
0000
0000
0000
,
0000
0000
0000
0000
,
0000
0000
0000
0000
,
0000
0000
0000
0000
,
0100
0100
0000
0000
,
0000
0000
0000
0000
,
0100
0100
0000
0000
,
0000
0000
0000
0000
,
0010
0010
0000
0000
,
0000
0000
0000
0000
,
0010
0010
0000
0000
,
0000
0000
0000
0000
,
1001
0000
0000
0000
,
0001
0000
0000
0000
,
0001
0000
0000
0000
,
0001
0000
0000
0000
,
0001
0001
0001
0000
,
0000
0000
0000
0001
,
0001
0001
0000
0000
,
0000
0000
0000
0000
,
1001
0000
0000
0000
,
1000
0000
0000
0000
,
1000
0000
0000
0000
,
1000
0000
0000
0000
,
1000
1000
1000
0000
,
0000
0000
0000
1000
,
1000
1000
0000
0000
,
0000
0000
0100
0100
,
0100
0000
0000
0000
,
1001
0000
0000
0000
,
0100
0100
0100
0000
,
0100
0000
0000
0000
,
0010
0000
0000
0000
,
1001
0000
0000
0000
,
0010
0000
0010
0000
,
0010
0000
0000
0000
,
1001
1001
0000
0000
,
1000
0000
0000
0000
,
0001
0000
0000
0000
,
0100
0000
0000
0000
,
1001
1001
0000
0000
,
0001
0000
0000
0000
,
1000
0000
0000
0000
,
0100
0100
0000
0000
,
1001
1001
0000
0000
,
0001
0000
0000
0000
,
1000
0000
0000
0000
,
0010
0000
0000
0000
,
1001
1001
0000
0000
,
1000
0000
0000
0000
,
0001
0000
0000
0000
,
0010
0010
0000
0000
,
1001
0000
0000
0000
,
0001
0001
0001
0001
,
0001
0000
0000
0000
,
0001
0001
0001
0001
,
0001
0000
0000
0000
,
1000
1000
1000
1000
,
1000
0000
1000
1000
,
1000
1000
1000
0000
,
0010
0010
0000
0000
,
0000
0000
0000
0000
,
0010
0010
0000
0000
,
0000
0000
0000
0000
,
0100
0100
0000
0000
,
0000
0000
0000
0000
,
0100
0100
0000
0000
,
0000
0000
0000
0000
,
1001
0000
0000
0000
,
0100
0000
0000
0000
;

//--------------- dance-single - B. M'Rey ----------------
#NOTES:
     dance-single:
     B. M'Rey:
     Easy:
     6:
     0,0,0,0,0:
0000
0000
0000
0000
,
0000
0000
0000
0000
,
0000
0000
0000
0000
,
0000
0000
0000
0000
,
1001
0000
0000
0000
,
1000
1000
0001
0001
,
0010
0010
0001
0001
,
0100
0100
0010
0010
,
1000
1000
0001
0001
,
1001
1000
1000
0010
,
0010
0100
0100
0001
,
0001
0000
1000
0000
1000
0000
0000
1001
,
0000
0000
0000
0101
0000
0000
0000
0000
,
1000
0010
1000
0010
,
0100
0001
1000
0001
,
0010
0001
0100
0010
,
0100
0001
0100
0001
,
0110
0000
0110
0000
,
0011
0000
0100
0001
,
0110
0000
1001
0000
,
0110
0000
0000
0001
,
1010
1010
0100
0010
,
0100
0010
1000
0100
,
1100
1100
0010
0001
,
0100
0001
0010
0100
,
1001
0000
0110
0000
,
0110
0000
1000
0100
,
0011
0000
0011
0000
,
0110
0000
1001
0000
,
1000
0100
0010
0001
,
1000
0010
0000
0000
,
0100
0010
1000
0100
,
1000
0000
0010
0000
,
0100
0001
0100
0010
,
1000
0001
0100
0010
,
2000
0000
3020
0000
,
0230
0000
0000
0302
0000
0010
0013
0000
,
0100
0000
0010
0000
0000
1000
0010
1000
,
0000
0100
0010
0001
,
0110
0110
0000
0100
,
0010
0100
1000
0100
,
0010
0000
0001
0000
0000
1000
0010
1000
,
0000
0001
0100
0010
,
1001
1001
0000
0010
,
1000
0100
0020
0000
,
0031
0000
0100
0000
0000
1000
0010
1000
,
0000
0100
0010
0100
,
0110
1100
0000
0010
,
1000
0100
1000
0010
,
0100
0000
0001
0000
0000
0010
0100
1000
,
0000
0010
1000
0001
,
0110
1100
0000
0010
,
0100
0001
0100
0001
,
1001
0000
0000
0100
,
1000
0001
0100
0010
,
1000
0000
0001
0000
,
0100
0010
1000
0010
,
1001
0000
0010
0000
,
0100
0010
0001
1000
,
0010
0100
0002
0000
,
0000
0000
2000
3003
,
1000
1000
0001
0001
,
0010
0010
0001
0001
,
0100
0100
0010
0010
,
1000
1000
0001
0001
,
1001
1000
1000
0010
,
0010
0100
0100
0001
,
0001
0000
1000
0000
1000
0000
0000
1001
,
0000
0000
0000
0101
0000
0000
0000
0000
,
1010
0000
0101
0000
,
1001
0000
0000
0000
;

//--------------- dance-single - B. M'Rey ----------------
#NOTES:
     dance-single:
     B. M'Rey:
     Medium:
     7:
     0,0,0,0,0:
0000
0000
0000
0000
,
0000
0000
0000
0000
,
0000
0000
0000
0000
,
0000
0000
0000
0000
,
1001
0000
0000
0000
,
1000
0000
0001
1000
0001
1000
0000
0010
,
0000
0100
0000
0010
0000
0001
0010
0001
,
0010
0000
1000
0100
1000
0100
0000
0010
,
0000
0100
0000
0010
0000
0001
1000
0000
,
0010
0000
0100
0010
0100
0010
0000
1000
,
0000
0001
0000
0010
0000
0001
0100
0010
,
0100
0000
0001
1000
0010
0100
0000
0100
,
0000
0010
0100
0010
0000
0001
0010
0000
,
1000
1000
0001
0001
,
0010
0000
0100
0000
0010
0100
0010
0100
,
0001
0001
1000
1000
,
0010
0000
0100
0000
0010
0000
0100
0010
,
0100
0000
0001
0100
0001
0000
0010
1000
,
0010
0000
0100
0000
0010
0000
0001
0100
,
0001
0000
0010
1000
0010
0000
0100
0010
,
0100
0001
2000
3001
,
0010
0000
0100
0000
0001
0000
0010
1000
,
0000
0001
0000
0100
0000
0010
0100
0000
,
1001
1001
1001
0010
,
0100
0000
0001
0000
0010
1000
0001
1000
,
0010
0100
0001
0010
,
0001
0000
1000
0000
0100
0001
0100
0000
,
0010
1000
0010
0000
0100
0001
0100
0000
,
0010
0000
1000
0000
1001
1001
1001
0000
,
0010
0000
0100
0000
0001
0000
0001
1000
,
0000
0001
1000
0000
0010
0000
0100
0000
,
1000
0100
1000
0000
0010
0000
0100
0001
,
0000
0010
0000
1000
0000
0010
0100
0000
,
0001
1000
0010
0000
1000
0000
0100
0010
,
0000
1000
0000
0001
0000
0010
0100
0000
,
0002
0000
2003
0000
,
3002
0000
0000
0103
0000
0010
0100
0000
,
0001
0000
1000
0000
0000
0001
1000
0002
,
0000
0000
0003
0100
0000
0010
1000
0000
,
1000
0000
0001
0000
0100
0000
0000
0010
,
0000
0100
0001
0000
0010
0000
1000
0000
,
1000
0000
0010
0000
0000
0001
1000
0002
,
0000
0000
0003
0100
0000
0010
1000
0000
,
1000
0000
0010
0000
0100
0000
0000
0001
,
0000
0100
0010
0000
0001
1000
0001
0000
,
1001
0000
1001
0000
0000
0010
0100
0002
,
0000
0000
0003
1000
0000
0010
0100
0000
,
1000
0000
0001
0000
0100
0000
1000
0010
,
0000
0100
0001
0000
0010
0000
1000
0000
,
1001
0000
1001
0000
0000
0001
0100
0020
,
0000
0000
0030
1000
0000
0010
0100
0000
,
0001
0000
1000
0000
0010
0000
0000
0100
,
0000
0010
1000
0000
0100
0010
1000
0000
,
1001
0000
0000
0000
0100
0000
0000
1000
,
0000
0010
0100
0000
0001
0000
1000
0000
,
0001
0000
1000
0000
0001
0000
0100
0010
,
0000
0001
1000
0000
0010
0100
0001
0000
,
1001
0000
0010
0000
0100
0000
0001
1000
,
0000
0010
0100
0000
0001
0000
0010
0000
,
1000
0000
0001
0000
0010
0100
0001
1000
,
0000
1010
0000
0001
1000
0000
0010
0000
,
1001
0000
1000
0010
0100
0001
0000
1000
,
0000
0010
0000
0100
0000
0001
0010
0001
,
1000
0000
0010
0100
0010
1000
0000
0001
,
0000
0100
0010
1000
0000
0001
1000
0000
,
1001
0000
0010
0100
0001
1000
0000
1000
,
0000
0001
0000
1000
0000
0001
0100
0010
,
1000
0000
0001
0100
0010
1000
0000
0001
,
0000
1000
0001
1000
0000
0001
1000
0000
,
0001
0000
1000
0001
0000
1000
0001
1000
,
0001
0000
0000
0000
;

//--------------- dance-single - B. M'Rey ----------------
#NOTES:
     dance-single:
     B. M'Rey:
     Hard:
     9:
     0,0,0,0,0:
0000
0000
0000
0000
,
0000
0000
0000
0000
,
0000
0000
0000
0000
,
0000
0000
0000
0000
,
1001
0000
0000
0000
,
1000
0000
0001
1000
0010
0100
0000
0002
,
0000
2003
0000
3020
0000
0130
0001
1000
,
0010
0000
0100
0001
1000
0010
0000
0001
,
0000
0000
1000
0000
0010
0000
1000
0000
0000
0000
0001
1000
0001
1000
0001
0000
,
1000
0000
0010
0100
0001
1000
0000
0020
,
0000
0230
0000
0320
0000
0031
1000
0010
,
0100
0000
1000
0010
0100
0001
0000
1001
,
0000
0101
1010
0101
0000
1010
0101
0000
,
1001
0000
0110
0000
0101
0000
0010
1000
,
0000
0010
0000
0100
0001
1000
0010
0100
,
1001
0000
0110
0000
0101
0000
0010
1000
,
0000
0010
0000
0100
0000
0001
1000
0010
,
0100
0000
0001
1000
0010
0000
0001
0100
,
0010
0000
1000
0000
0010
1000
0010
0100
,
0001
0000
0001
0010
0100
0000
0010
1000
,
0001
0000
0000
0000
0110
0000
0000
0000
1000
0001
1000
0001
1000
0000
0000
0000
,
0101
0000
1010
0000
0101
0000
0010
0100
,
0000
1000
0000
0010
0000
0100
0001
0010
,
1001
0000
0110
0000
0101
0000
0010
1000
,
0000
0010
0000
0100
0010
1000
0001
0100
,
0010
0000
1000
0010
1000
0000
0001
0100
,
0010
0000
0001
0000
0010
1000
0001
0100
,
0010
0000
0001
1000
0010
0000
0100
0010
,
1000
0000
0001
0000
1001
1001
1001
0000
,
0001
0010
0100
0001
1000
0000
0010
0100
,
0000
1000
0010
0000
0100
0000
0001
0000
,
0001
0010
0001
0100
0010
0000
1000
0010
,
0000
0100
0000
1000
0000
0010
0100
0001
,
1000
0010
0100
0001
1000
0000
0010
0100
,
0000
0001
0000
1000
0000
0001
1000
0010
,
1001
1001
0110
0110
,
0101
0000
0000
0101
0000
0010
1000
0000
,
0110
0000
0110
0000
0001
0100
0010
2000
,
0000
0000
3100
0001
0000
1000
0010
0100
,
1001
0000
0110
0000
0101
0000
0010
1000
,
0000
0010
0100
0001
1000
0010
0100
0001
,
1001
0000
1001
0000
0010
0100
1000
0020
,
0000
0000
0031
1000
0000
0010
0100
0001
,
0101
0000
1010
0000
0110
0000
0100
0001
,
0000
0010
1000
0010
0101
0101
0101
0000
,
1001
0000
0110
0000
0001
1000
0010
0200
,
0000
0000
0301
0010
0000
0001
1000
0010
,
1010
0000
0101
0000
0110
0000
0001
0100
,
0001
1000
0010
0100
0010
1000
0001
0100
,
0101
0000
1010
0000
0010
0100
0001
2000
,
0000
0000
0000
3001
0000
1000
0010
0100
,
1001
0000
0101
0000
0110
0000
1001
0001
,
0000
1000
0010
0100
0001
1000
0010
0000
,
1001
0000
0110
0000
0101
0000
0001
0010
,
0000
1000
0100
1000
0010
0100
0001
0100
,
0020
0000
0032
0000
1003
0000
0010
0100
,
0000
0001
0100
0010
1000
0001
0100
0000
,
1001
0000
0110
0000
0101
0000
0010
1000
,
0000
0010
0100
0001
1000
0010
0100
0001
,
1000
0000
1001
0000
1001
1001
1001
1001
,
0000
1001
0000
1010
1001
0000
0101
0000
,
1000
0000
0001
1000
0010
0100
0000
0002
,
0000
2003
0000
3020
0000
0130
0001
1000
,
0010
0000
0100
0001
1000
0010
0000
0001
,
0000
0000
1000
0000
0010
0000
1000
0000
0000
0000
0001
1000
0001
1000
0001
0000
,
1000
0000
0010
0100
0001
1000
0000
0020
,
0000
0230
0000
0320
0000
0031
1000
0010
,
0100
0000
1000
0010
0100
0001
0000
1001
,
0000
0110
0110
0110
0000
1001
1001
1001
,
0101
0101
1010
1010
0000
0100
0010
0100
,
2002
0000
0000
3003
;
