#VERSION:0.83;
#TITLE:SPACE TRIBE;
#ARTIST:NAPAKICK;
#GENRE:ROCKET BEATS;
#MUSIC:SPACE TRIBE.ogg;
#BANNER:SPACE TRIBE-bn.png;
#BACKGROUND:SPACE TRIBE-bg.png;
#CDTITLE:./CDTITLES/Beatmania 7thMIX -keepin' evolution-.PNG;
#SAMPLESTART:34.055;
#SAMPLELENGTH:15;
#OFFSET:-0.450;
#BPMS:0=99.985;
#DISPLAYBPM:100;

//--------------- dance-single - B. M'Rey ----------------
#NOTEDATA:;
#STEPSTYPE:dance-single;
#DESCRIPTION:B. M'Rey;
#DIFFICULTY:Beginner;
#METER:2;
#RADARVALUES:0,0,0,0,0;
#NOTES:
0000
0000
0000
0000
,
0000
0000
0000
0000
,
1000
0000
0000
0000
,
0001
0000
0000
0000
,
0100
0000
0000
0000
,
0010
0000
0000
0000
,
1000
0000
0000
0000
,
0010
0000
0000
0000
,
0100
0000
0000
0000
,
0001
0000
0000
0000
,
0010
0000
0000
0000
,
0100
0000
0000
0000
,
0001
0000
0000
0000
,
1001
0000
0000
0000
,
1000
0000
1000
0000
,
0010
0000
0100
0000
,
0001
0000
0010
0000
,
0001
0000
0100
0000
,
0010
0000
1000
0000
,
0001
0000
0100
0000
,
0010
0000
1000
0000
,
0001
0000
1000
0000
,
0010
0000
0100
0000
,
0010
0000
1000
0000
,
0100
0000
0001
0000
,
0010
0000
0001
0000
,
0100
0100
0100
0000
,
0010
0000
1000
0000
,
0001
0001
0001
0000
,
0100
0000
0010
0000
,
2000
0000
0000
0000
,
0002
0000
0000
0000
,
3003
0000
0000
0000
;

//--------------- dance-single - B. M'Rey ----------------
#NOTEDATA:;
#STEPSTYPE:dance-single;
#DESCRIPTION:B. M'Rey;
#DIFFICULTY:Easy;
#METER:4;
#RADARVALUES:0,0,0,0,0;
#NOTES:
0000
0000
0000
0000
,
0000
0000
0000
0000
,
0010
1000
0010
0100
,
0010
0100
0001
1000
,
0001
0100
0010
0100
,
0001
0100
0001
0010
,
0001
0000
0010
0000
,
0100
0000
0001
0000
,
0001
0010
0100
0010
,
0100
0010
0001
1000
,
0001
0000
0100
0000
,
1000
0000
0010
0000
,
0001
0010
0001
1000
,
1001
0000
0000
0000
,
0100
1000
0100
0010
,
0001
0010
0100
0010
,
0100
1000
0001
0100
,
0001
0100
0010
0100
,
0001
1000
0001
0100
,
0010
0100
0010
1000
,
0001
0010
0100
0010
,
0100
0000
0001
0000
,
0100
0000
1000
0000
,
0001
1000
0010
0001
,
0100
1000
0100
1000
,
0001
0100
0010
0100
,
0010
0000
1000
0000
,
0001
0010
0001
0010
,
0100
0000
0001
0000
,
0100
1000
0100
0010
,
0200
0000
0000
0001
,
0002
0000
0000
0000
,
0303
0000
0000
0000
;

//--------------- dance-single - B. M'Rey ----------------
#NOTEDATA:;
#STEPSTYPE:dance-single;
#DESCRIPTION:B. M'Rey;
#DIFFICULTY:Medium;
#METER:9;
#RADARVALUES:0,0,0,0,0;
#NOTES:
0000
0000
0000
0000
,
0000
0000
0000
0000
,
0010
1000
0001
0010
0100
0000
0100
0000
,
0010
0100
0001
0100
0010
0000
0001
0000
,
0001
0010
0100
1000
0001
0000
0001
0000
,
0100
0010
0100
1000
0100
0000
0001
0000
,
0001
0100
0001
0100
0010
0100
0001
0010
,
0001
1000
0010
0100
0001
0010
0100
0010
,
0100
1000
0100
0010
0001
0000
0001
0000
,
0100
1000
0100
1000
0001
0000
0001
0000
,
0010
0100
0010
0100
0001
0010
0001
1000
,
0010
1000
0001
0010
0001
0010
0100
0010
,
0100
1000
0001
0100
0001
0000
0010
0000
,
1010
0100
0100
0100
,
0100
1000
0100
1000
0001
0100
0010
0100
,
0010
1000
0010
0100
0001
1000
0010
1000
,
0001
1000
0010
0100
0010
1000
0010
1000
,
0001
0100
0001
0100
0010
0100
0001
0010
,
0001
0100
0010
0100
0001
1000
0100
1000
,
0001
0010
0001
0100
0001
1000
0100
1000
,
0100
0010
0100
0010
0001
0010
0001
0100
,
0001
0100
0010
0100
,
0001
1000
0100
0010
0100
0010
0100
1000
,
0010
0100
0010
1000
0100
1000
0100
1000
,
0010
0100
0001
0100
0010
1000
0010
1000
,
0001
0010
0100
0010
0100
0010
0001
1000
,
0001
0100
0010
1000
0100
0000
0100
0000
,
0100
0010
0001
0010
0001
1000
0001
1000
,
0010
1000
0001
0100
0010
0000
0010
0000
,
0100
1000
0100
0010
0100
1000
0010
1000
,
0001
0100
0001
1000
,
0010
1000
0001
0010
,
0001
0000
0000
0000
;

//--------------- dance-single - B. M'Rey ----------------
#NOTEDATA:;
#STEPSTYPE:dance-single;
#DESCRIPTION:B. M'Rey;
#DIFFICULTY:Hard;
#METER:12;
#RADARVALUES:0,0,0,0,0;
#NOTES:
0000
0000
0000
0000
,
0000
0000
0000
0000
,
0001
1000
0001
0010
0000
0100
0000
0010
0000
0100
0000
0010
0001
0000
0010
0000
,
1000
0000
0001
0010
0000
1000
0000
0010
0000
0001
0000
0010
0100
0000
0001
0000
,
0010
0100
0010
0100
0000
0010
0000
0001
0000
0100
0000
0010
0001
0000
0010
0000
,
0100
0000
0010
1000
0000
0010
0000
1000
0000
0001
0000
1000
0100
0000
0100
0000
,
0010
0000
0100
0000
0001
0000
1000
0001
1000
0000
1000
0000
0001
0000
0010
0000
,
0100
0010
0001
0010
0001
1000
0001
0100
,
0010
0000
0100
0010
0000
1000
0000
0001
0000
1000
0000
0010
0100
0000
0010
0000
,
0100
0000
0010
0100
0000
1000
0000
0001
0000
0100
0000
0010
0100
0000
1000
0000
,
0001
0000
1000
0000
0010
0000
1000
0010
1000
0000
0100
0000
0010
0000
1000
0000
,
0001
0000
1000
0001
0000
0100
0000
0010
0000
0100
0000
0010
0100
0000
0100
0000
,
0001
0000
1000
0100
0000
0010
0000
0001
0000
0010
0000
0010
0100
0000
0010
0000
,
1200
0302
0023
0230
,
1300
0010
0001
0100
0000
0001
0000
0010
0000
0100
0000
1000
0010
0000
0001
0010
,
0001
1000
0100
1000
0000
0001
0000
0100
0000
0010
0000
1000
0100
0000
0100
0010
,
0001
0010
0100
1000
0000
0010
0000
0010
0000
1000
0000
0100
0010
0000
0001
1000
,
0001
1000
0100
0010
0000
1000
0000
0001
0000
0010
0000
0010
0100
0000
0100
1000
,
0001
0010
0001
0100
0000
0100
0000
0010
0000
0010
0000
0100
0010
0000
0010
1000
,
0010
0100
0001
0010
0000
0100
0000
0100
0000
1000
0000
1000
0100
0000
0100
0010
,
0100
0000
0001
1000
0000
1000
0000
0100
0000
0010
0000
1000
0100
0000
0010
1000
,
0001
0000
0010
1000
0100
0000
0100
1000
0010
0000
0001
0100
0010
0000
0010
1000
,
0010
0000
0010
1000
0010
0000
0001
1000
0100
0000
0100
1000
0001
0000
0010
1000
,
0010
0000
0001
0100
0001
0000
0010
1000
0010
0000
0001
0010
0100
0000
0100
1000
,
0001
0000
0010
0100
0010
0000
0010
1000
0100
0000
0100
0010
0100
0000
0001
0010
,
0100
0000
0100
1000
0010
0000
0001
0100
0010
0000
0010
1000
0001
0000
0100
0010
,
1000
0100
0001
0010
0000
0001
0000
0100
0000
0010
0000
1000
0100
0000
0001
0100
,
0001
0000
0010
1000
0001
0000
1000
0010
0100
0000
0010
1000
0010
0000
0010
0100
,
0001
0100
0010
1000
0000
0100
0000
0100
0000
1000
0000
0010
0100
0000
0001
1000
,
0001
0000
0010
0100
1000
0000
1000
0001
0100
0000
0010
0100
0010
0000
0010
1000
,
0001
0000
0001
0010
0000
0010
0000
0200
0000
0000
0000
0000
0000
0000
0300
0000
,
0100
0010
0001
0100
0000
0010
0000
0020
0000
0000
0000
0000
0000
0000
0000
0000
,
0030
0000
0000
0000
;
