#TITLE:SNOW;
#ARTIST:RAM;
#GENRE:DRUM'N BASS;
#CREDIT:Hiryuu/B. M'Rey;
#MUSIC:SNOW.ogg;
#BANNER:snow-bn.png;
#BACKGROUND:snow-bg.png;
#CDTITLE:./CDTITLES/BEATMANIA IIDX.PNG;
#SAMPLESTART:32.368;
#SAMPLELENGTH:12;
#OFFSET:-0.201;
#BPMS:0=180;

//--------------- dance-single - B. M'Rey ----------------
#NOTES:
     dance-single:
     B. M'Rey:
     Beginner:
     2:
     0,0,0,0,0:
0000
0000
0000
0000
,
0000
0000
0000
0000
,
0000
0000
0000
0000
,
0000
0000
0000
0000
,
0000
1000
0000
0000
0000
0000
0000
0000
,
0000
0001
0000
0000
0000
0000
0000
0000
,
0000
0100
0000
0000
0000
0000
0000
0000
,
0000
0010
0000
0000
0000
0000
0000
0000
,
0000
1000
0000
0000
0000
1000
0000
0000
,
0000
0010
0000
0000
0000
0010
0000
0000
,
0000
0100
0000
0000
0000
0100
0000
0000
,
0000
0001
0000
0000
0000
0001
0000
0000
,
0000
0200
0000
0000
0000
0000
0000
0000
,
0000
0000
0000
0000
,
0000
0000
0000
0000
,
0000
0010
0000
0010
0000
0010
0000
0310
,
0000
0110
0000
0000
0000
0001
0000
0000
,
0000
1000
0000
0000
0000
0000
0000
0000
,
0000
0100
0000
0000
0000
0010
0000
0000
,
0000
1000
0000
0000
0000
0000
0000
0000
,
0000
1000
0000
0000
0000
0010
0000
0000
,
0000
0100
0000
0000
0000
0000
0000
0000
,
0000
0010
0000
0000
0000
0001
0000
0000
,
0000
0100
0000
0000
0000
0000
0000
0000
,
0000
1001
0000
0000
0000
0010
0000
0000
,
0000
0100
0000
0000
0000
0000
0000
0000
,
0000
0010
0000
0000
0000
0001
0000
0000
,
0000
0100
0000
0000
0000
0000
0000
0000
,
0000
1000
0000
0000
0000
1000
0000
0000
,
0000
0100
0000
0000
0000
0100
0000
0000
,
0000
0010
0000
0000
0000
0010
0000
0000
,
0000
0002
0000
0000
0000
0000
0000
0000
,
0000
0100
0003
0000
0000
1000
0000
0000
,
0000
0100
0000
0000
0000
0000
0000
0000
,
0000
0010
0000
0000
0000
0100
0000
0000
,
0000
0010
0000
0000
0000
0000
0000
0000
,
0000
0001
0000
0000
0000
1000
0000
0000
,
0000
0010
0000
0000
0000
0000
0000
0000
,
0000
0100
0000
0000
0000
0010
0000
0000
,
0000
0100
0000
0000
0000
0000
0000
0000
,
0000
0001
0000
0000
0000
1000
0000
0000
,
0000
0010
0000
0000
0000
0000
0000
0000
,
0000
0100
0000
0000
0000
1000
0000
0000
,
0000
0100
0000
0000
0000
0000
0000
0000
,
0000
0200
0000
0000
0000
0000
0000
0000
,
0000
0000
0000
0000
,
0000
0020
0000
0000
0000
0000
0000
0000
,
0000
0000
0000
0000
,
0330
0001
0000
0000
0000
1000
0000
0000
,
0000
0100
0000
0000
0000
0000
0000
0000
,
0000
0010
0000
0000
0000
0100
0000
0000
,
0000
1000
0000
0000
0000
0000
0000
0000
,
0000
0001
0000
0000
0000
0010
0000
0000
,
0000
0100
0000
0000
0000
0000
0000
0000
,
0000
1000
0000
0000
0000
0100
0000
0000
,
0000
0020
0000
0000
0000
0000
0000
0000
,
0000
0031
0000
0000
0000
0010
0000
0000
,
0000
0100
0000
0000
0000
0000
0000
0000
,
0000
1000
0000
0000
0000
0010
0000
0000
,
0000
1000
0000
0000
0000
0000
0000
0000
,
0000
0100
0000
0000
0000
0010
0000
0000
,
0000
0100
0000
0000
0000
0000
0000
0000
,
0000
0001
0000
0000
0000
1000
0000
0000
,
0000
0020
0000
0000
0000
0000
0000
0000
,
0000
0130
0000
0000
0000
0010
0000
0000
,
0000
0100
0000
0000
0000
0000
0000
0000
,
0000
0001
0000
0000
0000
1000
0000
0000
,
0000
0001
0000
0000
0000
0000
0000
0000
,
0000
0100
0000
0000
0000
0010
0000
0000
,
0000
1000
0000
0000
0000
0000
0000
0000
,
0000
0001
0000
0000
0000
0000
0000
0000
,
0000
0100
0000
0000
0000
0000
0000
0000
,
0000
0010
0000
0000
0000
1000
0000
0000
,
0000
0010
0000
0000
0000
0000
0000
0000
,
0000
0100
0000
0000
0000
0010
0000
0000
,
0000
0100
0000
0000
0000
0000
0000
0000
,
0000
0001
0000
0000
0000
0000
0000
0000
,
0000
0000
0000
1000
0000
0000
0000
0000
,
0000
0000
0000
0010
0000
0000
0000
0000
,
0000
0100
0000
0000
0000
0000
0000
0000
;

//--------------- dance-single - Hiryuu ----------------
#NOTES:
     dance-single:
     Hiryuu:
     Easy:
     5:
     0,0,0,0,0:
0000
0000
0000
0000
,
0000
0000
0000
0000
,
0000
0000
0000
0000
,
0000
0000
0000
0000
,
0000
1000
0000
0000
0000
0000
1000
0000
,
0000
0001
0000
0000
0000
0000
0001
0000
,
0000
0100
0000
0000
0000
0000
0100
0000
,
0000
0010
0000
0000
0000
0000
0010
0000
,
0000
1000
0000
0000
0000
1000
0000
0000
,
0000
0100
0000
0000
0100
0000
0000
0000
,
0000
0010
0000
0000
0000
0010
0000
0000
,
0000
0001
0000
0000
0001
0000
0000
0000
,
0000
1000
0000
0000
0000
0010
0000
0000
,
0000
0100
0000
0000
0001
0000
0000
0000
,
0000
1001
0000
0000
0000
0000
0000
0000
,
0000
0110
0000
0000
0000
0000
0000
0000
,
0000
1000
0000
0000
0000
0100
0000
0000
,
0000
1000
0000
0100
0000
1000
0000
0000
,
0000
0001
0000
0000
0000
0010
0000
0000
,
0000
0001
0000
0010
0000
0001
0000
0000
,
0000
1000
0000
0000
0000
0100
0000
0000
,
0000
0010
0000
0001
0000
1000
0000
0000
,
0000
0001
0000
0000
0000
0100
0000
0000
,
0000
0010
0000
1000
0000
0001
0000
0000
,
0000
1000
0000
0000
0000
0010
0000
0000
,
0000
1000
0000
0001
0000
1000
0000
0000
,
0000
0001
0000
0000
0000
0100
0000
0000
,
0000
0010
0000
0100
0000
0010
0000
0000
,
0000
1000
0000
0000
0000
0100
0000
0000
,
0000
0010
0000
0000
0000
0001
0000
0000
,
0000
0100
0000
0000
0000
0010
0000
0000
,
0000
1000
0000
0001
0000
1000
0000
0001
,
0000
1000
0000
0000
0000
1001
0000
0000
,
0000
0001
0000
0000
0001
0000
0000
0001
,
0000
0010
0000
0000
0000
0110
0000
0000
,
0000
0100
0000
0000
0100
0000
0000
0100
,
0000
1000
0000
0000
0000
1001
0000
0000
,
0000
0001
0000
0000
0010
0000
0000
0100
,
0000
1000
0000
0000
0000
1010
0000
0000
,
0000
0010
0000
0000
0100
0000
0000
0001
,
0000
1000
0000
0000
0000
1001
0000
0000
,
0000
0001
0000
0000
1000
0000
0000
0001
,
0000
0100
0000
0000
0000
0110
0000
0000
,
0000
0010
0000
0000
0100
0000
0000
0010
,
0000
1000
0000
0000
1000
0000
0000
0100
,
0000
0000
0100
0000
0000
0010
0000
0000
,
0010
0000
0000
0001
0000
0000
0001
0000
,
0000
0001
0000
0010
0000
0100
0000
1000
,
0000
0002
0000
0000
0000
0000
0000
0003
,
0000
2002
0000
0000
0000
0000
0000
3003
,
0000
0200
0000
0000
0000
0000
0000
0300
,
0000
0220
0000
0000
0000
0000
0000
0330
,
0000
0002
0000
0000
0000
0000
0000
0003
,
0000
2200
0000
0000
0000
0000
0000
3300
,
0000
0020
0000
0000
0000
0000
0000
0030
,
0000
0202
0000
0000
0000
0000
0000
0303
,
0000
0000
1000
0000
0000
1000
0000
0000
,
2000
0000
0000
0001
0000
0100
0000
3001
,
0000
0000
0001
0000
0000
0001
0000
0000
,
0002
0000
0000
0010
0000
1000
0000
0103
,
0000
0000
0100
0000
0000
0100
0000
0000
,
0200
0000
0000
0001
0000
1000
0000
0310
,
0000
0000
0010
0000
0000
0010
0000
0000
,
0020
0000
0000
0100
0000
0001
0000
1030
,
0000
0001
0000
0000
0000
0001
0000
0000
,
0000
0010
0000
0010
0000
0010
0000
0010
,
0000
0100
0000
0000
0000
0100
0000
0000
,
0000
1000
0000
1000
0000
1000
0000
1000
,
0000
0010
0000
0000
0000
0100
0000
0000
,
0000
0001
0000
0001
0000
0001
0000
0001
,
0000
1000
0000
0000
0000
0100
0000
0000
,
0000
0010
0000
0001
0000
0010
0000
0001
,
0000
1000
0000
0000
1000
0000
0000
0100
,
0000
0000
0100
0000
0000
0010
0000
0000
,
0010
0000
0000
0001
0000
0000
0001
0000
,
0000
0001
0000
0010
0000
0100
0000
1000
,
0000
0001
0000
0000
0001
0000
0000
0010
,
0000
0000
0010
0000
0000
0100
0000
0000
,
0100
0000
0000
1000
0000
0000
1000
0000
,
0000
2002
0000
0000
0000
3003
0000
0000
;

//--------------- dance-single - Hiryuu ----------------
#NOTES:
     dance-single:
     Hiryuu:
     Medium:
     8:
     0,0,0,0,0:
0000
0000
0000
0000
,
0000
0000
0000
0000
,
0000
0000
0000
0000
,
0000
0000
0000
0000
,
0000
1000
0000
0000
0000
0000
1000
0000
,
0000
0000
0001
0000
0000
1000
0000
0000
0001
0000
0000
0000
0000
0000
0000
0000
,
0000
0100
0000
0000
0000
0000
0010
0000
,
0000
0000
0100
0000
0000
0010
0000
0000
0100
0000
0000
0000
0000
0000
0000
0000
,
0000
0000
0001
0000
0000
0001
0000
0000
0010
0000
0000
0000
0010
0000
0000
0000
,
0010
0000
0100
0000
0000
0100
0000
0000
1000
0000
0000
0000
1000
0000
0000
0000
,
1000
0000
0010
0000
0000
0010
0000
0000
0100
0000
0000
0000
0100
0000
0000
0000
,
0100
0000
0001
0000
0000
0001
0000
0000
1000
0000
0000
0000
1000
0000
0000
0000
,
1000
0000
0001
0000
0000
0001
0000
0000
0001
0000
0000
0000
0001
0000
0000
0000
,
0001
0000
1000
0000
0000
1000
0000
0000
1000
0000
0000
0000
1000
0000
0000
0000
,
1000
0000
0000
0000
,
0000
2002
0000
0000
0000
0000
0000
3003
,
0000
0001
0000
0010
0000
0001
0000
0010
,
0000
0001
0001
0010
0001
0001
0010
0001
,
0001
1000
0000
0100
0000
1000
0000
0100
,
0000
1000
1000
0100
1000
1000
0100
1000
,
1000
0001
0000
0010
0000
0100
0000
1000
,
0000
0001
0001
0010
0100
0100
1000
0001
,
0001
1000
0000
0100
0000
0010
0000
0001
,
0000
1000
1000
0100
0010
0010
0001
1000
,
1000
0000
0001
0000
0000
0010
0000
0000
0001
0000
0000
0010
0000
0000
0001
0000
,
0010
0001
0010
0100
1000
0100
0010
0001
,
1000
0000
0010
0000
0000
0100
0000
0000
0010
0000
0000
0100
0000
0000
0010
0000
,
0100
0010
1000
0001
1000
0100
0010
0001
,
1000
0000
0001
0000
0000
0010
0000
0000
0100
0000
0000
1000
0000
0000
0010
0000
,
0000
0100
0000
0000
0001
0000
0000
1000
0000
0000
0010
0000
0000
0100
0000
0000
,
0001
0000
0000
1000
0000
0000
0100
0000
0000
0010
0000
0000
0001
0000
0000
1000
,
0000
0220
0000
0000
0000
0000
0000
0330
,
0000
1000
0000
0000
1001
0000
0000
0001
,
0000
0100
0010
0000
1000
0000
0000
0100
,
0000
0010
0000
0000
0110
0000
0000
0100
,
0000
1000
0010
0000
0100
0000
0000
0001
,
0000
1000
0000
0000
1100
0000
0000
0100
,
0000
0010
0001
0000
0100
0000
0000
0010
,
0000
0100
0000
0000
0101
0000
0000
0001
,
0000
0010
0100
0000
1000
0000
0000
0001
,
0000
1000
0000
0001
1000
0000
1000
0001
,
0000
1001
0000
0000
0110
0000
0000
1001
,
0000
0010
0000
0100
0010
0000
0010
0100
,
0000
0110
0000
0000
1001
0000
0000
0110
,
0000
0000
0001
0000
0000
1000
0000
0000
0001
0000
0000
1000
0000
0000
0010
0000
,
0000
0100
0000
0000
0010
0000
0000
0100
0000
0000
0001
0000
0000
0010
0000
0000
,
0100
0000
0000
1000
0000
0000
0100
0000
0000
0010
0000
0000
0001
0000
0000
1000
,
0000
2002
0000
0000
0000
0000
0000
3003
,
0000
1001
0000
0000
1001
0000
0000
1001
,
0000
0001
0010
0100
1000
0001
1000
0001
,
0000
0011
0000
0000
0011
0000
0000
0011
,
0000
0010
0001
1000
0100
0010
0001
1000
,
0000
1100
0000
0000
1100
0000
0000
1100
,
0000
0100
1000
0001
0010
0100
1000
0010
,
0000
0110
0000
0000
0110
0000
0000
0110
,
0000
0010
1000
0100
0010
0001
0010
0100
,
1000
0001
1000
1000
0000
0001
0001
0000
,
1000
1000
0001
0010
0001
0010
0001
0010
,
0001
0010
0001
0001
0000
0010
0010
0000
,
0100
0100
0010
0100
0010
0100
0010
0100
,
0010
0100
1000
1000
0000
0001
0001
0000
,
1000
1000
0001
1000
0001
1000
0001
1000
,
0001
1000
0010
0010
0000
0100
0100
0000
,
0001
0001
0010
0100
1000
0100
0010
0001
,
1000
0000
0001
0000
0000
1000
0000
0000
0001
0000
0000
0000
1000
0000
0001
0000
,
1000
0001
0010
0100
1000
0100
0010
0001
,
1000
0000
0001
0000
0000
0010
0000
0000
0100
0000
0000
0000
0010
0000
0001
0000
,
0010
0100
1000
0100
0010
0001
0010
0100
,
1000
0000
0100
0000
0000
1000
0000
0000
0100
0000
0000
0000
1000
0000
0100
0000
,
0010
0001
0010
0001
0010
0100
1000
0100
,
1000
0000
0100
0000
0000
1000
0000
0000
0100
0000
0000
0000
1000
0000
0100
0000
,
0010
0001
0100
0010
1000
0100
0010
0001
,
1000
0000
0001
0000
0000
0010
0000
0000
0100
0000
0000
1000
0000
0000
0010
0000
,
0000
0100
0000
0000
0001
0000
0000
1000
0000
0000
0100
0000
0000
0010
0000
0000
,
0001
0000
0000
1000
0000
0000
0100
0000
0000
0010
0000
0000
0100
0000
0000
1000
,
0000
0001
0010
0100
0010
0001
1000
0100
,
1000
0000
0001
0000
0000
0010
0000
0000
0001
0000
0000
0010
0000
0000
0100
0000
,
0000
1000
0000
0000
0100
0000
0000
1000
0000
0000
0001
0000
0000
1000
0000
0000
,
0001
0000
0000
1000
0000
0000
0001
0000
0000
0100
0000
0000
1000
0000
0000
0100
,
0000
0101
0000
0000
0000
0000
0000
0000
;

//--------------- dance-single - Hiryuu ----------------
#NOTES:
     dance-single:
     Hiryuu:
     Hard:
     9:
     0,0,0,0,0:
0000
0000
0000
0000
,
0000
0000
0000
0000
,
0000
0000
0000
0000
,
0000
0000
0000
0000
,
0000
0000
1000
0000
0000
1100
0000
0000
1000
0000
0000
0000
0001
0000
0010
0000
,
0100
0000
1000
0000
0000
1001
0000
0000
1000
0000
0000
0000
0001
0000
1000
0000
,
0010
0000
0100
0000
0000
0101
0000
0000
0100
0000
0000
0000
0001
0000
0100
0000
,
0010
0000
1000
0000
0000
1010
0000
0000
1000
0000
0000
0000
0001
0000
1000
0000
,
0010
0000
0100
0000
0000
0100
0000
0000
0101
0000
0000
0000
0001
0000
0000
0000
,
0001
0000
1000
0000
0000
1000
0000
0000
1010
0000
0000
0000
0010
0000
1000
0000
,
0001
0000
0100
0000
0000
0100
0000
0000
0110
0000
0000
0000
0010
0000
0000
0000
,
1000
0000
0001
0000
0000
0001
0000
0000
0101
0000
0000
0000
0100
0000
0001
0000
,
1000
0000
0012
0000
0000
0010
0000
0000
0010
0000
0000
0000
0010
0000
0000
0000
,
1000
0000
1000
0000
0000
1000
0000
0000
1000
0000
0000
0000
1000
0000
0000
0000
,
2000
0000
0000
0000
0000
0000
0000
3003
,
0000
0000
1000
0000
0000
0100
0000
0000
0010
0000
0000
0000
0001
0000
1000
0000
,
0001
0000
1000
0000
0000
0100
0000
0000
1000
0000
0000
0000
0100
0000
1000
0000
,
0001
0100
0100
0001
0100
0100
0010
1000
,
0001
0000
0100
0000
0000
0001
0000
0000
0100
0000
0000
0000
0001
0000
0100
0000
,
0010
1000
1000
0100
1000
1000
0010
1000
,
0001
0000
1000
0000
0000
0100
0000
0000
0010
0000
0000
0000
0001
0000
0010
0000
,
0100
0010
0010
0001
0010
0010
0100
0010
,
0001
0000
1000
0000
0000
0010
0000
0000
0100
0000
0000
0000
0001
0000
1000
0000
,
0100
0010
0010
0100
0010
0010
0001
1000
,
0001
0000
1000
0000
0000
1001
0000
0000
0001
0000
0000
0000
1000
0000
0100
0000
,
1000
0001
0001
0010
0100
0100
0010
0001
,
1000
0000
0001
0000
0000
0101
0000
0000
0001
0000
0000
0000
1000
0000
0100
0000
,
1000
0010
0010
0100
0001
0001
0010
0100
,
1000
0000
0002
0000
0000
0010
0003
0000
0200
0000
0000
1000
0300
0000
2000
0000
,
0000
0010
3000
0000
0200
0000
0000
0001
0300
0000
0002
0000
0000
1000
0003
0000
,
2000
0000
0000
0010
3000
0000
0200
0000
0000
0001
0300
0000
0002
0000
0000
1000
,
0003
1000
0100
0010
0001
0010
0100
1000
,
0001
1000
0000
0100
1000
0000
1000
0100
,
0000
0000
1000
0001
1000
0000
0000
0000
1001
0000
0000
0000
0000
0000
0110
0000
,
0000
0001
0000
0010
0001
0000
0001
0010
,
0000
0000
0001
0010
0001
0000
0000
0000
0101
0000
0000
0000
0000
0000
0011
0000
,
0000
0100
0000
0001
0100
0000
0100
0001
,
0000
0000
1000
0100
1000
0000
0000
0000
1100
0000
0000
0000
0000
0000
0011
0000
,
0000
0010
0000
0001
1000
0000
1000
0001
,
0000
0000
1000
0010
1000
0000
0000
0000
1010
0000
0000
0000
0000
0000
0101
0000
,
0000
1001
0000
0001
1001
0000
1000
1001
,
0000
0000
0001
0010
0001
0000
0000
0000
0011
0000
0000
0000
0000
0000
1100
0000
,
0000
1010
0000
1000
1010
0000
0010
1010
,
0000
0000
1000
0100
1000
0000
0000
0000
1100
0000
0000
0000
0000
0000
0011
0000
,
0000
0000
0002
0000
0000
0010
0003
0000
0020
0000
0000
0100
0030
0000
0200
0000
,
0000
1000
0300
0000
2000
0000
0000
0001
3000
0000
0002
0000
0000
0100
0003
0000
,
0200
0000
0000
0010
0300
0000
0020
0000
0000
1000
0030
0000
2000
0000
0000
0001
,
3000
0001
1000
0100
0010
0001
0010
0100
,
1000
0002
0000
0000
2003
0000
0000
3002
,
0000
1003
0100
0010
0001
0100
0010
0110
,
0000
0020
0000
0000
0230
0000
0000
0320
,
0000
1030
0010
0100
0001
0010
0100
1001
,
0000
2000
0000
0000
3200
0000
0000
0320
,
0000
0031
0010
0100
1000
0010
0100
1001
,
0000
2000
0000
0000
3020
0000
0000
0230
,
0000
0301
0010
0100
1000
0100
0010
0001
,
1000
0001
1000
1000
0001
1000
1000
0010
,
0100
0000
0100
0010
0100
0000
0010
0000
1000
0010
0000
0010
1000
0000
1010
0000
,
0000
0010
0100
0100
0010
0100
0100
0001
,
0010
0000
0010
0001
0010
0000
0001
0000
0100
0001
0000
0001
0100
0000
0101
0000
,
0000
0001
0100
0100
0001
0100
0100
0010
,
1000
0000
1000
0001
1000
0000
0001
0000
1000
0001
0000
0001
1000
0000
1001
0000
,
0000
1000
0100
0100
1000
0100
0100
0010
,
0001
0001
0010
0100
1000
0100
0010
0001
,
1000
0000
0001
0000
0000
0101
0000
0000
0001
0000
0000
0000
1000
0000
0010
0000
,
0100
0001
0001
1000
0001
0001
1000
0010
,
1000
0000
0010
0000
0000
1010
0000
0000
0010
0000
0000
0000
1000
0000
0100
0000
,
0010
0001
0001
0100
0010
0010
1000
0100
,
1000
0000
0001
0000
0000
0101
0000
0000
0001
0000
0000
0000
0010
0000
0001
0000
,
0100
0010
0010
1000
0010
0010
0100
0001
,
1000
0000
0001
0000
0000
0101
0000
0000
0001
0000
0000
0000
1000
0000
0100
0000
,
1000
0010
0100
0010
0100
0001
1000
0001
,
1000
0000
0002
0000
0000
1000
0003
0000
2000
0000
0000
0001
3000
0000
0001
0000
,
1000
0001
0010
0100
1000
0100
0010
0001
,
1000
0000
0020
0000
0000
0100
0030
0000
0200
0000
0000
0010
0300
0000
0010
0000
,
0100
0001
0100
0010
1000
0100
0010
0001
,
1000
0000
0002
0000
0000
0010
0003
0000
0020
0000
0000
0100
0030
0000
0200
0000
,
0000
1000
0300
0000
2000
0000
0000
0010
3000
0000
0020
0000
0000
0100
0030
0000
,
0200
0000
0000
0001
0300
0000
0002
0000
0000
0010
0003
0000
2000
0000
0000
0010
,
3000
0022
0000
0030
0003
0000
0000
0000
;

//--------------- dance-single - B. M'Rey ----------------
#NOTES:
     dance-single:
     B. M'Rey:
     Challenge:
     10:
     0,0,0,0,0:
0000
0000
0000
0000
,
0000
0000
0000
0000
,
0000
0000
0000
0000
,
0000
0000
0000
0000
,
1000
0000
0001
1000
0001
0000
0100
0000
0010
0100
0010
0000
0001
0000
1000
0010
,
1000
0100
0001
0010
0001
0100
0010
1000
,
0100
0000
0010
0100
0010
0000
0001
0000
0010
1000
0010
0000
0100
0000
0010
0100
,
0010
0100
0010
1000
0100
0010
0100
0010
,
0000
0000
1001
0000
0001
0010
0001
0000
0100
0000
0010
1000
0010
0000
0100
0000
,
0010
0100
0010
0000
0100
0000
0010
0001
0010
0000
0010
0000
0100
0010
0100
0000
,
0001
0000
1000
0010
1000
0000
0100
0000
0001
0010
0001
0000
0001
0000
0100
0001
,
0100
0000
0010
0000
0100
0010
0100
0000
0100
0000
1000
0010
1000
0000
0100
0000
,
0010
0010
0000
1000
0000
0001
0000
1000
,
0000
0100
0000
0010
0000
0100
0000
0010
,
0000
0100
0000
0000
0000
0000
0000
0000
,
0000
0100
0010
0001
1000
0010
0100
0001
,
0010
0000
0100
1000
0000
1000
0010
0000
1000
0001
0000
0001
0100
0000
0001
0000
,
0100
0000
1000
0010
1000
0000
0010
0000
1000
0000
0001
0000
0010
0000
0100
0000
,
1000
0000
0100
0010
0000
0010
0001
0000
0010
0001
0000
0001
1000
0100
1000
0000
,
1000
0000
0001
0000
0010
0000
0100
0000
0000
1000
0001
0000
0100
0000
0010
0000
,
1000
0000
0001
0010
0000
0010
0001
0000
1000
0100
0000
0100
1000
0000
0100
0010
,
0100
0001
1000
0001
0000
0001
0100
0010
,
1000
0000
0100
1000
0000
1000
0100
0000
1000
0010
0000
0010
0100
0000
0001
1000
,
0001
0100
1000
0100
0000
0100
0010
0001
,
1000
0000
0101
0000
0000
0100
0001
0000
0100
0010
0000
0010
0100
0000
0001
1000
,
0001
0001
0010
0001
0000
0100
1000
0100
,
1000
0000
0010
0100
0000
0100
0001
0000
1000
0010
0000
0010
0100
0000
0010
1000
,
0010
0001
0100
0010
0000
0001
0100
0001
,
0010
0000
1100
0000
0000
0110
0000
0000
0101
0000
0000
0110
0000
0000
1010
0000
,
0000
1001
0000
0000
1010
0000
0000
0110
0000
0000
0101
0000
0000
0110
0000
0000
,
1000
0001
1000
0001
0010
0100
0010
0001
,
0100
0000
0100
0000
0000
1000
0000
0000
0100
0000
0000
0010
0000
0000
0001
0000
,
1000
0000
0001
0000
0100
1000
0100
0000
0001
0000
1000
0010
1000
0000
0100
0000
,
0010
1000
0110
0000
0000
0000
0000
0110
0000
0000
0000
0000
0001
0000
1000
0000
,
0001
0000
0010
0001
0010
0000
0100
0010
0100
0000
0100
0001
0100
0000
0100
0000
,
0001
0000
0110
0000
0000
0000
0000
0011
0000
0000
1000
0000
0001
0000
1000
0000
,
0001
0000
0010
0000
0100
1000
0100
0000
0010
0000
0100
0001
0100
0000
0010
0000
,
0001
1000
1001
0000
0000
0000
0000
0110
0000
0000
0000
0000
0100
0000
1000
0000
,
0001
0000
0010
0001
0010
0000
1000
0100
1000
0000
0010
0001
0010
0000
0010
0100
,
0010
0000
1100
0000
0000
0000
0000
1010
0000
0000
0000
0000
0001
0000
1000
0000
,
0001
0000
0101
0000
0001
1000
0001
0000
0010
0000
1000
0001
1000
0000
0010
0000
,
0001
1000
0001
0000
0010
0100
0000
0010
0001
0000
0100
0010
0000
0000
0100
0000
,
0001
0000
1000
0000
0010
0100
0010
0000
0010
0000
0100
0001
0100
0000
0010
0100
,
0010
0000
0010
0100
0000
0100
1000
0000
0001
0010
0000
0010
0001
0000
0010
0000
,
1000
0000
0010
0000
0000
1000
0000
0000
0010
0000
0000
0100
0000
0000
0001
0000
,
0000
0100
0000
0000
0010
0000
0000
0100
0000
0000
1000
0000
0000
0010
0000
0000
,
0100
0000
0000
0010
0000
0000
0100
0000
0000
0001
0000
0000
0010
0000
0000
0100
,
0000
1000
0100
0001
1000
0100
0010
0100
,
0010
0000
0100
1000
0100
0000
0010
0000
0100
0010
0100
0000
0001
0000
0010
1000
,
0010
0000
0100
0010
0100
0010
0100
0000
0001
0000
0010
1000
0010
1000
0010
0000
,
0100
0000
0001
1000
0001
0000
1000
0000
0010
0100
0010
0000
0001
0000
0001
1000
,
0001
0000
0010
1000
0010
1000
0100
0000
0010
0000
0100
0010
0001
0100
0001
0010
,
0001
0000
0100
0010
0100
0000
0100
0000
0001
0010
0001
0000
0010
0000
0010
1000
,
0010
0100
0001
0000
0100
0010
0100
1000
0100
0010
0100
0000
0100
1000
0001
0100
,
0001
0100
0001
0000
0100
0010
0100
0000
0001
1000
0100
0000
0001
1000
0010
0100
,
0010
0001
1000
0010
0100
0001
1000
0100
,
0010
0000
0100
1000
0100
1000
0100
0000
0001
0010
0001
0010
0100
0000
0100
1000
,
0100
1000
0001
0010
0001
0010
0100
0000
0100
1000
0100
0010
0001
0100
0001
0000
,
0001
0000
0010
0100
0001
0100
0001
0000
0010
1000
0100
1000
0100
0000
0010
0100
,
0010
0100
0001
0000
0001
1000
0100
0000
0100
0000
0001
0010
0001
0010
0001
1000
,
0100
0000
0100
1000
0010
0100
0010
0000
0010
1000
0001
1000
0001
0000
0001
0100
,
0010
1000
0010
0000
0010
0100
0001
0000
0001
0000
0010
1000
0010
1000
0010
0000
,
0001
0000
0001
1000
0001
1000
0100
0000
0100
1000
0100
1000
0010
0000
0010
0100
,
0010
0100
0001
0000
1000
0000
0001
0000
0100
0000
0001
0000
0100
0000
0010
0000
,
0100
0000
0100
1000
0000
1000
0010
0000
1000
0001
0000
0001
0100
0000
0001
0000
,
0100
0000
1000
0010
1000
0000
0010
0000
1000
0000
0001
0000
0010
0000
0100
0000
,
1000
0000
0100
0010
0000
0010
0001
0000
0010
0001
0000
0001
1000
0100
1000
0000
,
1000
0000
0001
0000
0010
0000
0100
0000
0000
1000
0001
0000
0100
0000
0010
0000
,
1000
0000
0001
0010
0000
0010
0001
0000
1000
0100
0000
0100
1000
0000
0100
0010
,
0100
0001
1000
0001
0000
0001
0100
0010
,
1000
0000
0100
1000
0000
1000
0100
0000
1000
0010
0000
0010
0100
0000
0001
1000
,
0001
0001
1000
0001
1000
0001
0100
0010
,
0100
0000
0101
0000
0000
0001
1000
0000
1000
0001
0000
0010
0100
0000
0100
0001
,
0000
0001
1000
0000
0010
0100
0000
0100
0010
0000
0010
0001
0000
0001
0010
0000
,
0010
0100
0000
0100
1000
0000
1000
0010
0000
0010
0100
0000
0100
0001
0000
0001
,
1000
0001
0100
0010
1000
0001
0100
0001
,
0010
0000
1100
0000
0000
0110
0000
0000
0101
0000
0000
0110
0000
0000
1010
0000
,
0000
1001
0000
0000
1010
0000
0000
0110
0000
0000
0101
0000
0000
0110
0000
0000
,
1001
0000
0000
1010
0000
0000
0011
0000
0000
0110
0000
0000
0011
0000
0000
1100
,
0000
0220
0000
0000
0000
0000
0000
0330
;
