#TITLE:SMOOTH CRIMINAL;
#SUBTITLE:;
#ARTIST:SPEEDOGANG;
#TITLETRANSLIT:;
#SUBTITLETRANSLIT:;
#ARTISTTRANSLIT:;
#GENRE:;
#CREDIT:;
#MUSIC:SMOOTH CRIMINAL.ogg;
#BANNER:SMOOTH CRIMINAL-bn.png;
#BACKGROUND:SMOOTH CRIMINAL-bg.png;
#CDTITLE:./CDTITLES/DANCEMANIA/PRESENTS NATSU MONOGATARI SPEED.PNG;
#SAMPLESTART:23.303;
#SAMPLELENGTH:12.000;
#SELECTABLE:YES;
#OFFSET:-0.037;
#BPMS:0.000=165.045;
#STOPS:;
#BGCHANGES:;
#FGCHANGES:;

//--------------- dance-single - B. M'Rey ----------------
#NOTES:
     dance-single:
     B. M'Rey:
     Beginner:
     1:
     0,0,0,0,0:
0000
0000
0000
0000
,
0000
0000
0000
0000
,
0000
0000
0000
0000
,
0000
0000
0000
0000
,
1000
0000
0000
0000
,
0010
0000
0100
0000
,
0001
0000
0000
0000
,
0010
0000
0000
0000
,
1000
0000
0010
0000
,
0100
0000
0001
0000
,
0000
1000
0000
0000
,
0001
0000
0100
0000
,
0000
0010
0000
0000
,
1000
0000
0010
0000
,
0100
0000
0001
0000
,
0010
0000
0001
0000
,
1000
0000
0000
0000
,
0010
0000
0100
0000
,
0001
0000
0000
0000
,
0010
0000
1000
0000
,
0100
0000
0000
0000
,
0001
0000
0010
0000
,
1000
0000
0000
0000
,
0001
0000
0000
0000
,
1000
0000
0010
0000
,
0100
0000
0001
0000
,
0000
1000
0000
0000
,
0010
0000
0100
0000
,
0001
0000
1000
0000
,
0010
0000
0100
0000
,
0000
0001
0000
0000
,
1000
0000
0010
0000
,
0100
0000
0000
0000
,
1000
0000
0000
0000
,
0001
0000
0000
0000
,
0010
0000
0000
0000
,
0100
0000
0000
0000
,
1000
0000
0000
0000
,
0010
0000
0000
0000
,
0001
0000
0000
0000
,
1000
0000
1000
0000
,
0001
0000
0001
0000
,
0100
0000
0100
0000
,
0010
0000
0010
0000
,
1000
0000
1000
0000
,
0001
0000
0001
0000
,
0100
0000
0100
0000
,
0010
0000
0010
0000
,
1001
0000
0000
0000
,
0000
0000
0000
0000
,
0000
0000
0000
0000
,
0000
0000
0000
0000
,
1000
0000
0100
0000
,
1000
0000
0010
0000
,
0000
0000
0100
0000
,
0001
0000
0010
0000
,
1000
0000
0010
0000
,
0100
0000
0001
0000
,
0000
0000
1000
0000
,
0010
0000
0100
0000
,
0000
0000
0001
0000
,
0010
0000
0001
0000
,
0000
0000
0100
0000
,
1000
0000
0010
0000
,
1000
0000
0000
0000
,
0010
0000
0000
0000
,
0100
0000
0000
0000
,
0001
0000
0000
0000
,
1000
0000
0000
0000
,
0010
0000
0000
0000
,
0100
0000
0000
0000
,
0010
0000
0000
0000
,
0001
0000
0000
0000
,
0000
0000
0000
0000
,
1000
0000
0000
0000
,
0000
0000
0000
0000
,
0100
0000
0000
0000
,
0000
0000
0000
0000
,
0010
0000
0000
0000
;

//--------------- dance-single - B. M'Rey ----------------
#NOTES:
     dance-single:
     B. M'Rey:
     Easy:
     4:
     0,0,0,0,0:
0000
0000
0000
0000
,
0000
0000
0000
0000
,
0000
0000
0000
0000
,
0000
0000
0000
0000
,
1000
0000
1000
0000
,
0001
0000
0001
0000
,
0100
0000
0100
0000
,
0010
0000
0000
0000
0000
0000
0000
1001
,
1000
0001
1000
0001
,
1000
0010
0100
0000
,
0100
0010
1000
0001
,
1000
0001
1000
0000
,
0010
0100
0010
0100
,
1000
0010
1000
0000
,
1000
0001
0010
0001
,
1000
0001
1000
0000
,
0010
0000
0010
0000
,
1000
0000
0001
1001
,
0010
0000
0100
0000
,
0010
0000
1000
1001
,
0010
0000
0100
0000
,
0010
0000
0001
0101
,
0010
0100
0000
1000
,
0010
0000
0100
0001
,
0001
1000
0001
0000
,
0010
0000
0100
0000
,
0100
0010
0100
0000
,
1000
0000
0010
0100
,
1000
0001
0010
0000
,
1000
0000
0100
0010
,
0001
1000
0100
0000
,
0010
0000
1000
0010
,
0100
0000
0001
0000
,
1000
0000
0010
0000
,
0100
0000
1000
0000
,
0100
0000
1000
0000
,
0010
0000
0100
0000
,
0001
0000
0010
0000
,
0001
0000
0100
0100
,
0010
0000
1000
0000
,
1000
0001
0010
0001
,
0010
0001
0100
0010
,
0100
0001
0100
0001
,
1000
0010
0100
0010
,
1000
0010
1000
0001
,
1000
0100
0010
0001
,
0010
0001
0010
0100
,
1000
0100
1000
0001
,
0100
0000
0001
0000
,
1000
0000
0100
0000
,
0001
0000
1000
0000
,
0100
0000
0001
0000
,
0010
0000
0010
0000
,
1000
0000
0001
0000
,
0100
0000
0010
0000
,
1000
0000
1000
0000
,
0001
0010
1000
0000
,
0010
0000
0100
0010
,
1000
0010
0001
0000
,
0010
0000
0100
0010
,
0001
0010
1000
0000
,
0010
0000
0100
0010
,
1000
0001
0010
0000
,
0100
0000
0001
1000
,
0010
0000
0100
0000
,
0001
0000
1000
0100
,
0010
0000
0100
0000
,
0010
0000
1000
0010
,
0001
0000
0010
0000
,
0001
0000
0100
1000
,
0010
0000
1000
0000
,
0010
0000
0100
0001
,
1001
0000
0100
0000
,
0100
0000
0010
0000
,
0001
0000
1000
0000
,
0010
0000
0100
0000
,
0010
0000
1000
0000
,
0001
0000
0010
0000
,
0001
0000
0100
0000
,
0010
0000
1000
1001
;

//--------------- dance-single - B. M'Rey ----------------
#NOTES:
     dance-single:
     B. M'Rey:
     Medium:
     7:
     0,0,0,0,0:
0000
0000
0000
0000
,
0000
0000
0000
0000
,
0000
0000
0000
0000
,
0000
0000
0000
0000
,
1000
0100
1000
0010
,
1000
0010
0100
0010
,
0100
0001
0100
0001
,
1000
0000
0000
0000
0000
0000
0000
0010
,
1000
0001
0100
0000
1010
0000
0100
0000
,
0011
0000
0100
0001
1000
0000
0010
0000
,
1000
0001
0010
0000
1010
0000
0001
0000
,
0110
0000
0001
1000
0100
0010
0001
0000
,
1000
0010
0100
0001
1010
0000
0010
0000
,
1010
0000
0010
0001
0100
1000
0010
0000
,
0100
0010
0001
0000
0110
0000
0001
0000
,
0110
0000
0001
0010
1000
0000
0010
0000
,
1000
0001
0010
0000
1000
0000
0001
1000
,
0010
0001
0110
0011
,
1000
0001
0100
0000
1000
0000
0100
0001
,
1000
0001
0110
0011
,
0010
0100
0001
0000
1000
0000
0010
0001
,
1000
0100
1010
0110
,
0100
0000
0001
0100
0000
0000
0001
0000
,
0100
0010
0000
0000
1001
0000
0001
1000
,
0000
0000
0001
0010
1000
0000
0100
0000
,
0010
0001
0100
0000
0010
1000
0100
0000
,
1000
0000
0001
0010
1000
0000
0001
0000
,
1000
0001
0010
0000
0100
0000
0001
0000
,
0010
1000
0001
0000
0110
0000
0001
0000
,
1001
0000
0100
0001
1000
0000
0010
0000
,
1000
0001
0010
1000
0110
0000
0010
0000
,
0101
0000
0001
0000
0100
0010
0001
0000
,
1010
0001
0010
0100
,
1000
0001
0100
0001
,
0100
0001
1000
0010
,
1000
0010
1000
0001
,
0010
0100
0010
0100
,
0010
0001
0100
0001
,
0100
0010
1010
0110
,
0220
0330
1000
0001
,
0010
0000
0001
0000
1000
0010
0001
0000
,
0010
0000
0100
1000
0010
0000
0100
0000
,
0010
0000
0001
0000
1000
0001
0100
0000
,
1000
0000
0001
0000
1000
0010
0001
0000
,
0100
0000
0001
0000
0100
1000
0010
0000
,
0100
0000
0010
0000
1000
0001
0010
0000
,
1000
0000
0001
0000
1000
0010
0100
0000
,
0010
0000
0100
0000
1000
0001
0100
0000
,
1010
0010
1000
0100
,
0010
0100
0010
0100
,
1000
0001
0100
0010
,
0100
0010
0100
0001
,
1000
0001
1000
0001
,
0100
0010
0100
0001
,
0100
0010
1000
0001
,
1000
0001
1000
0000
,
0010
0000
0001
1000
0010
0000
0100
0000
,
0010
0001
0100
0000
1000
0010
0100
0000
,
1000
0000
0001
0010
1000
0000
0001
0000
,
0010
1000
0001
0000
0110
0000
0101
0000
,
0010
0000
0100
0001
1000
0000
0001
0000
,
0110
0000
0001
0000
1000
0010
0001
0000
,
0100
0000
0010
0000
1000
0001
0010
0000
,
0100
1000
0001
0000
1000
0000
0001
0000
,
1001
0001
0100
0010
,
0100
0000
0010
0000
1000
0010
0001
0000
,
1000
0010
1000
0001
,
0100
0000
0010
0000
0100
0001
0010
0000
,
0100
0001
1000
0001
,
1000
0000
0010
0000
1000
0010
0001
0000
,
0010
0001
0010
0100
,
0010
0000
0100
0000
1000
0001
0100
0000
,
1000
0010
1000
0010
,
0100
0001
1000
0001
,
1000
0100
1000
0100
,
0010
0100
0010
0001
,
0010
0001
1000
0100
,
1000
0100
0010
0100
,
0010
0001
0010
0001
,
0100
0000
0001
0000
0100
0000
0010
0002
,
0000
0000
0000
0000
,
0003
0000
0000
0000
;

//--------------- dance-single - B. M'Rey ----------------
#NOTES:
     dance-single:
     B. M'Rey:
     Hard:
     9:
     0,0,0,0,0:
0000
0000
0000
0000
,
0000
0000
0000
0000
,
0000
0000
0000
0000
,
0000
0000
0000
0000
,
1000
0001
1000
0000
1000
0000
0100
0000
,
0100
0000
0001
0100
0000
0000
0010
0000
1000
0000
0001
1000
0000
0000
0001
0000
,
0010
0000
0010
0100
0010
0000
0100
0000
,
0100
0000
0010
0100
0000
0000
0010
0000
1000
0000
0010
0100
0000
0000
1001
0000
,
1000
0000
0001
0000
1000
0000
0001
0100
0010
0000
0100
0000
0010
0000
0100
1000
,
0010
0000
0001
0000
0100
0000
0001
0010
0100
0000
0001
0000
1000
0000
0100
0000
,
1000
0000
0100
0010
1000
0100
0001
0000
0100
0000
0001
0100
0010
0000
0001
0000
,
1000
0010
0100
0000
1000
0000
0100
0010
1000
0000
0010
0000
0100
0000
0010
0000
,
0100
0000
0010
0001
1000
0010
0001
0010
0100
0000
0001
0000
0100
0000
0001
0010
,
1000
0000
0010
0000
1000
0000
0010
0100
1000
0000
0100
0000
0010
0000
0100
0000
,
0010
0000
0100
0001
1000
0010
0001
0000
1000
0000
0100
0000
1000
0000
0100
0001
,
0010
0000
0100
0000
0010
0000
0001
1000
0010
0000
0001
0000
1000
0000
0001
0000
,
1000
0010
0100
0001
1000
0000
0010
0000
0100
0000
0010
0000
0100
0001
0010
0100
,
1000
0000
0100
0000
0010
0000
0100
0001
0010
0000
0100
0000
1001
0000
0000
0000
,
1000
0010
0001
0100
1000
0000
0010
0000
0100
0000
0010
0000
0100
0001
0010
0100
,
1000
0000
0001
0000
0010
0000
0001
0010
1000
0000
0001
0000
0110
0000
0000
0000
,
0010
0001
0100
1000
0010
0000
0001
0000
1000
0000
0001
0000
0100
0010
0001
1000
,
0100
0000
0010
0000
1000
0000
0010
0001
1000
0000
0010
0000
0101
0000
0000
0000
,
0100
0100
0010
0010
1000
0000
0100
0100
,
0001
0000
0001
0000
0000
0000
0010
0000
1000
0000
0000
0000
0010
0001
0010
0000
,
1001
0000
0000
0000
1000
0001
0010
0100
1000
0000
0010
0000
1000
0000
0001
0100
,
0010
0000
0001
0000
0010
0000
0001
0010
0100
0000
0010
0000
0100
0000
0010
0000
,
0100
0000
0001
0010
1000
0100
0001
0010
0100
0000
0001
0000
0100
0000
0010
1000
,
0100
0000
0010
0000
1000
0000
0001
0010
1000
0000
0001
0000
1010
0000
0000
0000
,
0110
0000
0001
0010
1000
0000
0001
0000
0011
0000
0000
0000
0010
0000
0100
0000
,
0110
0000
1000
0100
1010
0000
1000
0100
,
0010
0000
0100
0001
0010
0000
0100
0000
1001
0000
0000
0000
1000
0000
0001
0000
,
1100
0000
0010
0001
0011
0000
0100
0001
,
0110
1000
0010
1000
,
0010
1000
0100
0010
,
0100
0010
0100
1000
,
0010
0100
0010
0100
,
0010
0000
1000
1000
0001
0000
0100
0100
,
0001
0000
0100
0100
0001
0000
0010
0000
,
0100
0000
0010
0000
0100
0100
0010
0000
,
0001
0001
0100
0000
0001
0001
0100
0000
,
1000
0001
1000
0010
0100
0010
0100
0010
,
1000
0100
0010
0100
1000
0100
0010
0001
,
1000
0010
1000
0010
0100
0010
1000
0001
,
1000
0001
0100
0001
0100
0010
1000
0010
,
1000
0001
1000
0001
0010
0001
0010
0100
,
0010
0100
1000
0100
1000
0001
1000
0001
,
0100
0001
0010
0100
1000
0100
0010
0100
,
0010
0001
0010
0001
1000
0001
1000
0010
,
1010
0000
0100
0010
0100
0001
0000
0001
,
1000
0010
0000
0010
1000
0100
0000
0100
,
0000
0100
1000
0010
1000
0010
0000
0010
,
1000
0001
0000
0001
1000
0010
0100
0000
,
0100
0010
1000
0001
1001
0000
1000
0010
,
0110
0000
0100
0001
0101
0000
1000
0000
,
0010
0100
0010
0100
0011
0000
0100
0001
,
1001
0000
1000
0100
1100
0000
0110
0000
,
1000
0000
0001
0000
0001
1000
0010
0100
0001
0000
0010
0000
0001
0000
1000
0100
,
0010
0000
1000
0000
0010
0000
1000
0010
0100
0000
0010
0000
0100
0000
0010
0000
,
0100
0000
1000
0010
0001
0100
1000
0010
0100
0000
1000
0000
0100
0000
0010
0001
,
0100
0000
0010
0000
0001
0000
1000
0010
0001
0000
1000
0000
0011
0000
0000
0000
,
0110
0000
1000
0010
0001
0000
1000
0000
1010
0000
0000
0000
0010
0000
0100
0000
,
0110
0000
0001
0100
0011
0000
0001
0100
,
0010
0000
0100
1000
0010
0000
0100
0000
1001
0000
0000
0000
0001
0000
1000
0000
,
0101
0000
0010
1000
1010
0000
0100
1000
,
0110
0001
0010
0100
1000
0100
1000
0100
,
0010
0001
0010
0001
0010
0100
1000
0100
,
0010
0100
1000
0010
0100
0010
0100
0010
,
1000
0001
1000
0001
1000
0100
0010
0100
,
0010
0100
1000
0001
1000
0001
1000
0010
,
0100
0010
0100
0010
1000
0001
1000
0001
,
1000
0010
0100
0010
0100
0010
1000
0100
,
0010
0100
0010
0100
1000
0010
0100
0010
,
1000
0001
1000
0001
,
0100
0000
0001
0000
0010
0001
0100
1000
,
0010
0100
0010
0001
,
1000
0000
0001
0000
1000
0010
0001
0100
,
0010
0100
0010
0100
,
0010
0000
0001
0000
1000
0010
0001
0100
,
1000
0001
0010
0100
,
0010
0000
0100
0000
0010
1000
0002
0000
,
0000
0000
0000
0000
,
0003
0000
0000
0000
;
