#TITLE:SHAKE THE HOUSE;
#SUBTITLE:;
#ARTIST:MONICA NARANJO;
#TITLETRANSLIT:;
#SUBTITLETRANSLIT:;
#ARTISTTRANSLIT:;
#GENRE:DANCE\/POP;
#CREDIT:B. M'Rey;
#MUSIC:SHAKE THE HOUSE.ogg;
#BANNER:SHAKE THE HOUSE.png;
#BACKGROUND:SHAKE THE HOUSE-bg.png;
#CDTITLE:./CDTITLES/DANCEMANIA/PRESENTS AKI MONOGATARI 2007.png;
#SAMPLESTART:42.000;
#SAMPLELENGTH:12.000;
#SELECTABLE:YES;
#OFFSET:-0.088;
#BPMS:0.000=166.029;
#STOPS:;
#BGCHANGES:;
#FGCHANGES:;

//--------------- dance-single - B. M'Rey ----------------
#NOTES:
     dance-single:
     B. M'Rey:
     Beginner:
     1:
     0,0,0,0,0:
0000
0000
0000
0000
,
0000
0000
0000
0000
,
0000
0000
0000
0000
,
0000
0000
0000
0000
,
0000
0000
0000
0000
,
0000
0000
0000
0000
,
0000
0000
0000
0000
,
0000
0000
0000
0000
,
0000
0000
0000
0000
,
0001
0000
0000
0000
,
0100
0000
0000
0000
,
0010
0000
0000
0000
,
1000
0000
0000
0000
,
0001
0000
0000
0000
,
0100
0000
0000
0000
,
0010
0000
0001
0000
,
1000
0000
0000
0000
,
0010
0000
0100
0000
,
1000
0000
0000
0000
,
0100
0000
0010
0000
,
0001
0000
0000
0000
,
1000
0000
0001
0000
,
0010
0000
0000
0000
,
0100
0000
0001
0000
,
1000
0000
0000
0000
,
0110
0000
0000
0000
,
0101
0000
0000
0000
,
1001
0000
0000
0000
,
0000
0000
0000
0000
,
1000
0000
0001
0000
,
0010
0000
0100
0000
,
0001
0000
1000
0000
,
0010
0000
0000
0000
,
0100
0000
1000
0000
,
0001
0000
0010
0000
,
0100
0000
0001
0000
,
1000
0000
0000
0000
,
0010
0000
0100
0000
,
0001
0000
1000
0000
,
0010
0000
0100
0000
,
1000
0000
0000
0000
,
0001
0000
0010
0000
,
0100
0000
1000
0000
,
0001
0000
0000
0000
,
0100
0000
0000
0000
,
0010
0000
0000
0000
,
0000
0000
0000
0000
,
0001
0000
0000
0000
,
0000
0000
1000
0000
,
0001
0000
0000
0000
,
0000
0000
0010
0000
,
0000
0000
0000
0000
,
0100
0000
0000
0000
,
1000
0000
0000
0000
,
0001
0000
0000
0000
,
1000
0000
0100
0000
,
0000
0000
0000
0000
,
0000
0001
0000
1000
,
0000
0001
0000
1000
,
0000
0001
0000
1001
,
0000
0000
0000
0000
,
0010
0000
0100
0000
,
0001
0000
1000
0000
,
0010
0000
0100
0000
,
0001
0000
0000
0000
,
0010
0000
0100
0000
,
0001
0000
1000
0000
,
0010
0000
0000
0000
,
0100
0000
0000
0000
,
0001
0000
0010
0000
,
0001
0000
1000
0000
,
0010
0000
0100
0000
,
1000
0000
0000
0000
,
0001
0000
0010
0000
,
0001
0000
0100
0000
,
0010
0000
0000
0000
,
1000
0000
0000
0000
,
0001
0000
0000
0000
,
0000
0000
0000
0000
,
0100
0000
0000
0000
,
0000
0000
0010
0000
;

//--------------- dance-single - B. M'Rey ----------------
#NOTES:
     dance-single:
     B. M'Rey:
     Easy:
     3:
     0,0,0,0,0:
0000
0000
0000
0000
,
0000
0000
0000
0000
,
0000
0000
0000
0000
,
0000
0000
0000
0000
,
0000
0000
0000
0000
,
0001
0000
1000
0000
,
0010
0000
0000
0000
,
0100
0000
0000
0000
,
0000
0000
0000
0000
,
1000
0000
0001
0000
,
0010
0000
0100
0000
,
0001
0000
1000
0000
,
0010
0000
1000
0000
,
0100
0000
0010
0000
,
0001
0000
1000
0000
,
1000
0000
0001
0000
,
1000
0001
1000
0000
,
0010
0000
0100
0000
,
1000
0010
0001
0000
,
0100
0000
0001
0000
,
0100
0010
1000
0000
,
1000
0000
0001
0000
,
0010
0100
0001
0000
,
1000
0000
0001
0000
,
0010
0100
1000
0000
,
1001
0000
0000
0000
,
1100
0000
0000
0000
,
0220
0000
0000
0000
,
0000
0000
0000
0330
,
1000
0010
0001
0000
,
0010
0000
0100
0000
,
1000
0010
0100
0000
,
0100
0000
0000
0000
,
1000
0100
0001
0000
,
0010
0000
0100
0000
,
1000
0000
0001
0000
,
0010
0000
0000
0000
,
0100
1000
0010
0000
,
0001
0000
1000
0000
,
0010
0100
0001
0000
,
0010
0000
1000
0000
,
1000
0100
0001
0000
,
0010
0000
0100
0000
,
0001
0000
1000
0000
,
0010
0002
0000
0000
,
1003
0000
0000
0000
,
0010
0000
0000
0000
,
0100
0000
0000
0000
,
1000
0000
0001
0010
,
0100
0000
0000
0000
,
0010
0000
1000
0010
,
0000
0000
0000
0000
,
0001
0000
0000
0000
,
1000
0000
0000
0000
,
0100
0000
0000
0000
,
0010
0001
0100
0000
,
1000
0000
0000
0000
,
0000
1001
0000
1001
,
0000
1001
0000
1001
,
0000
1001
0000
2002
,
0000
0000
3003
0000
,
0010
0100
1000
0000
,
0001
0000
0010
0000
,
0100
0000
1000
0000
,
0010
0000
0100
0000
,
0100
0001
0010
0000
,
1000
0000
0010
0000
,
0100
0000
0010
0000
,
0001
0000
0000
0000
,
1000
0010
0100
0000
,
0001
0000
0010
0000
,
0100
1000
0010
0000
,
0001
0000
0100
0000
,
0010
1000
0001
0000
,
1000
0000
0010
0000
,
0100
1000
0010
0000
,
0001
0000
0000
0010
,
1000
0000
0000
0000
,
0100
0000
0000
0000
,
0010
0000
0000
0000
,
0000
0000
1001
0000
;

//--------------- dance-single - B. M'Rey ----------------
#NOTES:
     dance-single:
     B. M'Rey:
     Medium:
     7:
     0,0,0,0,0:
0000
0000
0000
0000
,
0000
0000
0000
0000
,
0000
0000
0000
0000
,
0000
0000
0000
0000
,
0000
0000
0000
0000
,
0002
0000
0203
0000
,
0310
0000
0000
0000
,
2000
0000
0000
0000
,
0000
0000
0000
0000
,
3001
0000
1000
0000
,
0100
0010
1000
0000
,
0100
0000
0010
0000
,
0001
0100
0010
0000
,
1000
0000
0001
0000
,
0100
0010
1000
0000
,
0001
0000
1000
0000
,
0001
1000
0001
0000
,
0100
0010
0001
1000
,
0100
0010
1000
0000
,
0001
0100
0010
0001
,
0100
1000
0010
0000
,
0001
0100
0000
1000
,
0010
0000
0000
0100
0000
0000
0001
0000
,
0010
0000
0100
0000
,
1000
0001
0000
0100
,
0010
0000
0000
0000
0000
0001
0000
0000
,
1000
0000
0000
0000
0000
0100
0000
0020
,
0000
0000
0000
0000
,
0001
0001
0001
0031
,
1001
1001
1001
0100
,
0010
0000
0001
0000
0100
0000
1000
0010
,
0100
0000
0001
0000
0100
0000
0010
0001
,
0000
0100
0000
1000
0000
0000
0000
0000
,
1001
0000
1001
0000
0110
0000
0100
1000
,
0010
0000
0001
0000
1000
0000
0010
0001
,
0100
0000
0010
0001
0000
0100
0000
1000
,
0000
0020
0000
0000
0000
0000
0030
0000
,
1001
1001
1001
0100
,
0001
0000
0100
0000
0010
0000
0100
0010
,
0001
0000
0010
0000
0100
0000
1000
0010
,
0000
0100
0000
0001
0000
0000
0000
0000
,
1001
0000
1001
0000
0110
0000
1000
0001
,
0010
0000
0100
0000
0001
0000
1000
0010
,
0100
0000
0010
0001
0000
0100
0000
1000
,
0000
0020
0000
0000
0000
0000
0000
0000
,
0031
0000
0000
1000
0000
0000
0000
0000
,
0100
0000
0010
0000
,
1000
0000
0100
0000
,
0001
0000
0001
0100
,
1000
0000
0100
0000
,
0010
0000
0000
0000
0001
0100
1000
0000
,
0010
0000
0000
0010
0000
0000
0100
0000
,
0000
0000
0001
0000
,
0010
0000
0000
0100
0000
0000
1000
0000
,
0001
0000
0100
0000
,
0001
1000
0010
0000
,
0100
0000
0001
0000
,
1000
0001
0001
1000
,
0001
1000
1000
0001
,
1000
0001
1000
0002
,
0000
0000
1003
0000
,
0110
0110
0110
0001
,
0100
1000
0010
0100
,
0001
0100
1000
0000
0010
0000
0100
0001
,
0000
0100
0000
1000
0000
0000
0000
0000
,
0110
0000
0110
0000
0101
0000
1000
0010
,
0100
0000
0001
0000
1000
0000
0100
0010
,
0001
0000
0100
1000
0000
0010
0000
0100
,
0000
0001
0000
0000
0000
0000
0000
0000
,
1001
1001
0110
0110
,
0001
0000
0100
0000
1000
0000
0010
0001
,
0100
0000
0001
0000
0100
0000
1000
0010
,
0000
0100
0000
0001
0000
0000
0000
0000
,
1001
0000
1001
0000
0110
0000
1000
0100
,
0010
0000
0001
0000
1000
0000
0010
0001
,
0100
0000
0010
0001
0000
0100
0000
1000
,
0000
0010
0000
0000
0000
0000
0001
0000
,
1000
0000
0010
0001
,
0010
0000
1000
0000
,
0100
0000
0001
0000
,
0100
0000
1001
0000
;

//--------------- dance-single - B. M'Rey ----------------
#NOTES:
     dance-single:
     B. M'Rey:
     Hard:
     8:
     0,0,0,0,0:
0000
0000
0000
0000
,
0000
0000
0000
0000
,
0000
0000
0000
0000
,
0000
0000
0000
0000
,
0000
0000
0000
0000
,
0010
0000
0100
0001
,
1000
0000
0000
0010
0000
0000
0000
0000
,
1000
0000
0000
0000
0100
0000
0000
0001
,
0000
1000
0010
0000
0001
0000
0100
0000
,
0010
1000
0000
0010
0000
0010
0001
1000
,
0100
0010
0000
0010
0000
0000
0000
1000
,
0010
0000
0001
0010
0000
0100
0010
1000
,
0000
0100
0000
0001
0000
0000
0000
1000
,
0001
0000
0001
0100
0000
0000
0100
1000
,
0010
1000
0000
0100
0000
0100
0010
1000
,
0100
0000
0001
1000
0010
0000
0001
0010
,
0100
0000
0100
1000
0000
0000
0001
1000
,
0100
1000
0100
1000
0010
0000
0010
0100
,
0000
1000
0000
0100
0000
0000
0000
0100
,
0001
1000
0001
1000
0000
0010
0000
1000
,
0000
0001
0000
0100
0000
0000
0010
1000
,
0100
0000
0001
0010
0000
1000
0100
1000
,
0010
0000
0010
0100
0000
1000
0100
1000
,
1100
0010
0110
0001
,
0010
0100
0001
0100
0000
1000
0010
0100
,
0001
0000
0000
0000
0100
0000
0010
0000
0001
0000
0100
0000
0000
0001
0000
0000
,
0200
0000
0000
0000
0000
1300
0000
0200
,
0000
0010
0010
0010
,
1300
0010
0001
0100
0001
0010
0001
0100
,
1001
0000
1001
0000
0101
0000
0010
0100
,
0010
0000
0001
0010
0001
0000
0001
1000
,
0010
1000
0010
0000
0001
0000
0001
0100
,
0000
0010
0100
0010
0000
0010
0000
1000
,
1001
0000
0001
0100
0010
0000
0010
0100
,
0001
0000
0001
0010
0001
0000
0100
0010
,
0100
0000
0100
1000
0000
1010
0000
0110
,
0000
0101
0000
0100
0010
1000
0001
1000
,
1001
0000
0110
0000
0110
0000
0010
1000
,
0001
0000
0001
0100
0001
0000
0100
1000
,
0001
0010
0001
0000
0100
0000
0100
1000
,
0000
0100
0000
0100
0000
1000
0001
0000
,
1001
0000
0100
0010
0100
0000
0100
1000
,
0010
0000
0010
0100
0010
0000
0001
0100
,
0001
0000
0001
1000
0000
0100
0000
1000
,
0010
1000
0100
0010
0100
0010
0001
0010
,
0002
0000
0000
2003
0000
0000
3020
0000
,
0230
0000
0301
0000
,
0200
0000
0000
0320
0000
0000
0032
0000
,
1003
0000
0000
1000
0001
0000
0100
0020
,
0000
1030
0000
0002
0000
0000
0023
0000
,
0230
0000
0000
0301
1000
0010
0100
0000
,
0002
0000
0000
0023
0000
0000
2030
0000
,
3100
0000
0000
0000
0001
1000
0001
0000
,
0020
0000
0000
0130
0002
0000
2003
0000
,
3020
0000
0000
0230
0000
0000
0301
0010
,
1000
0000
0010
0100
0000
0001
0200
0000
,
1300
0000
0000
0000
0001
1000
0001
0000
,
0001
1001
0010
1010
,
0010
0101
0100
1100
,
0001
0110
0100
2200
,
0000
0000
0300
0000
,
3001
0000
1001
0000
0101
0000
0010
0100
,
0010
0000
0001
0010
0001
0000
0001
1000
,
0010
1000
0010
0000
0001
1000
0001
0100
,
0000
0010
0100
0010
0000
0010
0000
1000
,
1001
0000
0001
0100
0010
0000
0010
0100
,
0001
0000
0001
0010
0001
0000
0100
0010
,
0100
0000
0100
1000
0000
1010
0000
0110
,
0000
0101
0000
0100
0010
1000
0001
1000
,
1001
0000
0110
0000
0110
0000
0010
1000
,
0001
0000
0001
0100
0001
0000
0100
1000
,
0001
0010
0001
0000
0100
0000
0100
1000
,
0000
0100
0000
0100
0000
1000
0001
0000
,
1001
0000
0100
0010
0100
0000
0100
1000
,
0010
0000
0010
0100
0010
0000
0001
0100
,
0001
0000
0001
1000
0000
0100
0000
1000
,
0010
1000
0100
0010
0100
0010
0001
0000
,
0002
0000
0000
1003
0020
0000
0032
0000
,
0023
0000
0000
0000
0000
0030
0020
0000
0000
0000
0000
0000
0230
0000
0000
0000
,
0000
0000
0301
1000
,
0001
1000
1001
0000
;

//--------------- dance-double - B. M'Rey ----------------
#NOTES:
     dance-double:
     B. M'Rey:
     Easy:
     3:
     0,0,0,0,0:
00000000
00000000
00000000
00000000
,
00000000
00000000
00000000
00000000
,
00000000
00000000
00000000
00000000
,
00000000
00000000
00000000
00000000
,
00000000
00000000
00000000
00000000
,
00010000
00000000
10000000
00000000
,
00100000
00000000
00000000
00000000
,
00200000
00000000
00000000
00000000
,
00301000
00000000
00100000
00000000
,
00001000
00000000
00010000
00000000
,
01000000
00000000
01000000
00000000
,
00100000
00000000
00001000
00000000
,
00000100
00000000
00010000
00000000
,
00010000
00000000
00001000
00000000
,
00000100
00000000
00000010
00000000
,
00000001
00000000
00000001
00000000
,
00001000
00000001
00001000
00000000
,
00100000
00000000
01000000
00000000
,
10000000
00100000
00010000
00000000
,
00001000
00000000
00000100
00000000
,
00000010
00000001
00000100
00000000
,
00001000
00000000
00010000
00000000
,
00100000
01000000
00010000
00000000
,
10000000
00000000
00010000
00000000
,
00000100
00000010
00000001
00000000
,
00011000
00000000
00000000
00000000
,
00001010
00000000
00000000
00000000
,
00022000
00000000
00000000
00000000
,
00000000
00000000
00000000
00033000
,
10000000
00100000
00010000
00000000
,
00000100
00000000
00000010
00000000
,
00000001
00000010
00001000
00000000
,
00100000
00000000
01100000
00000000
,
01000000
10000000
00010000
00000000
,
00011000
00000000
00000110
00000000
,
00001000
00000000
00000010
00000000
,
00020000
00000000
00030000
00000000
,
00100000
10000000
00100000
00000000
,
00010000
00000000
00001000
00000000
,
00000010
00000100
00000001
00000000
,
00001000
00000000
01010000
00000000
,
00100000
10000000
01000000
00000000
,
01100000
00000000
00011000
00000000
,
00000001
00000000
00001000
00000000
,
00000010
00020000
00000000
00000000
,
20030000
00000000
00000000
00000000
,
30200000
00000000
00000000
00000000
,
02300000
00000000
00000000
00000000
,
03020000
00000000
00030100
00000010
,
00000002
00000000
00000000
00000000
,
00000023
00000000
00000130
00000200
,
00000000
00000000
00000000
00000000
,
00002300
00000000
00000000
00000000
,
00023000
00000000
00000000
00000000
,
02030000
00000000
00000000
00000000
,
03100000
00010000
02000000
00000000
,
23000000
00000000
30010000
00000000
,
00000000
00011000
00000000
00011000
,
00000000
00011000
00000000
00011000
,
00000000
00011000
00000000
00022000
,
00000000
00000000
00033000
00000000
,
00100000
01000000
10000000
00000000
,
00010000
00000000
00001100
00000000
,
00000010
00000001
00000100
00000000
,
00000100
00000000
00011000
00000000
,
00010000
00100000
00010000
00000000
,
10010000
00000000
10100000
00000000
,
00100000
00000000
00100000
00000000
,
00020000
00000000
00030000
00000000
,
00001000
00000100
00000010
00000000
,
00000001
00000000
00001010
00000000
,
00010000
00100000
00010000
00000000
,
01000000
00000000
10010000
00000000
,
00100000
10000000
00100000
00000000
,
10010000
00000000
00011000
00000000
,
00001000
00010000
00000100
00000000
,
00000002
00000000
00000003
00000010
,
00002000
00000000
00000000
00000000
,
00203000
00000000
00000000
00000000
,
02300000
00000000
00000000
00000000
,
00000000
00000000
03010000
00000000
;

//--------------- dance-double - B. M'Rey ----------------
#NOTES:
     dance-double:
     B. M'Rey:
     Medium:
     7:
     0,0,0,0,0:
00000000
00000000
00000000
00000000
,
00000000
00000000
00000000
00000000
,
00000000
00000000
00000000
00000000
,
00000000
00000000
00000000
00000000
,
00000000
00000000
00000000
00000000
,
00020000
00000000
00030200
00000000
,
00000310
00000000
00000000
00000000
,
00000002
00000000
00000000
00000000
,
00000000
00000000
00000000
00000000
,
00001003
00000000
00010000
00000000
,
01000000
00100000
10000000
00000000
,
00100000
00000000
00100000
00000000
,
00010000
00001000
00000100
00000000
,
00000001
00000000
00000001
00000000
,
00000100
00000010
00000100
00000000
,
00011000
00000000
10010000
00000000
,
10010000
10000000
10010000
00000000
,
00010000
00100000
00010000
00001000
,
00000100
00001000
00000100
00000000
,
00000010
00000100
00000001
00000010
,
00000100
00001000
00100000
00000000
,
01000000
00100000
01000000
10000000
,
00100000
00000000
00100000
01000000
00010000
00000000
00010000
00000000
,
00011000
00000000
00001010
00000000
,
00000011
00000010
00001001
00010000
,
00100000
00000000
00000000
00000000
10000000
00010000
00000000
00000000
,
10010000
00000000
01000000
00000000
00010000
01000000
00000000
00100000
,
00020000
00000000
00001000
00000000
,
00001000
00000000
00001000
00000000
00001000
00030000
00001000
00000000
,
00011000
00010100
00011000
00000100
,
00000001
00000000
00000100
00000000
00000001
00000000
00001000
00000100
,
00001000
00000000
00010000
00000000
00100000
00000000
00010000
01000000
,
00000000
01000000
00000000
10000000
00000000
00000000
00000000
00000000
,
11000000
00000000
11000000
00000000
01100000
00000000
01000000
00100000
,
00010000
00000000
00001000
00000000
00000100
00000000
00000010
00000100
,
00000001
00000000
00001000
00010000
00001000
01000000
00000000
00010000
,
00100000
00020000
00000000
00000000
00000000
00000000
00030000
00000000
,
00011000
00011000
00110000
01000000
,
00010000
00000000
00100000
00000000
01000000
00000000
01000000
00100000
,
01000000
00000000
01000000
00000000
10100000
00000000
00100000
01000000
,
00100000
10000000
00000000
00010000
00000000
00000000
00000000
00000000
,
00011000
00000000
00011000
00000000
00001100
00000000
00000010
00000100
,
00000001
00000000
00000100
00000000
00001001
00000000
00000001
00001000
,
00000010
00000000
00000010
00001000
00010000
01000000
00000000
00010000
,
01000000
00020000
00000000
00000000
00001000
00000000
00000000
00000000
,
00031000
01000000
00020000
00000000
,
02030000
00000000
03200000
00000000
,
20300000
00000000
32000000
00000000
,
03200000
00320000
00031000
00000100
,
00000020
00000000
00000230
00000000
,
00020300
00000000
00000000
00000000
00130000
01000000
10000000
00000000
,
02000000
00000000
00000000
03200000
00000000
00000000
02300000
00000000
,
13000000
00000000
00010000
00100000
,
20000000
00000000
00000000
32000000
00000000
00000000
23000000
00000000
,
30020000
00000000
00032000
00003100
,
00000010
00000001
00000200
00000000
,
00000302
00000000
00001003
00000000
,
00001000
01000000
00010000
00000100
,
00001000
01000000
00010000
00000100
,
00010000
01000000
00001000
00020000
,
00000000
00000000
00001000
00000000
,
00031000
00011000
01010000
01000000
,
00100000
01000000
00100000
10000000
,
00010000
00001000
00000100
00000000
00000110
00000000
00000001
00000010
,
00000000
00000100
00000000
00001000
00000000
00000000
00000000
00000000
,
00010100
00000000
00010100
00000000
00101000
00000000
10000000
00010000
,
10000000
00000000
00010000
00000000
10100000
00000000
00010000
00001000
,
00000100
00000000
00000010
00000100
00000010
00000100
00000000
00000010
,
00001000
00010000
00000000
00000000
01000000
00000000
00000000
00000000
,
01100000
01100000
10100000
01000000
,
00010000
00000000
00000100
00000000
00010000
00000000
00000100
00000001
,
00000100
00000000
00001000
00000000
00011000
00000000
00010000
10000000
,
00100000
10000000
00000000
00010000
00000000
00000000
00000000
00000000
,
00011000
00000000
00011000
00000000
00001100
00000000
00000010
00000001
,
00001000
00000000
00010000
00000000
10100000
00000000
00010000
00100000
,
00010000
00000000
00000100
00001000
00000010
00001000
00000000
00010000
,
00100000
01000000
00000000
00000000
01000000
00000000
10000000
00000000
,
00010000
00001000
00000100
00001000
,
00000200
00000000
00002300
00000000
,
00013000
00001000
00020000
00000000
,
00000000
00000000
00031000
00000000
;

//--------------- dance-double - B. M'Rey ----------------
#NOTES:
     dance-double:
     B. M'Rey:
     Hard:
     9:
     0,0,0,0,0:
00000000
00000000
00000000
00000000
,
00000000
00000000
00000000
00000000
,
00000000
00000000
00000000
00000000
,
00000000
00000000
00000000
00000000
,
00000000
00000000
00000000
00000000
,
00012000
00000000
00103000
00001000
,
00110000
00000000
00000000
00001000
00000000
00000000
00000000
00000000
,
00010000
00000000
00000000
00000000
00001000
00000000
00000000
00000010
,
00000000
00010000
00000100
00000000
00000010
00000000
00001000
00000000
,
00000010
00001000
00000000
00000100
00001000
00000001
00000100
00000001
,
00000100
00000010
00001000
00000100
00011000
00000000
00000000
00010000
,
00000100
00000000
00010000
00100000
00010000
00100000
00000100
00001000
,
00010000
00100000
00010000
00100000
01010000
00000000
00000000
01000000
,
00100000
00000000
00001000
00100000
00001000
00000000
00010000
00100000
,
00010000
00100000
00010000
10000000
01000000
10000000
00010000
10000000
,
10010000
00000000
00010000
10000000
10010000
00000000
00010000
00100000
,
00110000
00000000
00001000
01000000
00001000
00000000
00100000
01000000
,
00001000
00010000
00000100
00010000
00001000
00000000
00010000
00000100
,
00000010
00000100
00000010
00001000
00010010
00000000
00000000
00000001
,
00000100
00000010
00000100
00000010
00000100
00000001
00000010
00001000
,
00000100
00000010
00000100
00001000
00010100
00000000
00000100
00001000
,
00010000
00000000
00010000
00100000
00001000
00100000
00001000
00100000
,
00010000
00000000
00010000
00100000
00010000
00100000
00010000
10000000
,
01000000
00010000
00101000
00001000
,
00001000
00100000
00010000
00001000
00010000
00001000
00000100
00010000
,
00001000
00000000
00000000
00000000
00001000
00000000
00000100
00000000
00000010
00000000
00001000
00000000
00000000
00000010
00000000
00000000
,
00002000
00000000
00000000
00000000
00000000
00013000
00000000
00002000
,
00010000
00000100
00010000
00000100
,
00013000
00001000
00010000
00001000
00010000
00001000
00000010
00001000
,
00001010
00000000
00001010
00000000
00000011
00000000
00000100
00001000
,
00000001
00000000
00000010
00001000
00000010
00000000
00000100
00010000
,
00000100
00001000
00000100
00000000
00010100
00000000
00001000
00010000
,
00001000
00100000
00010000
00100000
00000000
00100000
00000000
01000000
,
00001000
00000000
00001000
00100000
00001000
00000000
00010000
01000000
,
00001000
00000000
00010000
00100000
00010000
00000000
00100000
01000000
,
00100000
00000000
00010000
00100000
00010000
01000000
00000000
01000000
,
00100000
01000000
00000000
00100000
00010000
01000000
00001000
01000000
,
00011000
00000000
00110000
00000000
00001100
00000000
00001000
00010000
,
00001000
00000000
00001000
00010000
00001000
00000000
00000010
00000100
,
00000010
00000100
00000001
00000000
00000101
00000000
00000010
00001000
,
00100000
01000000
00000000
00010000
00100000
00010000
00100000
00000000
,
00011000
00000000
00000001
00000010
00000100
00000000
00001000
00010000
,
00001000
00000000
00010000
00100000
00010000
00000000
10000000
01000000
,
10000000
00000000
00100000
01000000
00010000
00100000
00000000
01000000
,
00100000
00010000
00001000
00000100
00001000
00000100
00001000
00000001
,
00000200
00000000
00000000
00002300
00000000
00000000
00023000
00000000
,
00230000
00000000
00310000
00000000
,
02000000
00000000
00000000
03200000
01000000
00000000
00320000
00000000
,
10030000
00000000
00000000
10000000
00010000
00000000
00001000
00000200
,
00001000
00001300
00000000
00002000
00010000
00000000
00023000
00000000
,
00230000
00000000
00000000
00301000
01000000
00100000
01000000
00000000
,
00020000
00000000
00000000
00230000
00000000
00000000
20300000
00000000
,
30010000
00000000
00000000
00000000
00010000
00001000
00010000
00000000
,
00000020
00000000
00000000
00000130
00000002
00000000
00002003
00000000
,
00023000
00000000
00000000
00230000
00000000
00000000
00310000
01000000
,
00010000
00000000
00100000
10000000
00100000
10000000
02000000
00000000
,
03100000
00000000
00000000
00000000
00001000
00100000
00001000
00000000
,
00011000
00001010
00011000
01010000
,
00011000
00001100
00011000
00110000
,
00011000
00110000
00011000
00022000
,
00000000
00000000
00033000
00000000
,
00011000
00000000
00001010
00000000
01010000
00000000
00000100
00001000
,
00000100
00000000
00001000
00010000
00100000
00000000
01000000
00100000
,
00010000
10000000
00100000
00000000
00010000
00001000
00000100
00000010
,
00000001
00000100
00000010
00000100
00001000
00010000
00000000
00100000
,
00011000
00000000
00100000
01000000
10000000
00000000
01000000
00010000
,
00001000
00000000
00000010
00001000
00000100
00000000
00000100
00000001
,
00000010
00000000
00000010
00000001
00000100
00000001
00000000
00000010
,
00000100
00001000
00000000
00000100
00000010
00001000
00010000
00001000
,
00011000
00000000
00001100
00000000
00110000
00000000
01000000
00100000
,
01000000
00000000
10000000
00100000
10000000
00000000
00010000
00100000
,
00010000
00001000
00000100
00000000
00000010
00000000
00000010
00001000
,
00000100
00000010
00000000
00000100
00001000
00010000
01000000
00000000
,
01100000
00000000
01000000
10000000
00100000
00000000
00010000
00100000
,
00001000
00000000
00000001
00000010
00000100
00000000
00000001
00000100
,
00000010
00000000
00000100
00001000
00010000
10000000
00000000
01000000
,
00100000
00010000
00001000
00000010
00001000
00000100
00000010
00000000
,
00000002
00000000
00000000
00000103
00000010
00000000
00000001
00000000
,
00001000
00000000
00000000
00010000
01000000
00000000
00200000
00000000
,
00010000
00010000
00001000
00001000
,
00010000
00000000
00000000
00000000
00000000
00000000
00000000
00000000
00000000
00000000
00000000
00000000
00000000
00000000
00000000
00000000
00000000
00000000
00000000
00000000
00000000
00000000
00000000
00000000
00000000
00000000
00000000
00000000
00000000
00000000
00000000
00000000
00000000
00000000
00000000
00000000
00000000
00000000
00000000
00000000
00000000
00000000
00000000
00000000
00000000
00000000
00000000
00000000
00010000
00000000
00000000
00000000
00000000
00000000
00000000
00000000
00000000
00000000
00000000
00000000
00000000
00000000
00000000
00000000
00000000
00000000
00000000
00000000
00000000
00000000
00000000
00000000
00000000
00000000
00000000
00000000
00000000
00000000
00000000
00000000
00000000
00000000
00000000
00000000
00000000
00000000
00000000
00000000
00000000
00000000
00000000
00000000
00000000
00000000
00000000
00000000
00302000
00003000
00000000
00000000
00000000
00000000
00000000
00000000
00000000
00000000
00000000
00000000
00000000
00000000
00000000
00000000
00000000
00000000
00000000
00000000
00000000
00000000
00000000
00000000
00000000
00000000
00000000
00000000
00000000
00000000
00000000
00000000
00000000
00000000
00000000
00000000
00000000
00000000
00000000
00000000
00000000
00000000
00000000
00000000
00000000
00000000
00000000
00000000
00000000
00000000
00000000
00000000
00000000
00000000
00000000
00000000
00000000
00000000
00000000
00000000
00000000
00000000
00000000
00000000
00000000
00000000
00000000
00000000
00000000
00000000
00000000
00000000
00000000
00000000
00000000
00000000
00000000
00000000
00000000
00000000
00000000
00000000
00000000
00000000
00000000
00000000
00000000
00000000
00000000
00000000
00000000
00000000
00000000
00000000
00000000
00000000
;
