#TITLE:SEXUAL HEALING;
#SUBTITLE:(PLANET LUTION MIX);
#ARTIST:E-ROTIC;
#TITLETRANSLIT:;
#SUBTITLETRANSLIT:;
#ARTISTTRANSLIT:;
#GENRE:;
#CREDIT:;
#MUSIC:Sexual Healing (Planet Lution Mix).ogg;
#BANNER:SEXUAL HEALING (PLANET LUTION MIX).png;
#BACKGROUND:SEXUAL HEALING (PLANET LUTION MIX)-bg.png;
#CDTITLE:./CDTITLES/DANCEMANIA/SPEED 7.PNG;
#SAMPLESTART:50.711;
#SAMPLELENGTH:12.000;
#SELECTABLE:YES;
#OFFSET:-0.191;
#BPMS:0.000=172.210
,212.000=86.105
,224.000=172.210
;
#STOPS:;
#BGCHANGES:;
#FGCHANGES:;

//--------------- dance-single - B. M'Rey ----------------
#NOTES:
     dance-single:
     B. M'Rey:
     Beginner:
     2:
     0,0,0,0,0:
0000
0000
0000
0000
,
0000
0000
0000
0000
,
0000
0000
0000
0000
,
0000
0000
0000
0000
,
1000
0000
0000
0000
,
0010
0000
0000
0000
,
0100
0000
0000
0000
,
0001
0000
1000
0000
,
0001
0000
1000
0000
,
0001
0000
0100
0000
,
0010
0000
0100
0000
,
0010
0000
0000
0000
,
0001
0000
1000
0000
,
0010
0000
0100
0000
,
0010
0000
1000
0000
,
0001
0000
0100
0000
,
0010
0000
1000
0100
,
1000
0000
0001
0010
,
0001
0000
0100
1000
,
0100
0000
0110
0000
,
0001
0000
0010
0001
,
0010
0000
1000
0100
,
1000
0000
0001
0010
,
0001
0000
0100
0000
,
0010
0000
0000
0000
,
1000
0000
0000
0000
,
0001
0000
0000
0000
,
1001
0000
0000
0000
,
0010
0000
0000
0000
,
0100
0000
1000
0000
,
0010
0000
0000
0000
,
0100
0000
0001
0000
,
0010
0000
0000
0000
,
1000
0000
0001
0000
,
0100
0000
0000
0000
,
0010
0000
1000
0000
,
1001
0000
0000
0000
,
1000
0000
0010
0000
,
0000
0100
0000
0001
,
0000
0000
0100
0000
,
0010
0000
1000
1000
,
1000
0000
0010
0000
,
0000
0100
0000
0001
,
0000
0000
0010
0000
,
1000
0010
0010
0010
,
0001
0000
1000
0000
,
0010
0000
0100
0000
,
0010
0000
1000
0000
,
0001
1000
0001
1000
,
0001
0000
0010
0000
,
0001
0000
0100
0000
,
0010
0000
1000
0000
,
0100
0000
0010
0000
,
1001
0000
0000
0000
,
0100
0000
0000
0000
,
0010
0000
0000
0000
,
1000
0000
0001
0000
,
1000
0001
1000
0001
,
1000
0000
0010
0000
,
0000
0100
0000
0001
,
0000
0000
0100
0000
,
0010
0000
1000
1000
,
1000
0000
0010
0000
,
0000
0100
0000
0001
,
0000
0000
0010
0000
,
1000
0010
0010
0010
,
0001
0000
1000
0000
,
0010
0000
0100
0000
,
0010
0000
1000
0000
,
0001
1000
0001
1000
,
0001
0000
0010
0000
,
0001
0000
0100
0000
,
0010
0000
1000
0000
,
0100
0010
0100
0010
,
0001
0000
0000
0000
,
0100
0000
0000
0000
,
0010
0000
0000
0000
,
1000
0000
0001
0000
,
2000
0000
0000
0000
,
3000
0000
0000
0000
;

//--------------- dance-single - B. M'Rey ----------------
#NOTES:
     dance-single:
     B. M'Rey:
     Easy:
     5:
     0,0,0,0,0:
0000
0000
0000
0000
,
0000
0000
0000
0000
,
0000
0000
0000
0000
,
0000
0000
0000
0000
,
0001
0000
0000
1000
0000
0000
1000
0000
,
0001
0000
0000
0100
0000
0000
0100
0000
,
0010
0000
0000
1000
0000
0000
1000
0000
,
0001
0000
0000
1000
0000
0000
0100
0000
,
0010
0100
0010
1000
,
0000
1000
0100
1000
,
0000
0100
0010
0100
,
0000
1000
0001
1000
,
0100
1000
0100
0010
,
0000
0010
0001
0010
,
0000
1000
0001
1000
,
0000
1000
0100
0010
,
0110
0010
0001
0010
,
0001
0100
0001
0100
,
0010
0100
0010
1000
,
0001
1000
0000
1000
,
0000
0010
0100
0010
,
0001
0010
0001
1000
,
0001
1000
0010
1000
,
0001
0000
0010
0000
,
0011
0000
1100
0000
,
0110
0000
0101
0000
,
1001
0000
1001
0000
,
0100
0100
0100
0100
,
0100
1000
0000
1000
,
0010
0000
0000
0010
0000
0000
0100
0000
,
0001
0000
0100
0000
,
0001
0100
0010
0100
,
0010
0000
0010
0001
,
0001
0000
0000
1000
0000
0000
0100
0000
,
0010
0000
0010
0000
,
0001
0010
0100
0010
,
0011
0000
0000
0000
,
0001
1000
0100
1000
,
0010
1000
0001
0100
,
0001
0100
0001
0010
,
0100
0010
0001
0010
,
0110
1000
0100
1000
,
0100
0010
0001
0010
,
0001
0010
0100
1000
,
0100
1000
0100
0010
,
0001
0010
0001
0010
,
0000
1000
0100
1000
,
0000
0010
0001
1000
,
0000
1001
0000
1010
,
0010
0100
0001
0100
,
0000
0100
0010
1000
,
0000
1000
0010
0100
,
0000
0100
0010
0100
,
0010
1000
0010
1000
,
0100
1000
0100
0010
,
0100
0010
0001
0010
,
0001
1000
0010
1000
,
0020
0000
0000
0000
,
0031
1000
0001
1000
,
0100
1000
0010
0100
,
0010
0100
0010
1000
,
0001
1000
0010
1000
,
0110
0010
0001
0010
,
0001
1000
0001
0010
,
0100
0010
0100
0010
,
0001
1000
0100
1000
,
0100
0000
0001
0100
,
0001
0000
0001
0010
,
0100
0000
0100
0010
,
0001
0000
0001
1000
,
0001
0000
0010
1000
,
0010
0000
0010
0100
,
0001
0000
0001
1000
,
0001
0000
0100
0010
,
0001
0010
0100
1000
,
0000
1000
0001
1000
,
0000
0100
0001
0100
,
0000
0100
0010
1000
,
0220
0000
0000
0000
,
0330
0000
0000
0000
;

//--------------- dance-single - B. M'Rey ----------------
#NOTES:
     dance-single:
     B. M'Rey:
     Medium:
     8:
     0,0,0,0,0:
0000
0000
0000
0000
,
0000
0000
0000
0000
,
0000
0000
0000
0000
,
0000
0000
0000
0000
,
0001
1000
0100
1000
,
0100
1000
0001
0010
,
0001
0010
0001
1000
,
0010
0100
0001
0100
,
0001
0000
0001
1000
0001
0000
0010
0100
,
0000
0010
0001
0000
0001
1000
0001
1000
,
0000
0100
0010
0000
0010
1000
0001
1000
,
0000
0010
0001
0000
1000
0000
0100
0000
,
0001
0000
0001
1000
0001
0000
0010
0100
,
0000
0100
0001
0000
0001
1000
0100
1000
,
0000
0010
0100
0000
0001
0000
0010
1000
,
0000
1000
0100
0000
0100
0010
0100
0010
,
0001
0000
0001
1000
0100
0000
0100
0010
,
0000
0010
0001
0000
0001
1000
0001
1000
,
0000
1000
0010
0000
0010
0000
0100
1000
,
0000
1000
0100
0000
0010
0100
0010
0100
,
0010
0000
0001
1000
0001
0000
0010
0100
,
0000
0100
0010
0000
0001
0000
0001
1000
,
0000
0100
0010
0000
0010
0000
0001
0100
,
0000
0100
0001
0000
0100
1000
0100
1000
,
0001
1000
0001
1000
,
0010
1000
0010
0100
,
0010
0100
0001
0100
,
0001
0010
0001
0010
,
0001
0100
0010
0000
0100
0000
0010
0000
,
0100
1000
0000
0010
0000
0010
0001
0010
,
0000
1000
0100
1000
0000
0000
0010
0100
,
0001
0100
0000
1000
0000
1000
0010
1000
,
0010
0000
0100
0000
0010
0000
0001
1000
,
0001
1000
0000
0010
0000
0100
0010
0100
,
0000
0100
0001
0010
0000
0000
0010
1000
,
0010
0000
0001
0000
0010
0000
0001
0100
,
0010
0000
0000
0000
,
0110
0000
0100
0000
0001
0100
0001
1000
,
0000
1000
0100
0000
0001
0000
0001
1000
,
0000
0010
0100
0000
0100
0000
0001
0100
,
0000
0100
0010
1000
0010
1000
0010
1000
,
0001
0000
0100
0000
0001
0000
0100
2000
,
0000
3000
0010
0000
0100
0000
0010
1000
,
0000
0100
0001
0000
0010
0000
0100
0010
,
0000
0100
0001
1000
0001
1000
0001
0100
,
0001
0000
0100
0000
0010
1000
0001
0010
,
0000
0010
0001
0000
0100
0000
0100
1000
,
0000
0010
0001
0000
0001
0000
0100
1000
,
0000
1000
0010
0000
0010
0100
0010
1000
,
0001
0000
0001
1000
0100
0000
0100
0010
,
0000
1000
0010
0000
0001
0000
0010
0100
,
0000
0100
0010
0000
0001
0000
0001
1000
,
0000
0100
0010
0100
0010
1000
0001
1000
,
0100
0000
0010
0000
0100
1000
0010
1000
,
0010
0000
0001
0000
0010
0000
0001
0010
,
0100
0000
0100
0010
0000
1000
0010
0100
,
0001
0100
0010
0001
,
0100
1000
0100
0010
0100
0010
0001
0000
,
0110
0000
0010
0000
0001
0010
0001
1000
,
0000
1000
0010
0000
0001
0000
0001
1000
,
0000
0100
0010
0000
0010
0000
0001
0010
,
0000
0010
0100
1000
0100
1000
0100
1000
,
0001
0000
0010
0000
0001
0000
0010
2000
,
0000
3000
0100
0000
0010
0000
0100
1000
,
0000
0010
0001
0000
0100
0000
0010
0100
,
0000
0010
0001
1000
0001
1000
0001
0010
,
0001
1000
0010
1000
,
0010
0000
1000
0000
0001
0000
0010
0001
,
0000
0000
0010
0000
0001
0000
0100
0010
,
0000
0100
0010
0100
0010
0100
0010
0100
,
0001
1000
0001
1000
,
0001
0000
0010
0000
0100
0000
0010
0100
,
0000
0000
0010
0000
0001
0000
0100
0001
,
0000
1000
0001
1000
0001
1000
0001
1000
,
0010
0000
1000
0000
0010
0000
0100
0010
,
0000
0100
1000
0000
0100
0000
0010
0100
,
0000
0100
0010
0000
0100
0000
1000
0001
,
0000
0001
1000
0000
0001
0100
0001
0100
,
0002
0000
0000
0000
,
0003
0000
0000
0000
;

//--------------- dance-single - B. M'Rey ----------------
#NOTES:
     dance-single:
     B. M'Rey:
     Hard:
     9:
     0,0,0,0,0:
0000
0000
0000
0000
,
0000
0000
0000
0000
,
0000
0000
0000
0000
,
0000
0000
0000
0000
,
1000
0000
0001
1000
0010
0000
0100
0000
,
0010
0000
1000
0010
1000
0000
0010
0000
,
0100
0000
0001
0100
0010
0000
0001
0000
,
1000
0000
0100
0010
1000
0000
0010
0000
,
1000
0100
0010
0100
0010
0100
1000
0001
,
0000
0001
1000
0100
0010
0100
0010
0100
,
0000
0010
1000
0010
1000
0100
0010
0100
,
0000
0100
1000
0000
1000
0010
1000
0100
,
0010
0100
1000
0100
1000
0001
0010
0001
,
0000
0001
1000
0000
0100
0010
0100
0010
,
0000
0100
1000
0000
1000
0001
0010
0001
,
0010
0000
0001
0000
1000
0000
0100
0000
1000
0001
1000
0001
1000
0001
1000
0001
,
1000
0001
1000
0100
1000
0100
0010
0100
,
0000
0001
1000
0000
1000
0100
0010
0100
,
0000
0010
1000
0000
1000
0001
0100
0001
,
0000
0010
1000
0000
0110
0000
0110
0000
,
1000
0001
0100
0010
0100
0010
1000
0010
,
0000
0100
1000
0000
0100
0010
0100
0001
,
0000
0001
1000
0000
0100
0010
0100
0001
,
0000
0010
1000
0000
0100
0001
0100
0010
,
0100
0001
0100
0010
,
0100
0001
1000
0100
,
1000
0100
0010
0001
,
0100
0001
0000
1000
0010
0000
0001
0010
0000
1000
0100
0000
0001
0010
0000
1000
,
0001
0000
0010
0000
0001
1000
0010
0000
,
0100
0010
0000
1000
0000
0010
0100
0001
,
1000
0000
0010
0100
0010
0000
0010
1000
,
0100
1000
0000
0001
0000
0010
0100
0001
,
0100
0000
0010
0000
1000
0000
0010
0100
,
0010
0100
0000
0001
0000
0010
1000
0010
,
1000
0000
0010
0100
0010
0000
0001
0010
,
0100
0001
0000
1000
0000
0010
0100
0000
,
1001
1001
1001
1001
,
0010
0000
1000
0100
1000
0100
1000
0010
,
0000
0010
1000
0000
1000
0010
1000
0010
,
0000
0010
0100
0000
0100
0010
1000
0010
,
0000
0100
0010
0001
1000
0001
0010
0001
,
1000
0000
0010
0000
1000
0001
0010
0100
,
0000
0100
0010
0000
1000
0001
1000
0100
,
0000
0100
0010
0000
1000
0000
1000
0100
,
0000
0010
0001
0100
0010
0001
0010
0001
,
1000
0001
1000
0001
1000
0100
0010
0100
,
0010
0100
1000
0001
1000
0001
1000
0100
,
0010
0100
1000
0100
1000
0010
1000
0100
,
0010
0100
1000
0100
1000
0001
1000
0001
,
0100
0001
0100
0010
0100
0010
1000
0010
,
1000
0100
1000
0100
0010
0100
0010
0001
,
0010
0001
1000
0001
0010
0100
0010
0100
,
0010
0001
1000
0001
1000
0001
0010
1000
,
0001
0000
0000
0000
0000
1100
0000
1100
0000
0000
0000
0000
0010
0000
0000
0000
,
0110
0000
0000
0000
0000
0001
0100
0001
0000
0000
0000
0000
0000
1001
0000
0000
,
0000
1000
0000
0010
0000
0001
0000
0100
,
1000
0001
1000
0001
1000
0010
0100
0010
,
1000
0100
1000
0100
1000
0001
0100
0001
0100
0001
0010
0100
0010
0100
0010
0001
,
1000
0001
1000
0001
1000
0010
0100
0010
,
0000
0010
1000
0001
1000
0001
1000
0100
,
0000
0100
0010
0000
1010
0000
0100
0010
,
0000
0010
1000
0001
0010
0001
1000
0001
,
1000
0000
1000
0000
0100
0010
0100
0001
,
0000
0001
0010
0000
0010
0000
0010
0100
,
1000
0000
1001
0000
1000
0001
0100
0001
,
0000
0010
0100
0010
1000
0010
1000
0100
,
0001
1000
0001
1000
0001
0010
0001
1000
,
0100
1000
0100
1000
0001
0010
0001
0010
,
0001
0100
0010
1000
0010
1000
0010
0100
,
0001
0100
0001
0010
0001
1000
0100
1000
,
0100
1000
0010
0100
0010
0100
0010
1000
,
0100
1000
0100
1000
0010
0100
0010
0100
,
0010
1000
0001
1000
0001
1000
0010
0100
,
0010
0100
0010
1000
0100
1000
0100
1000
,
0010
0000
0010
0100
0001
1000
0001
1000
,
0000
0100
0010
0000
0010
0100
0001
1000
,
0000
0100
0001
0000
0010
0100
0010
1000
,
0000
1000
0001
0000
0100
0010
0100
0010
,
0200
0000
0000
0000
,
0300
0000
0000
0000
;
