#TITLE:rottel-the-Mercury;
#ARTIST:sampling masters MEGA;
#GENRE:GABBAH;
#MUSIC:Rottel the mercury.ogg;
#BANNER:Rottel the mercury-bn.png;
#BACKGROUND:Rottel the mercury-bg.png;
#CDTITLE:./CDTITLES/BEATMANIA IIDX.PNG;
#SAMPLESTART:39.390;
#SAMPLELENGTH:12.000;
#OFFSET:-0.090;
#BPMS:0=200;
#BGCHANGES:2.000=rottel-the-Mercury.mp4=1.000=0=0=1;

//--------------- dance-single - B. M'Rey ----------------
#NOTES:
     dance-single:
     B. M'Rey:
     Beginner:
     4:
     0,0,0,0,0:
0000
0000
0000
0000
,
0000
0000
0000
0000
,
0000
0000
0000
0000
,
0000
0000
0000
0000
,
0000
0000
0000
0000
,
1000
1000
0001
0001
,
1000
1000
0001
0001
,
1000
1000
0001
0001
,
0100
0000
0100
0000
,
0010
0010
1000
1000
,
0001
0001
0100
0100
,
0010
0010
1000
1000
,
0001
0000
0100
0000
,
0010
0000
0000
0000
,
0001
0000
0000
0000
,
1000
0000
0000
0000
,
0010
0000
0000
0000
,
0110
0000
0000
0000
,
0001
0000
0000
0000
,
1000
0000
0000
0000
,
0110
0000
0000
0000
,
0001
0000
0000
0000
,
1000
0000
0000
0000
,
0110
0000
0000
0000
,
0001
0000
0000
0000
,
0101
0000
0000
0000
,
1010
0000
0000
0000
,
0110
0000
0110
0000
,
0110
0000
0110
0000
,
0110
0000
0000
0000
,
0001
0000
0000
0000
,
1000
0000
0000
0000
,
0110
0000
0000
0000
,
0001
0000
0001
0000
,
1000
0000
1000
0000
,
0010
0000
0010
0000
,
0100
0000
0100
0000
,
0010
0000
0010
0000
,
0001
0000
0001
0000
,
1001
0000
1001
0000
,
1001
0000
0000
0000
,
0100
0100
0100
0000
,
0010
0010
0010
0000
,
1000
1000
1000
0000
,
0001
0001
0001
0000
,
0100
0100
0100
0000
,
0010
0010
0010
0000
,
1000
1000
1000
0000
,
0001
0000
0010
0000
,
0110
0000
0110
0000
,
0001
1000
0001
0000
,
0101
0000
0101
0000
,
0010
1000
0010
0000
,
1010
0000
1010
0000
,
0010
0100
0010
0000
,
0101
0000
0101
0000
,
0101
0000
0000
0000
,
1000
0000
0010
0000
,
0100
0100
0100
0100
,
0010
0000
0001
0000
,
0010
0010
0010
0010
,
1000
0000
0100
0000
,
0001
0001
0001
0001
,
1000
0000
0010
0000
,
1000
1000
1000
0000
,
1001
0000
0000
0000
,
1001
0000
0000
0000
,
1001
0000
0000
0000
,
0020
0000
0000
0030
,
0110
0000
0000
0000
,
0101
0000
0000
0000
,
1010
0000
0000
0000
,
0200
0000
0000
0300
,
0001
0000
0000
0000
,
1000
0000
0000
0000
,
0110
0000
0000
0000
,
0001
0000
0000
0000
,
1000
0000
0000
0000
,
0001
0000
0000
0000
,
1000
0000
0001
0000
,
1000
0000
0001
0000
,
1001
0000
0000
0000
,
0100
0000
0100
0000
,
0110
0000
0000
0000
,
0010
0000
0010
0000
,
0011
0000
0000
0000
,
1000
0000
1000
0000
,
1001
0000
1001
0000
,
1001
0000
1001
0000
,
1001
0000
1001
0000
,
1001
0000
0000
0110
;

//--------------- dance-single - B. M'Rey ----------------
#NOTES:
     dance-single:
     B. M'Rey:
     Easy:
     6:
     0,0,0,0,0:
0000
0000
0000
0000
,
0000
0000
0000
0000
,
0000
0000
0000
0000
,
0000
0000
0000
0000
,
0000
0000
0000
0000
,
0100
0000
0010
0000
,
0001
0000
1000
0000
,
0010
0000
0100
0000
,
0001
1000
0001
1000
,
0001
0000
0100
0000
,
0010
0000
1000
0000
,
0100
0000
0010
0000
,
1000
0000
0000
0000
,
1010
0000
0000
0000
,
0011
0000
0000
0000
,
0101
0000
0000
0000
,
1100
0000
0000
0000
,
0110
0000
0000
0000
,
0101
0000
0000
0000
,
1010
0000
0000
0000
,
1010
0000
1010
0000
,
0100
0000
0001
0000
,
0100
0000
0011
0001
,
1000
0000
0001
0000
,
0100
0000
1010
0010
,
0100
0001
0100
0001
,
1000
0010
1000
0010
,
0100
0001
0100
0001
,
1000
0100
1000
0100
,
1100
0000
0010
0000
,
0010
0000
0010
0000
,
1010
0000
0001
0000
,
0001
0000
0000
0000
,
0100
0001
0100
0001
,
0100
0010
0100
0010
,
1000
0001
1000
0001
,
1000
0010
1000
0010
,
1010
0000
0100
0000
,
0001
0010
0100
1000
,
2000
0000
3020
0000
,
2000
0000
0000
3030
,
0100
0100
0100
0000
,
0001
0001
0001
0000
,
1000
1000
1000
0000
,
0001
0100
0001
0100
,
0010
0010
0010
0000
,
1000
1000
1000
0000
,
0010
0010
0010
0000
,
0100
0000
1001
0000
,
0001
0100
0101
0000
,
0001
0100
0110
0000
,
0001
0100
0101
0000
,
0001
0100
0110
0000
,
1000
0001
1010
0000
,
1000
0100
0011
0000
,
1010
0000
0011
0000
,
1010
0000
0000
0000
,
0001
0000
0100
0000
,
0101
1001
1001
0011
,
0100
0000
0010
0000
,
0011
0110
1100
1100
,
0001
0000
0010
0000
,
1010
1001
1010
1100
,
1000
0000
1000
0000
,
0101
0000
0000
0000
,
1010
0000
1100
0000
,
1001
0000
0101
0000
,
0110
0000
1010
0000
,
0100
0010
0100
0010
,
0011
0000
1010
0000
,
0101
0000
1010
0000
,
0101
0000
1010
0000
,
0100
1000
0100
1000
,
0001
0000
0001
0000
,
0001
0000
0001
0001
,
1010
0000
0001
0000
,
0001
0000
0001
0001
,
0010
0100
1000
0001
,
0100
0010
1000
0001
,
0010
0100
1000
0010
,
1000
1000
1000
0000
,
1000
0010
1000
0100
,
0010
0100
0010
1100
,
0001
0010
0001
0100
,
0010
0100
0010
0101
,
0100
0010
1000
0001
,
0100
0010
1000
0101
,
0010
0010
0001
0001
,
0110
0110
0101
0101
,
1000
0001
1010
0101
,
0000
0000
0000
0000
0000
0010
0100
0000
;

//--------------- dance-single - B. M'Rey ----------------
#NOTES:
     dance-single:
     B. M'Rey:
     Medium:
     9:
     0,0,0,0,0:
0000
0000
0000
0000
,
0000
0000
0000
0000
,
0000
0000
0000
0000
,
0000
0000
0000
0000
,
0000
0000
0000
0000
,
1000
0000
1000
0000
1000
0000
0010
1000
,
0010
0000
0010
0000
0010
0000
1000
0010
,
1000
0000
1000
0000
1000
0000
0100
0010
,
0101
0110
1001
1010
,
0100
0000
0010
1000
0010
1000
0010
0100
,
1000
0000
1000
0000
1000
0000
1000
0100
,
0001
0000
0001
1000
0010
0100
0001
0100
,
0000
0101
0000
1001
0000
0011
0000
0000
,
0100
0001
0100
0001
0100
0001
0100
0001
,
0100
0010
1000
0100
0010
0001
0100
0010
,
0100
0001
0100
0001
0100
0001
0100
0001
,
0100
0001
0010
0100
1000
0010
0100
0001
,
1000
0010
1000
0010
1000
0010
1000
0010
,
1000
0100
0010
0001
1000
0010
0100
0001
,
0001
0000
0001
0000
1010
0000
0000
0010
,
0000
0001
0000
0000
0101
0000
0000
0000
,
1100
0000
0000
0000
,
1100
0000
0001
0001
,
1100
0000
0000
0000
,
1100
0000
0010
0010
,
0101
0000
0011
0000
,
0100
1000
0100
0010
,
0100
0001
0100
0010
,
1000
0100
0010
0100
,
0001
0000
0011
0100
,
1010
0000
0101
0010
,
1010
0000
0000
0000
1000
1000
0000
0001
,
0001
0000
0000
0000
,
0010
0010
0010
0010
,
1001
0001
0101
0010
,
1100
1000
1010
0100
,
0101
1010
0101
0100
,
0110
0011
1100
1000
,
0110
1000
0110
0001
,
0010
0001
0010
0100
0010
0001
0010
0100
,
0010
0001
0010
0100
0010
0001
0100
0000
,
0000
1000
0000
0000
1000
0000
0000
1000
,
0000
0100
0000
0000
0100
0000
0100
0100
,
0000
0010
0000
0000
0010
0000
0000
0010
,
0000
0001
1000
0000
0001
0001
1000
0001
,
0000
1000
0000
0000
1000
0000
0000
1000
,
0000
1000
0000
0000
0001
0000
0010
0100
,
0000
1000
0000
0000
0001
0000
0000
0100
,
0001
0010
0000
0000
0100
0011
0000
0000
,
1000
0010
0001
0010
,
1000
0000
0001
0000
0100
0010
1000
0000
,
0001
0010
0100
1000
,
0010
0000
0001
0000
0010
1000
0001
0000
,
1010
0100
1100
0000
,
1000
0000
0100
0000
0010
0001
1010
0000
,
1001
0000
1100
0000
,
0011
0000
0000
0000
0000
1100
1100
0000
,
0010
0000
0000
0100
0000
0000
0001
0000
1000
0000
0000
0000
0100
0000
0000
0000
,
0010
0001
0010
0001
0010
0001
0010
0001
,
0010
0000
0000
0100
0000
0000
1000
0000
0010
0000
0000
0000
0100
0000
0000
0000
,
0001
1000
0001
1000
0001
1000
0001
1000
,
0001
0000
0000
0010
0000
0000
0100
0000
1000
0000
0000
0000
0001
0000
0000
0000
,
0100
0001
0100
0001
1000
0100
1000
0100
,
0001
0000
0000
0010
0000
0000
0100
0000
1000
0000
0000
0000
0010
0000
0000
0000
,
0100
0001
0000
0001
0000
0001
0000
0001
,
1000
0001
0100
0001
1000
0000
1100
0000
,
0010
0100
0001
0100
0010
0000
1010
0000
,
0010
0100
1000
0100
0001
0000
1001
0000
,
1001
1001
0000
0000
,
0001
1000
0010
0100
0001
0000
0011
0000
,
0010
0100
1000
0010
0100
0000
0110
0000
,
0001
1000
0100
0010
0001
0000
0110
0000
,
0110
1010
0000
0000
,
0100
0000
0001
0000
,
0100
0000
1001
0101
,
0011
0000
1000
0000
,
0001
0000
1010
1001
,
1100
0000
0010
0000
,
1000
0000
1010
0110
,
1100
1100
1100
1100
,
1100
1100
0001
0000
,
0010
0001
1000
0010
0100
0001
0010
0100
,
1000
0001
0010
0100
1000
0010
0100
0000
,
0001
1000
0100
0010
0001
1000
0010
0100
,
0001
0010
0100
1000
0001
0010
0100
0000
,
0010
0001
1000
0010
0100
0001
1000
0010
,
0100
0001
1000
0100
0010
0001
1000
0000
,
0010
0010
0001
1000
0001
0001
0010
0100
,
1000
1000
0001
0100
0010
0010
1000
0010
,
0100
0100
0001
0010
0001
0001
1000
0000
,
0010
0100
0010
0100
0001
1001
1001
0000
;

//--------------- dance-single - B. M'Rey ----------------
#NOTES:
     dance-single:
     B. M'Rey:
     Hard:
     10:
     0,0,0,0,0:
0000
0000
0000
0000
,
0000
0000
0000
0000
,
0000
0000
0000
0000
,
0000
0000
0000
0000
,
0000
0000
0000
0000
,
0110
0000
0110
0000
0110
0000
1000
0001
,
0011
0000
0011
0000
0011
0000
0100
0010
,
1100
0000
1100
0000
1100
0000
0010
0100
,
0001
0100
0010
1000
,
0101
0000
0101
0000
0001
0010
0100
1000
,
0001
0000
0011
0000
0011
0000
1000
0100
,
0010
0101
1100
1000
,
0001
0001
0001
0100
,
0010
1000
0010
1000
0001
0010
0100
1000
,
0010
1100
0010
0110
,
1000
0001
1000
0001
0010
0100
1000
0001
,
0100
0011
1000
1010
,
0001
0010
0100
1000
0001
0100
0010
1000
,
0001
0010
0100
1000
0001
0100
0010
1000
,
0001
0000
0000
0000
,
1010
0000
0110
0000
,
0011
0000
0000
0000
1010
0000
0000
1000
,
0101
0000
0010
0001
,
0110
0000
0000
0000
1010
0000
0000
1000
,
0011
0000
0100
0010
,
1000
0001
0010
0100
,
1000
0001
0100
0001
,
0001
1000
0010
0100
0001
1000
0100
1000
,
0001
0010
0100
1000
0001
0100
0010
1000
,
1100
0000
0000
0001
1000
0100
0000
0010
,
0001
0100
0000
1100
0000
0100
1000
0001
,
0100
0010
0000
1000
0001
0100
0000
0010
,
1000
0000
0000
0000
0002
2000
0000
3003
,
0001
0010
0100
1000
0001
0010
0100
1000
,
0001
0010
0100
1000
0001
0100
0010
1000
,
0001
0010
0100
1000
0001
1000
0010
0100
,
0001
1000
0001
0010
0001
1000
0100
0010
,
0001
1000
0010
0100
0001
1000
0100
0010
,
0001
1000
0010
0100
0001
0010
0100
1000
,
0011
0000
0110
0000
,
0202
0000
0000
0303
,
1000
0100
1000
0100
1000
0100
0010
0000
,
0001
1000
0001
0010
0001
1000
0010
0000
,
1000
0001
1000
0001
1000
0001
0010
0000
,
0100
1000
0100
0010
0100
1000
0001
0000
,
0010
0100
0010
0100
0010
0100
1000
0000
,
0001
0010
0001
1000
0100
1000
0010
0000
,
1000
0100
1000
0100
1000
0100
0010
0001
,
0100
0000
0000
0010
1000
0000
0000
0000
,
0101
1010
0101
0000
,
1010
0101
1010
1010
,
0011
0101
1010
0000
,
0101
1100
0011
1010
,
0110
0101
1010
0000
,
0110
0011
1100
0011
,
1000
0010
0000
0100
0001
0000
0000
1000
,
0010
0000
0000
0000
0000
1100
0101
0000
,
0001
0000
0000
0010
0000
0000
0100
0000
1000
0000
0000
0000
1100
0000
0000
0000
,
0010
0100
0001
1000
0100
0010
0001
1000
,
0001
0000
0000
0010
0000
0000
0100
0000
1000
0000
0000
0000
0101
0000
0000
0000
,
0010
1000
0010
0001
0100
0010
1000
0001
,
0100
0000
0000
0010
0000
0000
1000
0000
0001
0000
0000
0000
1100
0000
0000
0000
,
0010
0001
0010
0100
0001
1000
0100
0010
,
0001
0000
0000
1000
0000
0000
0010
0000
0100
0000
0000
0000
0110
0000
0000
0000
,
1001
0000
0000
0000
,
1100
0011
0110
1010
,
0011
1100
0110
1010
,
1100
0011
0110
0011
,
0001
1000
0001
1000
0001
1000
0001
1000
,
1010
1100
0011
0110
,
1100
0011
0110
0101
,
0011
1100
0110
1010
,
0100
0001
0100
0001
0100
0001
0100
0001
,
1000
0000
0100
0000
,
1000
0000
1010
0101
,
0010
0000
1000
0000
,
0010
0000
0110
0011
,
1100
0011
1100
0011
,
0110
0011
1100
0011
,
1100
0011
0011
1100
,
0010
0001
1000
0000
,
0010
0100
0001
1000
0010
0100
0001
1000
,
0010
0100
0001
1000
0010
0001
0010
0000
,
1000
0001
0100
0010
1000
0001
0100
0010
,
1000
0001
0100
0010
1000
0001
0100
0000
,
0010
1000
0001
0100
0010
1000
0001
0100
,
0010
1000
0001
0100
0010
1000
0100
0000
,
0010
0001
1010
0000
0100
0001
0011
0000
,
1000
0100
0011
0000
0100
0001
1010
0000
,
0100
1000
0101
0000
0010
0100
0011
0000
,
0100
0001
0100
0000
0001
0000
0100
0000
0001
0000
0101
0000
1010
0000
0000
0000
;
