#TITLE:Red Rocket Rising;
#SUBTITLE:;
#ARTIST:BeForU;
#TITLETRANSLIT:;
#SUBTITLETRANSLIT:;
#ARTISTTRANSLIT:;
#GENRE:J-POP;
#CREDIT:;
#MUSIC:Red Rocket Rising.ogg;
#BANNER:Red Rocket Rising-BN.png;
#BACKGROUND:Red Rocket Rising-BG.png;
#CDTITLE:./CDTITLES/DANCE DANCE REVOLUTION/EXTREME 3.PNG;
#SAMPLESTART:34.100;
#SAMPLELENGTH:12.000;
#SELECTABLE:YES;
#OFFSET:-0.058;
#BPMS:0.000=155.000
,172.000=77.500
,192.000=155.000
;
#STOPS:;
#BGCHANGES:;
#FGCHANGES:;

//--------------- dance-single - B. M'Rey ----------------
#NOTES:
     dance-single:
     B. M'Rey:
     Beginner:
     2:
     0,0,0,0,0:
0000
0000
0000
0000
,
0000
0000
0000
0000
,
0000
0000
0000
0000
,
0000
0000
0000
0000
,
0100
0000
0010
0000
,
0001
0000
1000
0000
,
0010
0000
0100
0000
,
0010
0000
1000
0000
,
0001
0000
0010
0000
,
0001
0000
0100
0000
,
0010
0000
1000
0000
,
0100
0000
1000
0000
,
0010
0000
0100
0000
,
0001
0000
0010
0000
,
0100
0000
0010
0000
,
1000
0000
0000
0000
,
0001
0000
0010
0000
,
0001
0000
0100
0000
,
0010
0000
1000
0000
,
0100
0000
0000
0000
,
0010
0000
0000
0000
,
1001
0000
0000
0000
,
0001
0000
0010
0000
,
1000
0100
0010
0000
,
0100
0000
0010
0000
,
0001
0010
0100
0000
,
1000
0000
0010
0000
,
0100
0000
0010
0000
,
1000
0000
0100
0000
,
0001
0000
1000
0000
,
0010
0000
0100
0000
,
1000
0100
0010
0000
,
0001
0000
0010
0000
,
0100
0010
0001
0000
,
1000
0000
0010
0000
,
0100
0000
0001
0000
,
0010
0000
0100
0000
,
0010
0000
1000
0000
,
1001
0000
0000
0000
,
0000
0000
0000
0000
,
0010
0000
0000
0000
,
0100
0000
0000
0000
,
0000
0000
0000
0000
,
1000
0000
0010
0000
,
0100
0000
0001
0000
,
0010
0000
0100
0000
,
0001
0000
1000
0000
,
0010
0000
0000
0000
,
1000
0000
1000
0000
,
0001
0000
0001
0000
,
0010
0000
0100
0000
,
0010
0100
0110
0000
,
1000
0000
0001
0000
,
0010
0000
0100
0000
,
0010
0000
1000
0000
,
0100
0000
1000
0000
,
0001
0000
0010
0001
,
0010
0000
1000
0100
,
1000
0000
0010
0000
,
0100
0000
0010
0001
,
1001
0000
0000
0000
,
0000
0000
0000
0000
,
0100
0000
0100
0000
,
0010
0000
0010
0000
,
1000
0000
1000
0000
,
0100
0000
0100
0000
,
0001
0000
0010
0000
,
1000
0000
0100
0000
,
0010
0000
1000
0000
,
0110
0000
0000
0000
;

//--------------- dance-single - B. M'Rey ----------------
#NOTES:
     dance-single:
     B. M'Rey:
     Easy:
     4:
     0,0,0,0,0:
0000
0000
0000
0000
,
0000
0000
0000
0000
,
0000
0000
0000
0000
,
0000
0000
0000
0000
,
0001
0010
0100
0010
,
1000
0100
1000
0000
,
0010
0100
0010
0001
,
0010
1000
0100
0000
,
0010
0100
0010
0001
,
0010
1000
0100
0000
,
0010
0100
0010
0100
,
0001
1000
0010
0000
,
1000
0001
0010
0100
,
0001
0010
1000
0000
,
0100
1000
0010
0100
,
1000
0001
0100
0000
,
0010
0100
0001
0000
,
1000
0010
0100
0000
,
0010
0100
0001
0010
,
1000
0000
0000
0000
,
0001
0000
0000
0000
,
0110
0000
0000
0000
,
0001
1000
0010
0100
,
0001
0100
1100
0000
,
0010
0100
1000
0100
,
1000
0010
0011
0100
,
1000
0000
0001
0000
,
0010
0100
0010
1000
,
0100
0001
0010
0100
,
0001
0000
1000
0000
,
0010
0100
0001
1000
,
0001
0010
0101
0000
,
1000
0010
0100
0010
,
1000
0100
1000
0010
,
0100
0000
0001
0000
,
1000
0100
1000
0010
,
0100
0001
0010
1000
,
0100
0010
1000
0010
,
0220
0000
0000
0000
,
0000
0000
0000
0330
,
0001
0000
1000
0000
,
0010
0000
0000
0000
0100
0000
0000
2002
,
0000
0000
0000
0000
0000
0000
0000
3003
,
0001
0010
0100
0001
0010
1000
0100
0000
,
1000
0100
1000
0100
0010
0100
0010
0000
,
0001
0010
0001
0010
0100
0010
1000
0000
,
0100
1000
0010
0100
0010
0100
0001
0000
,
2000
0000
0000
0000
0000
0000
0000
3000
,
0011
0000
0110
0000
,
1010
0000
0110
0000
,
0101
0000
1010
0000
,
1000
0001
1000
0010
,
0100
0000
0010
0000
,
1000
0100
1000
0001
,
0010
0001
0010
0100
,
0010
1000
0100
0010
,
1001
0000
0010
0100
,
0001
0000
0010
0100
,
1000
0000
0010
0100
,
0001
0010
0100
0010
,
0220
0000
0000
0000
,
0000
0000
0000
0000
0000
0000
0000
0330
,
1000
0100
1000
0001
,
0010
0001
1000
0100
,
1000
0100
0010
0001
0000
0000
0010
0000
,
0100
0001
1000
0010
,
0001
0010
0100
0000
0001
0010
0100
0000
,
1000
0100
0010
0000
1000
0100
0010
0000
,
1000
0100
0010
1000
,
1001
0000
0000
0000
;

//--------------- dance-single - B. M'Rey ----------------
#NOTES:
     dance-single:
     B. M'Rey:
     Medium:
     6:
     0,0,0,0,0:
0000
0000
0000
0000
,
0000
0000
0000
0000
,
0000
0000
0000
0000
,
0000
0000
0000
0000
,
0001
1000
0010
0100
,
0001
0000
1000
0010
0100
0000
0010
0000
,
0001
0010
1000
0100
,
0010
1000
0010
0000
0100
0001
0100
0000
,
0010
1000
0010
0100
,
1000
0100
1000
0000
0010
0000
0100
0000
,
0001
0010
0001
0000
1000
0100
1000
0000
,
0010
0100
1001
0000
,
0001
0010
0001
0000
0100
0000
0010
0000
,
1000
0100
1000
0000
0010
0100
0010
0000
,
0001
0010
1000
0001
,
1000
0000
0000
0001
0000
0000
0100
0000
0010
0000
0000
0000
0001
0000
1000
0000
,
0010
0100
0010
1000
,
0001
0000
0000
0010
0000
0000
0001
0000
0010
0000
0000
0000
0000
0000
0000
0000
,
1000
0000
0000
0010
0000
0000
0100
0000
0010
0000
0000
1000
0000
0000
0001
0000
,
0200
0000
0000
0000
0000
0000
0300
0001
,
2000
0000
0000
0000
,
3010
0000
0000
0000
0001
1000
0010
0000
,
1000
0000
0000
0000
0001
0000
0010
0000
0100
0000
0000
0001
0000
0000
1000
0000
,
0010
0000
0000
0100
0000
0000
0000
0000
0001
0000
0000
0000
0000
0000
0000
0000
,
0001
0000
0000
1000
0000
0000
0010
0000
0100
0000
0000
0000
0001
0000
1000
0000
,
0010
0100
1001
0010
,
0100
0000
0000
0001
0010
0000
0000
0000
,
1000
0100
1000
0010
,
0100
0001
0010
1000
,
0100
0000
0000
0010
0000
0000
1000
0000
,
0100
0000
0000
0001
0000
0000
0010
0000
1000
0000
0000
0001
0000
0000
0100
0000
,
0010
0000
0000
1000
0000
0000
0001
0000
1000
0000
0000
0000
0000
0000
0000
0000
,
0010
0000
0000
0100
0000
0000
0010
0000
1000
0000
0000
0010
0000
0000
0100
0000
,
0001
0000
0000
0010
0000
0000
1000
0000
0010
0000
0000
0000
0100
0000
0000
0000
,
0010
0000
0000
0001
0010
0000
0000
0000
,
1000
0000
0010
0100
0010
0000
1000
0001
,
0100
0000
0000
0010
0000
0000
0100
0000
0001
0000
0000
1000
0000
0000
0010
0000
,
0100
0000
0000
0001
0000
0000
0000
0000
0010
0000
0000
0000
1000
0000
0000
0000
,
2002
0000
0000
0000
,
0000
0000
0000
0000
0000
0000
0000
3003
,
1000
0001
0010
0100
,
0010
0000
1000
0000
0100
0000
0000
0220
,
0000
0000
0000
0000
0000
0000
0000
0330
,
0001
0010
0100
0010
1000
0100
1000
0000
,
0001
0010
0001
0100
0010
1000
0100
0000
,
0001
0010
0001
0100
0010
1000
0100
0000
,
0010
0100
0010
0100
0001
1000
0010
0000
,
0200
0000
0000
0000
0000
0000
0000
0000
0020
0000
0000
0000
0000
0000
0000
0330
,
0001
0000
0000
1000
0000
0000
0000
0000
0001
0000
0000
1000
0000
0000
0000
0000
,
0010
0000
0000
0100
0000
0000
0000
0000
0010
0000
0000
0100
0000
0000
0000
0000
,
0010
0000
0000
1000
0000
0000
0000
0000
0100
0000
0000
0001
0000
0000
0000
0000
,
0010
0000
0000
1000
0000
0000
0100
0000
0010
0000
0000
0000
0001
0000
0000
0000
,
1001
0000
0000
0001
1000
0000
0000
0000
,
0001
0000
0000
1000
0000
0000
0010
0000
0100
0000
0000
0010
0000
0000
0001
0000
,
1000
0000
0000
0010
0000
0000
0100
0000
0001
0000
0000
0010
0000
0000
0001
0000
,
1000
0010
0100
0000
,
1001
0000
0000
0000
0000
0000
0000
0000
0010
0000
0000
0100
0000
0000
0001
0000
,
1000
0000
0000
0000
0000
0000
0000
0000
0010
0000
0000
0100
0000
0000
0010
0000
,
1000
0000
0000
0001
0100
0000
0010
1000
,
0001
0100
0010
1000
,
2002
0000
0000
0000
,
0000
0000
0000
0000
0000
0000
0000
3003
,
1000
0100
1000
0100
0000
0000
0010
0000
,
0100
0001
0010
0001
,
0001
0010
0001
0010
0000
0000
0100
0000
,
0010
1000
0100
1000
,
0010
1000
0010
0000
0100
0001
0100
0000
,
0010
1000
0100
0010
,
1001
0000
0110
0000
,
0101
0000
0000
0000
;

//--------------- dance-single - B. M'Rey ----------------
#NOTES:
     dance-single:
     B. M'Rey:
     Hard:
     8:
     0,0,0,0,0:
0000
0000
0000
0000
,
0000
0000
0000
0000
,
0000
0000
0000
0000
,
0000
0000
0000
0000
,
0001
0000
1000
0000
0001
0000
0010
0000
0100
0000
0000
0100
0000
0000
1000
0000
,
0010
1000
0010
0100
0001
0000
1000
0000
,
0010
0100
0010
1000
0100
1000
0100
0010
,
0001
0000
0000
0100
0000
0000
1000
0000
0001
0000
0000
0000
0001
0000
0000
0000
,
0010
0000
1000
0000
0010
0000
1000
0000
0001
0000
0000
0100
0000
0000
0010
0000
,
0100
0000
0000
0001
0000
0000
1000
0000
0100
0000
0000
0000
0001
0000
0000
0000
,
0001
1000
0100
0000
0100
0010
0001
0000
,
0001
0000
0000
0100
0000
0000
0010
0000
0100
0000
0000
0000
0001
0000
0000
0000
,
0001
0010
0100
1000
0100
1000
0001
0010
,
0001
0010
0100
1000
0100
0000
0001
0000
,
0001
0000
0010
0000
0010
1000
0100
0010
,
0100
0000
0000
0001
0000
0000
1000
0000
0010
0000
0000
0000
0001
0000
0000
0000
,
0100
1000
0100
0010
0001
0000
0001
0000
,
0010
1000
0010
0100
0001
0000
0001
0000
,
0100
0010
0100
1000
0010
0100
0010
0100
,
0001
0000
0000
0001
0000
0000
0010
0000
0100
0000
0000
1000
0000
0000
1000
0000
,
0001
0000
0000
0100
0000
0000
0010
0000
0001
0000
0100
0000
0001
0000
1000
0000
,
0100
0000
0010
0000
0001
0100
0001
0010
,
0100
0000
0000
1000
0000
0000
1000
0000
0001
0000
0000
0001
0000
0000
0010
0000
,
0100
1000
0001
0000
0011
0000
0100
0000
,
0100
0000
0000
0010
0000
0000
0010
0000
0001
0000
0000
1000
0000
0000
1000
0000
,
0001
1000
0010
0000
1010
0000
0001
1000
,
0001
0000
0100
0010
0100
0000
0010
0000
,
0010
0100
0001
0100
0001
0010
0100
0010
,
0001
0100
0001
0100
0010
1000
0001
1000
,
0010
0000
0010
0100
0001
1000
0001
1000
,
0010
0000
0000
0100
0000
0000
0100
0000
0001
0000
0000
0010
0000
0000
0010
0000
,
0100
1000
0010
1000
0010
0000
0001
0000
,
0001
0000
0000
1000
0000
0000
0100
0000
0010
0000
0000
0001
0000
0000
1000
0000
,
0100
1000
0100
0010
0001
0000
0101
0000
,
0110
0000
0010
1000
0001
0000
0001
0010
,
0100
0000
0000
0010
0000
0000
1000
0000
0001
0000
0000
1000
0000
0000
0010
0000
,
0100
0000
0000
0000
0001
0000
0000
0000
1000
0000
0000
0010
0000
0000
0100
0000
,
0010
0000
0100
1000
0100
0000
0001
0010
,
2002
0000
0000
0000
,
0000
0000
0000
3003
,
0001
1000
0001
1000
0100
0010
0100
0010
,
0001
1000
0001
0100
0010
0000
0000
0220
,
0000
0000
0000
0000
0000
0000
0000
0000
0000
0000
0000
0000
0000
0000
0000
0330
,
0001
0000
0000
0000
1000
0000
0000
0000
0010
0000
0000
0000
0100
0000
0000
0000
0010
0000
0000
0001
0000
0000
1000
0000
0010
0000
0000
0000
0000
0000
0000
0000
,
0100
0000
0000
0000
0010
0000
0000
0000
1000
0000
0000
0000
0010
0000
0000
0000
0100
0000
0000
0010
0000
0000
0001
0000
0010
0000
0000
0000
0000
0000
0000
0000
,
1000
0000
0000
0000
0100
0000
0000
0000
1000
0000
0000
0000
0010
0000
0000
0000
0100
0000
0000
0010
0000
0000
0001
0000
0010
0000
0000
0000
0000
0000
0000
0000
,
1000
0000
0000
0000
0010
0000
0000
0000
0100
0000
0000
0000
0010
0000
0000
0000
0001
0000
0000
1000
0000
0000
0010
0000
0100
0000
0000
0001
0000
0000
0010
0000
,
1000
0100
0010
0001
,
1000
0000
0001
1000
0010
0000
0100
0010
,
0100
0000
0001
0010
0001
0000
0010
1000
,
0010
0000
1000
0010
1000
0000
0010
0100
,
0001
0000
0000
1000
0000
0000
0010
0000
0100
0000
0000
0000
0001
0000
0000
0000
,
0001
1000
0001
1000
0100
0000
0001
0000
,
0100
0010
0001
0000
0010
0100
0010
0000
,
0001
0100
0001
0000
0010
1000
0010
0000
,
0001
0000
0000
0010
0000
0000
0010
0000
0100
0000
0000
0000
0001
0000
1000
0000
,
0100
0000
0000
0000
0100
0000
0010
0000
0001
0000
0000
1000
0000
0000
1000
0000
,
0001
0000
0000
0000
0010
0000
0100
0000
0010
0000
0000
0001
0000
0000
1000
0000
,
0001
0000
0000
0000
0100
0000
0010
0000
0100
0000
0000
1000
0000
0000
1000
0000
,
0001
0000
0000
0010
0000
0000
0100
0000
0001
0000
0000
1000
0000
0000
1000
0000
,
0220
0000
0000
0000
,
0000
0000
0000
0000
0000
0000
0000
0000
0000
0000
0000
0000
0000
0000
0000
0330
,
0001
1000
0100
0010
0000
0010
0000
0100
,
0010
0000
0010
1000
0100
0000
0100
0000
,
0001
0010
0100
1000
0000
1000
0010
0000
,
0010
0000
0001
0000
0100
1000
0001
0000
,
0010
0100
0001
1000
0100
1000
0100
0010
,
0001
0000
0000
0010
0000
0000
1000
0000
0010
0000
0000
0100
0000
0000
0100
0000
,
0001
0000
0000
0100
0000
0000
1000
0000
0010
0000
0100
0000
0010
0000
0100
0000
,
1001
0000
0000
0000
;
