#VERSION:0.83;
#TITLE:Rave Until The Night is Over (Cyber Trance Mix);
#ARTIST:DM Ashura feat. MC Jay & Weronica;
#GENRE:TRANCE;
#MUSIC:Rave Until The Night is Over (Cyber Trance Mix).ogg;
#BANNER:Rave Until The Night is Over (Cyber Trance Mix)-BN.png;
#BACKGROUND:Rave Until The Night is Over (Cyber Trance Mix)-BG.png;
#CDTITLE:./CDTITLES/DANCE DANCE REVOLUTION EXTREME 3.PNG;
#SAMPLESTART:69.66;
#SAMPLELENGTH:15;
#OFFSET:-0.004;
#BPMS:0=148;

//--------------- dance-single - B. M'Rey ----------------
#NOTEDATA:;
#STEPSTYPE:dance-single;
#DESCRIPTION:B. M'Rey;
#DIFFICULTY:Beginner;
#METER:3;
#RADARVALUES:0,0,0,0,0;
#NOTES:
0000
0000
0000
0000
,
0000
0000
0000
0000
,
0000
0000
0000
0000
,
0000
0000
0000
0000
,
0100
0000
0000
0000
,
0001
0000
0000
0000
,
1000
0000
0000
0000
,
0010
0000
0000
0000
,
0110
0000
0000
0000
,
0000
0000
0000
0000
,
0001
0000
0001
0000
,
0010
0000
0000
0000
,
0001
0000
1000
0000
,
0001
0000
0000
0000
,
0001
0000
1000
0000
,
0001
0000
0000
0000
,
0001
0000
1000
0000
,
1000
0000
0000
0000
,
1000
0000
0001
0000
,
0100
0000
0000
0000
,
0010
0000
0100
0000
,
0010
0000
0000
0000
,
1000
0000
0010
0000
,
0001
0000
0000
0000
,
0001
0000
0100
0000
,
0010
0000
0000
0000
,
1000
0000
0000
0000
,
1000
0000
0000
0000
,
0010
0000
0000
0000
,
0100
0000
0000
0000
,
0001
0000
0000
0000
,
0010
0000
1000
0000
,
0001
0000
0100
0000
,
0010
0000
0010
0000
,
0010
0000
0000
0000
,
0001
0000
0000
0000
,
1000
0000
0010
0000
,
0100
0000
0000
0000
,
0010
0000
0001
0000
,
1000
0000
0000
0000
,
0010
0000
0100
0000
,
0001
0000
0000
0000
,
1000
0000
0001
0000
,
1000
0000
0000
0000
,
0010
0000
0100
0000
,
0001
0000
0000
0000
,
0010
0000
1000
0000
,
0010
0000
0000
0000
,
0100
0000
0001
0000
,
0010
0000
0000
0000
,
1000
0000
0100
0000
,
1001
0000
0000
0000
,
0010
0000
0000
0000
,
1001
0000
0000
0000
,
0100
0000
0000
0000
,
1001
0000
1000
0000
,
1000
0000
0001
0000
,
0101
0000
0001
0000
,
0010
0000
0100
0000
,
1001
0000
0010
0000
,
0100
0000
0100
0000
,
0200
0000
0000
0000
,
0301
0000
0001
0000
,
0002
0000
0000
0000
,
0013
0000
0010
0000
,
0020
0000
0000
0000
,
0031
0000
0100
0000
,
0020
0000
0000
0030
;

//--------------- dance-single - B. M'Rey ----------------
#NOTEDATA:;
#STEPSTYPE:dance-single;
#DESCRIPTION:B. M'Rey;
#DIFFICULTY:Easy;
#METER:5;
#RADARVALUES:0,0,0,0,0;
#NOTES:
0000
0000
0000
0000
,
0000
0000
0000
0000
,
0000
0000
0000
0000
,
0000
0000
0000
0000
,
0100
0000
0001
0000
,
0010
0000
0010
0000
,
0001
0000
0100
0000
,
0001
0000
0100
0000
,
0010
0000
0000
0000
,
1001
0000
0000
0000
,
1001
0000
0001
0000
,
0001
0000
1000
1000
,
1000
0000
0010
0000
,
0100
0000
0010
0010
,
0010
0000
0001
0000
,
1000
0000
0001
0001
,
0001
0000
0010
0000
,
0100
0000
1000
1000
,
1001
0000
0010
0000
,
0100
0000
0001
0010
,
1100
0000
0000
0000
0000
0000
0000
0000
0000
0000
0000
0000
0000
0000
0000
0000
0000
0000
0000
0000
0000
0000
0000
0000
0000
0000
0000
0000
0000
0000
0000
0000
0000
0000
0000
0000
0000
0000
0000
0000
0000
0000
0000
0000
0000
0000
0000
0000
0000
0000
0000
0000
0000
0000
0000
0000
0000
0000
0000
0000
0000
0000
0000
0000
0000
0000
0000
0000
0000
0000
0000
0000
0000
0000
0000
0000
0000
0000
0000
0000
0000
0000
0000
0000
0000
0000
0000
0000
0000
0000
0000
0000
0000
0000
0000
0100
0000
0000
0000
0000
0000
0000
0000
0000
0000
0000
0000
0000
0000
0000
0000
0000
0000
0000
0000
0000
0000
0000
0000
0000
0000
0000
0000
0000
0000
0000
0000
0000
0000
0000
0000
0000
0000
0000
0000
0000
0000
0000
0000
0000
0000
0000
0000
0000
0000
0000
0000
0000
0000
0000
0000
0000
0000
0000
0000
0000
0000
0000
0000
0000
0000
0000
0000
0000
0000
0000
0000
0000
0000
0000
0000
0000
0000
0000
0000
0000
0000
0000
0000
0000
0000
0000
0000
0000
0000
0000
0000
0000
0000
0000
0000
0000
,
0010
0001
0010
0100
,
1001
0000
0010
0000
,
0100
1000
0100
0000
,
0011
0000
0001
0000
,
0001
0010
0100
1000
,
1001
0000
0000
0000
,
0001
0100
0001
0000
,
1000
0001
1000
0000
,
0010
0000
0000
0000
,
0100
0000
0010
1000
,
0001
0000
0010
0000
,
0001
0000
0100
0000
,
0010
0000
0010
0000
,
0100
0000
0001
0000
,
0010
0000
0010
0000
,
0001
1000
0001
0000
,
0010
0000
0100
0000
,
0100
0000
0001
0000
,
0010
0000
0010
0000
,
0001
0100
0001
0000
,
0010
0000
1000
0000
,
0010
0000
0100
0000
,
0001
0100
0010
0000
,
1000
0000
0001
0000
,
1000
0000
0001
0000
,
0100
0000
0000
0000
,
0001
0000
0001
0000
,
0100
0000
0100
0000
,
0001
0000
0000
0000
,
0001
0000
0010
0000
,
0100
0000
0100
0000
,
0001
0000
0100
0000
,
1001
0000
0001
0000
,
0010
0000
0100
0000
,
1001
0000
0001
0000
,
0010
0000
1000
0000
,
0101
0000
0100
0000
,
0010
0000
0001
0000
,
0010
0010
0010
0000
,
0001
0001
0001
0000
,
1000
1000
1000
0000
,
0010
0010
0010
0000
,
0100
0100
0100
0000
,
0010
0010
0010
0000
,
1000
1000
1000
0000
,
0001
0001
0001
0000
,
2002
0000
0000
3003
;

//--------------- dance-single - B. M'Rey ----------------
#NOTEDATA:;
#STEPSTYPE:dance-single;
#DESCRIPTION:B. M'Rey;
#DIFFICULTY:Medium;
#METER:8;
#RADARVALUES:0,0,0,0,0;
#NOTES:
0000
0000
0000
0000
,
0000
0000
0000
0000
,
0000
0000
0000
0000
,
0000
0000
0000
0000
,
0100
0001
0010
0000
,
0001
1000
0010
0000
,
1010
0000
1000
0001
,
0010
0001
0100
0010
,
0101
0000
0000
0000
,
0001
0000
1000
0000
,
0001
0000
0010
0000
0001
0010
0001
0000
,
0100
0000
0001
0000
,
0010
0000
0001
0000
1000
0010
1000
0000
,
0001
0000
0100
0000
,
0010
0000
1000
0000
0100
1000
0100
0000
,
1000
0000
0010
0000
,
0100
0000
0010
0000
0001
0010
0001
0000
,
0010
0100
0001
0010
,
0011
0000
1000
0001
,
1010
0000
1000
0001
,
0110
0000
0100
0001
,
1010
0000
1000
0010
,
1010
0000
1000
0001
,
0011
0000
0100
1000
,
1010
0000
0010
0001
,
1001
0000
0010
0100
,
1000
0000
0000
0000
,
0010
0001
0010
0000
0001
0000
0100
0000
,
0010
0000
1000
0000
0001
0010
0001
0000
,
1000
0100
1000
0000
0001
0010
0001
0000
,
0100
0000
0010
0000
0100
0001
0010
0000
,
0001
0011
1000
1010
,
1000
0001
0010
0000
0001
0100
0010
0000
,
0100
1000
0010
0001
,
0010
0010
0010
0010
,
0001
0011
0100
0000
,
0100
1000
0100
0000
1000
0000
0010
0000
,
0001
0011
0010
0000
,
0001
1000
0001
0000
1000
0000
0000
0000
,
0010
1010
1000
0000
,
1000
0100
1000
0000
0010
0000
0100
0000
,
0001
0100
0010
0000
0100
0000
0100
0000
,
0001
0010
0001
0000
1000
0000
0000
0000
,
0001
0011
0100
0110
,
0100
0001
0100
0000
1000
0010
1000
0000
,
0010
0011
0001
1001
,
1000
0010
1000
0000
0001
0010
0001
0000
,
0100
0110
0001
0011
,
0010
1000
0010
0000
1000
0001
1000
0000
,
1000
0100
0010
0001
,
0100
0010
0100
0000
0010
0001
0010
0000
,
0100
0001
1000
0010
,
0001
0010
1000
0001
,
0100
0010
0001
1000
,
0100
0010
0100
0000
0001
0000
0000
0000
,
0010
0001
0001
0010
,
0100
1000
0010
0001
,
0100
0010
1000
0100
,
0010
0001
0010
0000
0001
0000
0100
0000
,
0110
0000
0000
0000
1000
0010
0001
0000
,
1001
0000
1010
0000
,
1010
0000
0000
0000
0100
0010
0001
0000
,
0011
0000
0110
0000
,
0011
0000
0000
0000
0001
0010
0001
0000
,
0011
0000
1010
0000
,
0011
0000
0000
0000
0100
0010
1000
0000
,
0011
0000
0110
0000
,
0022
0000
0000
0033
;

//--------------- dance-single - B. M'Rey ----------------
#NOTEDATA:;
#STEPSTYPE:dance-single;
#DESCRIPTION:B. M'Rey;
#DIFFICULTY:Hard;
#METER:13;
#RADARVALUES:0,0,0,0,0;
#NOTES:
0000
0000
0000
0000
,
0000
0000
0000
0000
,
0000
0000
0000
0000
,
0000
0000
0000
0000
,
0100
0001
0010
0000
1000
1000
0010
0000
,
0100
0010
0001
0000
1000
1000
0010
0000
,
1000
1000
0010
0000
0100
0001
0010
0000
,
0100
0010
0001
0010
0100
0001
2000
0000
,
0002
0000
0000
3003
,
0001
0000
1000
0000
0100
0000
0000
0010
0000
1000
0001
0000
1001
0000
0000
0000
,
0010
1000
0001
1000
1000
0100
1000
0000
,
0010
1000
0010
0100
0010
0001
0010
0000
,
0001
1000
0010
0001
0100
0010
1000
0000
,
1000
0000
0001
0000
1000
0000
0100
0010
1000
0000
1000
0000
0100
0000
0100
0000
,
0001
0100
1000
0010
1000
0010
0100
0000
,
0001
0010
1000
0100
0001
1000
0100
0000
,
0001
1000
0010
0001
0100
0010
1000
0000
,
0100
0000
0010
0000
0001
0000
0010
1000
0001
0000
0001
0000
0100
0000
0100
0000
,
1002
0000
0023
0000
0130
0001
0100
0001
,
0020
0000
0032
0000
0103
1000
0100
0001
,
0020
0000
2030
0000
3001
0001
1000
0100
,
2000
0000
3002
0000
0103
0010
0100
0010
,
1000
0100
1000
0000
0100
0000
0001
0000
0001
0000
0010
0000
0001
0000
0100
0000
,
0010
1000
0010
0000
1000
0000
0010
0000
0001
0000
0010
0000
0100
0000
0010
0000
,
1000
0010
1000
0000
0010
0000
0100
0000
0010
0000
0001
0000
0010
0000
0100
0000
,
0001
0010
0001
0000
0010
1000
0010
0000
1000
0001
1000
0000
0010
0100
0000
0000
,
0100
0000
0000
0100
0000
0000
0100
0000
0100
0000
1000
0000
0001
0000
0000
0000
,
0100
0010
0100
0000
0001
0100
0001
0000
,
1000
0010
0001
0000
0001
0010
1000
0000
,
0010
0100
1000
0000
1000
0100
0001
0000
,
0010
0001
0010
0100
1000
0100
0001
0000
,
0100
1000
0001
0000
0010
1000
0001
0000
,
0100
0001
1000
0010
0001
0010
0001
0000
,
1010
1000
1001
0000
0001
0100
1000
0000
,
1001
0001
0011
0000
0001
0010
0100
1000
,
0100
0000
0101
0000
1000
0001
1000
0000
,
0100
0010
0100
0001
0010
1000
0001
0001
,
1000
0101
0100
1100
,
1000
0010
0001
0000
0001
0100
1000
0000
,
0001
1001
0001
0011
,
0010
0100
1000
0100
0001
0100
0001
1000
,
0010
1000
0100
0000
0100
0001
0010
0000
,
0001
0010
0100
0010
1000
0010
1000
0010
,
0001
0110
1000
0011
,
0100
1000
0001
1000
0100
0010
1000
0001
,
0100
0011
0001
0011
,
1000
0100
0001
0000
0001
0010
1000
0000
,
0001
0011
0010
0110
,
0100
1000
0001
0000
0001
1000
0010
0000
,
1000
0001
0010
0001
0100
0010
1000
0000
,
1000
0100
0001
0000
0001
0100
1000
0000
,
1000
0000
0010
0000
0001
0000
1000
0001
1000
0000
0010
0000
0001
0000
0100
0000
,
0001
0000
0010
0000
1000
0000
0001
0100
0001
0000
0100
0000
1000
0000
0001
0000
,
0010
0000
0001
0000
0100
0000
0010
0100
0010
0000
1000
0000
0010
0000
1000
0000
,
0100
1000
0001
0000
0001
1000
0001
0000
,
0001
0000
0100
0000
1000
0000
0001
0010
0001
0000
0100
0000
0001
0000
0100
0000
,
0010
0000
0100
0000
0010
0000
1000
0100
1000
0000
0100
0000
0001
0000
1000
0000
,
0010
0000
0001
0000
0100
0000
1000
0100
1000
0000
0010
0000
0001
0000
1000
0000
,
0100
1000
0010
0000
0100
0001
0100
0000
,
0010
0000
0100
0000
0001
0000
0010
0001
0010
0000
0001
0000
0100
0000
0010
0000
,
2000
3200
0302
2003
,
3010
0000
0001
0000
0100
0000
0010
1000
0010
0000
0100
0000
1000
0000
0001
0000
,
2000
3200
0320
0230
,
0301
0000
0010
0000
0001
0000
1000
0100
0001
0000
1000
0000
0001
0000
0001
0000
,
0020
0032
0203
2300
,
3010
0000
0001
0000
0100
0000
0010
1000
0010
0000
0100
0000
1000
0000
0001
0000
,
2000
3002
0203
2300
,
0020
0000
0000
3030
;
