#TITLE:ライオンはともだち;
#ARTIST:AKIRA YAMAOKA;
#TITLETRANSLIT:Raion Wa Tomodachi;
#GENRE:ボデー;
#GENRETRANSLIT:BODY;
#MUSIC:Raion Wa Tomodachi.ogg;
#BANNER:Raion Wa Tomodachi-bn.png;
#BACKGROUND:Raion Wa Tomodachi-BG.png;
#CDTITLE:./CDTITLES/DANCE DANCE REVOLUTION EXTREME 3.PNG;
#SAMPLESTART:13.437;
#SAMPLELENGTH:12;
#OFFSET:-0.289;
#BPMS:0=146.035;

//--------------- dance-single - B. M'Rey ----------------
#NOTES:
     dance-single:
     B. M'Rey:
     Beginner:
     2:
     0,0,0,0,0:
0000
0000
0000
0000
,
0000
0000
0000
0000
,
0000
0000
0000
0000
,
0000
0000
0000
0000
,
0000
0000
0000
0000
,
0000
0000
0000
0000
,
0000
0000
0000
0000
,
0000
0000
0000
0000
,
1000
0000
1000
0000
,
0001
0000
0001
0000
,
0100
0000
0100
0000
,
0010
0000
0000
0110
,
0001
0000
0001
0000
,
1000
0000
1000
0000
,
0100
0000
0100
0000
,
0010
0000
0010
0000
,
0100
0000
0001
0000
,
0100
0000
1000
0000
,
0010
0000
1000
0000
,
0100
0000
0000
0110
,
0001
0000
0000
0010
,
0100
0000
0000
1000
,
0100
0000
0010
0000
,
0001
0000
0000
0110
,
1000
0000
1000
0000
,
0001
0000
0001
0000
,
0100
0000
0100
0000
,
0010
0000
0010
0000
,
1000
0000
1000
0000
,
0001
0000
0001
0000
,
0100
0000
0100
0000
,
0010
0000
0010
0000
,
1000
0000
0001
0000
,
0100
0000
0010
0000
,
1000
0000
0010
0000
,
0100
0000
0000
0110
,
0001
0000
0010
0000
,
0001
0000
1000
0000
,
0010
0000
1000
0000
,
0100
0000
0010
0000
,
1000
0000
0001
0000
,
0010
0000
0001
0000
,
0100
0000
0010
0000
,
1000
0000
0000
1010
,
0100
0000
0000
0001
,
0010
0000
0000
1000
,
0100
0000
0010
0000
,
0100
0000
0001
0010
,
1001
0000
0000
0000
;

//--------------- dance-single - B. M'Rey ----------------
#NOTES:
     dance-single:
     B. M'Rey:
     Easy:
     3:
     0,0,0,0,0:
0000
0000
0000
0000
,
0000
0000
0000
0000
,
0000
0000
0000
0000
,
0000
0000
0000
0000
,
0000
0000
0000
0000
,
0000
0000
0000
0000
,
0000
0000
0000
0000
,
0000
0000
0000
1000
,
0100
1000
0100
1000
,
0001
0100
0010
1000
,
0001
0100
0001
0100
,
0010
0000
0001
1100
,
0000
0010
0001
0010
,
0100
0010
0100
1000
,
0100
0010
0001
1000
,
0010
0100
0001
1000
,
0010
1000
0010
0100
,
0010
1000
0100
1000
,
0001
0100
0010
0100
,
0010
0000
0001
0110
,
0000
1000
0000
1000
,
0001
0010
0000
0010
,
0001
0010
0001
1000
,
0100
0010
0000
1001
,
0001
0000
0001
0000
,
0010
0000
0010
0000
,
0100
0000
0100
0000
,
0010
0000
0100
0000
,
0100
0010
0001
0000
,
0001
0010
0100
0000
,
0001
0000
0010
0000
,
0001
0000
1000
0100
,
0010
1000
0010
1000
,
0001
0010
0100
1000
,
0100
0010
0100
1000
,
0001
0000
0000
0110
,
0000
1000
0010
0100
,
0001
0100
0010
0100
,
0001
1000
0001
1000
,
0100
0010
0100
0010
,
0100
1000
0010
1000
,
0001
1000
0100
0010
,
0001
0010
0100
0010
,
0100
0000
0001
0110
,
0000
0100
0010
0000
,
0001
0010
0001
0000
,
0010
1000
0010
1000
,
0001
0100
0000
0110
,
0010
0000
0100
0000
,
0001
0000
0010
0000
,
0010
0000
0001
0000
,
1000
0000
0001
0000
,
0010
0000
0100
0000
,
1000
0000
0100
0000
,
0001
0000
0000
0010
;

//--------------- dance-single - B. M'Rey ----------------
#NOTES:
     dance-single:
     B. M'Rey:
     Medium:
     7:
     0,0,0,0,0:
0000
0000
0000
0000
,
0000
0000
0000
0000
,
0000
0000
0000
0000
,
0000
0000
0000
0000
,
0001
0100
0010
1000
,
0010
0100
0010
0100
,
0001
0010
0001
1000
,
0010
0000
1000
0000
0100
0000
1000
0010
,
0100
0010
0000
0010
0100
0000
0001
1000
,
0001
1000
0000
0010
0001
0000
0010
1000
,
0001
1000
0000
1000
0010
0000
0010
0100
,
0001
0010
0001
0110
,
0001
0010
0000
0010
0001
0000
0100
1000
,
0001
0010
0000
1000
0010
0000
0100
1000
,
0001
0100
0000
1000
0001
0000
0010
1000
,
0010
0100
0000
0010
0001
0000
0010
1000
,
0100
1000
0000
1000
0100
0000
0001
0100
,
0001
0100
0000
1000
0100
0000
0100
1000
,
0001
1000
0000
1000
0010
0000
0001
1000
,
0001
0100
0010
1100
,
0010
0000
0001
0000
1000
0010
0100
0010
,
0100
0000
0001
0000
0010
0000
0001
0100
,
0001
0000
0001
0100
0010
0000
0001
1000
,
0010
0001
0010
1010
,
0001
0000
1000
0000
0100
0010
1000
0000
,
0010
0000
1000
0000
0100
0001
0010
0000
,
0100
0000
0010
0000
0100
0010
1000
0000
,
0001
0000
1000
0000
0001
0010
1000
0000
,
0010
0001
0100
0000
0001
0000
0100
0010
,
0001
1000
0100
0000
0010
0000
1000
0000
,
0010
0000
1000
0000
0100
0001
1000
0000
,
0100
0001
0010
0000
0100
0000
0010
0000
,
1000
0010
0000
0010
0100
0000
0010
0100
,
0010
1000
0000
0010
0100
0000
0010
1000
,
0010
0100
0000
0100
0001
0000
0001
0010
,
0001
0010
0001
0110
,
0001
0010
0000
1000
0010
0000
0010
0100
,
0001
1000
0000
0010
0001
0000
0010
0100
,
0001
1000
0000
1000
0001
0000
0010
1000
,
0100
0010
0000
1000
0100
0000
0010
0100
,
0001
0010
0000
1000
0100
0000
0001
0010
,
0100
1000
0000
1000
0010
0000
0010
0100
,
0010
1000
0000
1000
0001
0000
0010
0100
,
0001
0100
0010
1010
,
0010
0000
0001
0000
0010
0100
0001
1000
,
0001
0000
0100
0000
0010
0000
0001
0010
,
0001
0010
0000
0010
0100
0000
0001
0100
,
0010
0001
0100
1100
,
0001
0000
0100
0000
,
1000
0000
0100
0000
,
0001
0000
1000
0000
,
0001
0000
0100
0000
,
1000
0000
0100
0000
,
0010
0000
0001
0000
,
1000
0000
0001
0100
;

//--------------- dance-single - B. M'Rey ----------------
#NOTES:
     dance-single:
     B. M'Rey:
     Hard:
     9:
     0,0,0,0,0:
0000
0000
0000
0000
,
0000
0000
0000
0000
,
0000
0000
0000
0000
,
0000
0000
0000
0000
,
0001
1000
0001
1000
,
0001
0010
0100
1000
,
0100
1000
0100
0010
,
0001
0000
0010
0000
1000
0000
0001
1000
,
0001
1000
0001
1000
0001
0010
0100
0010
,
0100
0010
0001
0100
0001
0100
0001
0010
,
0100
0010
0100
0010
0001
0100
0001
0100
,
0001
0000
0000
1000
0000
0000
0010
0000
0000
0000
0110
0000
0110
0000
0000
0000
,
0001
1000
0001
1000
0001
0100
0010
0100
,
0010
0100
0001
1000
0001
1000
0001
0100
,
0010
0100
0010
0100
0001
1000
0010
1000
,
0001
1000
0010
0100
0010
0100
0010
1000
,
0100
1000
0100
1000
0001
0100
0010
1000
,
0010
1000
0100
1000
0100
0010
0100
1000
,
0001
1000
0001
1000
0010
0100
0010
0100
,
0010
0000
0000
0001
0000
0000
1000
0000
0000
0000
0110
0000
0110
0000
0000
0000
,
0001
0000
0000
1000
0000
0000
0010
0000
0000
0000
0100
0000
0010
0000
0100
0000
,
0001
0000
0000
0010
0000
0000
1000
0000
0000
0000
0010
0000
0100
0000
0010
0000
,
0100
1000
0100
1000
0100
0010
0001
0010
,
0001
0000
0000
1000
0000
0000
0010
0000
0000
0000
1010
0000
1010
0000
0000
0000
,
0001
0000
0100
0000
0001
0000
0010
0001
0010
0000
0010
0000
0100
0000
0010
0100
,
0010
0000
1000
0000
0100
0000
1000
0001
1000
0000
1000
0000
0001
0000
0100
0001
,
0100
0000
0100
0000
0010
0000
0100
0010
0100
0000
1000
0000
0010
0000
1000
0100
,
1000
0000
1000
0000
0100
0000
0010
0100
0010
0000
0010
0000
0001
0000
0010
0100
,
0010
0100
0010
0100
0010
0000
1000
0000
0100
0000
1000
0000
0001
0010
0001
0010
,
0001
0010
0001
0000
0001
0000
1000
0000
0100
0000
0010
0000
0001
0000
0100
0010
,
0100
0000
0001
0000
0010
0000
1000
0100
0001
0000
0100
0000
0001
0000
1000
0100
,
1000
0000
0100
0010
0100
0000
1000
0100
0010
0100
1000
0100
0010
0000
0100
0000
,
0001
0100
0001
1000
0001
1000
0010
0100
,
0010
0100
0010
1000
0100
0010
0100
1000
,
0100
1000
0001
1000
0001
0010
0001
1000
,
0010
0000
0000
0100
0000
0000
0001
0000
0000
0000
1001
0000
1001
0000
0000
0000
,
0001
1000
0001
0010
0001
1000
0010
1000
,
0010
1000
0001
0100
0010
0100
0010
0100
,
0001
1000
0001
1000
0100
1000
0100
0010
,
0100
0010
0001
0010
0001
0100
0001
1000
,
0100
1000
0100
1000
0001
0010
0001
0010
,
0100
0010
0100
1000
0100
1000
0001
0100
,
0001
0010
0001
0010
0100
0010
0100
1000
,
0100
0000
0000
0001
0000
0000
0010
0000
0000
0000
0110
0000
0110
0000
0000
0000
,
1000
0000
0000
0001
0000
0000
0100
0000
0110
0000
0000
0000
0011
0000
0000
0000
,
0001
0000
0000
1000
0000
0000
0010
0000
0000
0000
1000
0000
0010
0000
0100
0000
,
0010
0100
0001
0100
0010
1000
0001
1000
,
0100
0000
0000
1000
0000
0000
0010
0000
0000
0000
0011
0000
1001
0000
0000
0000
,
0001
0000
0010
0000
,
0100
0000
1000
0000
,
0100
0000
1000
0000
,
0010
0000
0100
0000
,
0001
1000
0001
0010
,
0001
0010
0100
0010
,
0100
1000
0100
1000
;
