#VERSION:0.83;
#TITLE:RETROFUTURE;
#ARTIST:DJ SIMON;
#GENRE:BREAKBEAT;
#MUSIC:Retrofuture.ogg;
#BANNER:Retrofuture.png;
#BACKGROUND:Retrofuture-bg.png;
#CDTITLE:./CDTITLES/BEATMANIA THE FINAL.PNG;
#SAMPLESTART:66.085;
#SAMPLELENGTH:15;
#OFFSET:-0.120;
#BPMS:0=200;

//--------------- dance-single - B. M'Rey ----------------
#NOTEDATA:;
#STEPSTYPE:dance-single;
#DESCRIPTION:B. M'Rey;
#CREDIT:B. M'Rey;
#DIFFICULTY:Beginner;
#METER:3;
#RADARVALUES:0,0,0,0,0;
#NOTES:
0000
0000
0000
0000
,
0000
0000
0000
0000
,
0000
0000
0000
0000
,
0000
0000
0000
0000
,
0000
0000
0000
0000
,
0000
0000
0000
0000
,
0000
0000
0000
0000
,
0000
0000
0000
0000
,
1000
0000
0000
0000
,
0010
0000
0000
0000
,
0100
0000
0000
0000
,
0001
0000
0000
0000
,
0010
0000
0000
0000
,
0000
0000
0000
0000
,
0100
0000
0000
0000
,
1000
0000
1000
0000
,
1000
0000
0000
0000
,
0010
0000
0000
0000
,
0001
0000
0100
0000
,
0100
0000
0100
0000
,
0100
0000
0000
0000
,
0010
0000
0000
0000
,
0001
0000
1000
0000
,
0001
0000
1000
0000
,
1001
0000
0000
0000
,
0010
0000
0000
0000
,
0001
0000
0000
0000
,
0000
0000
0100
0000
,
0010
0000
0000
0000
,
1000
0000
0000
0000
,
0001
0000
0000
0000
,
0001
0000
0010
0000
,
0100
0000
0000
0000
,
0000
0000
1000
0000
,
0000
0000
0010
0000
,
0100
0000
0010
0000
,
0001
0000
0000
0000
,
1000
0000
0000
0000
,
0100
0000
0000
0000
,
0010
0000
0000
0000
,
1000
0000
0000
0000
,
0001
0000
0000
0000
,
1000
0000
0000
0000
,
0001
0000
0000
0000
,
0100
0000
0000
0000
,
0010
0000
0000
0000
,
0100
0000
0000
0000
,
0010
0000
0000
0000
,
1001
0000
0000
0000
,
0001
0000
0000
0000
,
0100
0000
0000
0000
,
0010
0000
0000
0000
,
0010
0000
0000
0000
,
0100
0000
0000
0000
,
1000
0000
0000
0000
,
1001
0000
0000
0000
,
1000
0000
1000
0000
,
1000
0000
0000
0000
,
0000
0000
0000
0000
,
0010
0000
0000
0000
,
0100
0000
0100
0000
,
0100
0000
0000
0000
,
0000
0000
0000
0000
,
0001
0000
0000
0000
,
0011
0000
0000
0000
,
0100
0000
0000
0000
,
1010
0000
0000
0000
,
0100
0000
0100
0000
,
0100
0000
0000
0000
,
0010
0000
0000
0000
,
0001
0000
0000
0000
,
0001
0000
0001
0000
,
0001
0000
0000
0000
;

//--------------- dance-single - B. M'Rey ----------------
#NOTEDATA:;
#STEPSTYPE:dance-single;
#DESCRIPTION:B. M'Rey;
#CREDIT:B. M'Rey;
#DIFFICULTY:Easy;
#METER:6;
#RADARVALUES:0,0,0,0,0;
#NOTES:
0000
0000
0000
0000
,
0000
0000
0000
0000
,
0000
0000
0000
0000
,
0000
0000
0000
0000
,
0000
0000
0000
0000
,
0000
0000
0000
0000
,
0000
0000
0000
0000
,
0000
0000
0000
0000
,
0001
0000
0100
0000
,
0010
0000
1000
0000
,
0100
0000
0000
0000
,
0000
0000
1100
0000
,
0010
0000
1000
0000
,
0001
0000
0100
0000
,
0010
0001
1000
0000
,
0101
0000
0010
1000
,
0010
0000
0100
0000
,
0001
0000
1000
0000
,
0010
0000
0101
0000
,
0010
0000
1000
0000
,
0001
0000
0100
0000
,
0010
0000
0100
1000
,
0100
0001
0010
0100
,
0100
1000
0010
1000
,
0010
0000
0100
0000
,
1100
0000
0010
0000
,
0101
0000
0100
0000
,
0010
0000
0110
0000
,
1001
0000
1000
0000
,
0010
0000
0100
0000
,
0001
1000
1100
0000
,
0010
0000
0001
0100
,
0010
0000
1000
0000
,
0001
0000
0100
0000
,
0010
0000
0001
1000
,
0001
1000
0001
0000
,
0010
0010
0100
0100
,
0001
0001
1000
1000
,
0010
0010
0100
0100
,
0001
0001
1000
1000
,
0010
0010
0000
0000
,
0101
0000
0000
0000
,
0100
0100
0000
0000
,
1010
0000
0000
0000
,
0100
0100
0000
0000
,
0011
0000
0000
0000
,
0010
0010
0000
0000
,
1100
0000
0000
0000
,
1000
1000
0000
1000
,
0001
0000
0000
0000
,
0001
0001
0000
0001
,
1000
0000
0000
0000
,
1000
1000
0000
1000
,
0001
0000
0000
0000
,
0001
0001
0001
0000
,
0010
0000
0000
0000
0000
0100
0000
0000
0000
0000
0000
0010
0000
0000
0000
0000
,
0100
0000
1000
0000
,
1000
0000
1000
0000
,
0000
0000
0000
0000
,
0011
0000
0000
0000
0000
0100
0000
0000
0000
0000
0000
1000
0000
0000
0000
0000
,
0100
0000
0100
0000
,
0100
0000
0100
0000
,
0000
0000
0000
0000
,
0100
0000
0000
0000
0000
1000
0000
0000
0000
0000
0000
0100
0000
0000
0000
0000
,
1000
0000
0000
0000
,
0001
0000
0000
0000
,
0100
0000
0000
0000
,
0100
0000
0000
0000
0000
1000
0000
0000
0000
0000
0000
0010
0000
0000
0000
0000
,
1000
0000
0000
0000
,
0010
0000
0000
0000
,
0001
0000
0000
0000
,
0010
0000
0000
0000
0000
1000
0000
0000
0000
0000
0001
0000
0000
0000
0000
0000
;

//--------------- dance-single - B. M'Rey ----------------
#NOTEDATA:;
#STEPSTYPE:dance-single;
#DESCRIPTION:B. M'Rey;
#CREDIT:B. M'Rey;
#DIFFICULTY:Medium;
#METER:11;
#RADARVALUES:0,0,0,0,0;
#NOTES:
0000
0000
0000
0000
,
0000
0000
0000
0000
,
0000
0000
0000
0000
,
0000
0000
0000
0000
,
0000
0000
0000
0000
,
0000
0000
0000
0000
,
0100
0000
1000
0000
0000
0001
0001
0000
,
0001
0000
0010
0000
0010
0001
0100
0001
,
0100
1000
0001
0010
,
0001
1000
0100
1000
,
0010
0100
0001
1000
,
0010
0100
0010
0100
,
0001
0000
0000
0000
0010
0100
0000
0000
,
1000
0100
0000
0000
0010
0100
0000
0000
,
0001
0100
0000
0000
0001
0100
0000
0000
,
0100
0000
0000
0000
0000
0010
0000
0000
0000
0000
0000
1000
0000
0000
0000
0000
,
1010
0000
0000
0000
1000
0001
0010
0000
,
0100
1000
0010
1000
,
0001
1000
1100
0000
,
1010
0000
0000
0001
1000
0000
0010
0000
,
0001
0001
0100
0010
,
1000
0010
0100
0001
,
1000
0100
1000
0010
,
0100
0000
0001
0000
0010
1000
0001
0010
,
1000
0000
1100
1000
,
0100
0000
0010
0010
0000
0010
0001
0000
,
1000
0000
0100
0100
0000
0100
0001
0000
,
1000
0000
0010
0010
0000
0010
0100
0000
,
0001
0000
1000
0000
0001
0000
0010
1000
,
0001
0100
0010
0000
1000
0001
1000
0010
,
0100
0000
0100
0010
1000
0000
1000
0000
,
0001
0100
0010
1000
,
0001
0100
0010
0000
1000
0000
1000
0000
,
0100
0001
0100
0100
,
1000
0001
0000
0000
1000
0100
1000
0001
,
0010
0001
1000
0010
1000
0001
0010
0001
,
0001
1000
0001
0010
,
0001
0010
0100
0010
,
0100
1000
0100
1000
,
0010
1000
0100
0010
,
0110
0100
0010
0100
,
0001
0010
0100
1000
,
0010
0100
0010
0100
,
0001
0010
0001
1000
,
0001
1000
0100
0010
,
0001
1000
0010
0100
,
0001
0010
0001
0100
,
0010
1000
0100
1000
,
0101
0100
0000
0010
,
0000
0001
0000
0100
,
0000
0010
0000
1000
,
0100
0010
0001
1000
,
0100
1000
0010
1000
,
0010
0100
0001
0010
,
0100
0000
0010
0000
,
1000
0000
0000
0000
0000
0001
0000
0000
0000
0000
0000
0100
0000
0000
0000
0000
,
1100
0000
0001
1000
0001
0000
0001
1000
,
0001
0000
0010
0100
0001
0000
0100
0010
,
0100
0000
0100
0010
0100
0000
0000
0000
,
0110
0000
0000
0000
0000
0110
0000
0000
0000
0000
0000
0110
0000
0000
0000
0000
,
1001
0000
1000
0001
1000
0000
1000
0001
,
1000
0000
0100
0010
1000
0000
0010
0001
,
0010
0000
0010
0001
0010
0000
0000
0000
,
0011
0000
0000
0000
0000
0011
0000
0000
0000
0000
0000
0011
0000
0000
0000
0000
,
1100
1100
0001
0100
,
0001
0100
1000
0010
,
0100
0001
1000
0001
,
0011
0000
0000
0000
0000
0101
0000
0000
0000
0000
0000
1010
0000
0000
0000
0000
,
0101
0000
1000
0000
0000
0010
0000
0000
,
0100
0000
0000
0000
0000
0001
0000
0000
0000
0000
0000
0010
0000
0000
0000
0000
,
0000
0000
0000
1000
0000
0000
0000
0000
0000
0100
0000
0000
0000
0000
0000
0000
,
0011
0000
0000
0000
0000
1100
0000
0000
0000
0000
0000
0101
0000
0000
0000
0000
;

//--------------- dance-single - B. M'Rey ----------------
#NOTEDATA:;
#STEPSTYPE:dance-single;
#DESCRIPTION:B. M'Rey;
#CREDIT:B. M'Rey;
#DIFFICULTY:Hard;
#METER:12;
#RADARVALUES:0,0,0,0,0;
#NOTES:
0000
0000
0000
0000
,
0000
0000
0000
0000
,
0000
0000
0000
0000
,
0000
0000
0000
0000
,
0000
0000
0000
0000
,
0000
0000
0000
0000
,
0000
0000
0000
0000
,
0000
0000
0000
0000
,
0010
0000
0010
0100
0001
0000
0001
1000
,
0010
0000
0010
0100
0010
0000
0001
0010
,
0100
0010
0100
0010
,
0001
0000
0100
0000
0010
1000
0001
1000
,
0010
0000
0010
0100
0001
0100
0000
1000
,
0001
0000
0100
1000
0000
0010
0100
0000
,
0001
0000
0010
0100
0010
0100
0000
1000
,
0020
0000
0000
0000
1000
0000
0000
0000
0001
0000
0000
0000
,
0031
0010
0001
0000
0100
1000
0100
0000
,
0100
0000
0001
0010
0000
0100
0010
0000
,
0100
0010
0001
0000
0010
0100
0010
0000
,
0010
0000
0001
0100
0010
0000
0010
1000
,
0001
0000
0100
0000
0100
1000
0000
1000
,
0010
0000
0010
1000
0000
0100
0001
0000
,
0100
0010
0100
0000
0001
0100
0000
0100
,
0001
0000
0010
1000
0000
1000
0100
0000
,
0100
0010
0001
0010
0001
0000
0100
0010
,
0001
0000
0001
1000
0001
0000
0100
0010
,
0001
0000
1000
0000
0001
1000
0000
1000
,
0001
0000
0100
0010
0001
0000
0100
0000
,
1000
0000
0001
0010
0001
0010
0000
0001
,
0100
0000
0100
1000
0000
0010
0001
0000
,
0001
0100
0010
0100
0001
0010
0000
0100
,
0002
0000
0000
0000
0100
0000
0000
0000
1000
0000
0000
0000
,
0103
1000
0100
0000
0010
0000
0100
0010
,
0001
0000
0010
1000
0000
0010
0100
0000
,
0100
1000
0010
1000
0010
1000
0000
1000
,
0001
0000
0100
1000
0000
0100
0001
0000
,
0010
0100
0010
0000
0001
0000
0010
0000
,
0100
0010
0100
0010
,
1001
0001
0010
0001
,
0110
0100
1001
0110
,
0001
0100
0001
1000
0001
0010
0000
1000
,
0010
1000
0010
0100
0001
1000
0000
0100
,
0001
0000
0001
0100
0000
1000
0010
0000
,
0010
0100
0001
0100
0010
1000
0000
0100
,
0010
0100
0001
0010
0001
0100
0000
0100
,
0010
0000
0010
0100
0000
1000
0100
0000
,
0100
1000
0010
0100
0001
1000
0000
0010
,
0100
0000
0010
0100
0000
1000
0001
0000
,
0001
0100
0010
1000
0001
0000
0001
0000
,
0010
1000
0010
1000
0100
0000
0100
0000
,
0100
1000
0010
1000
0001
0000
0100
0000
,
0100
0010
0100
0010
0001
0000
0010
0000
,
0001
0010
0100
0010
0001
0000
1000
0000
,
0001
0010
0100
1000
0001
0000
0100
0000
,
0001
0100
0001
0100
0001
0000
0100
0000
,
0010
0000
0000
0000
0001
0000
0000
0000
1000
0000
0000
0000
,
0001
0010
0001
0010
0100
0010
0100
1000
,
0001
0010
0001
0010
0001
1000
0100
1000
,
0100
0010
0100
1000
0010
1000
0001
1000
,
0010
0000
0000
0000
0001
0000
0000
0000
0100
0000
0000
0000
,
0001
0100
0010
0000
0001
1000
0010
0000
,
0010
1000
0001
0000
0010
0100
0010
0000
,
0001
0010
0001
0000
0010
0100
0001
0000
,
0100
0000
0000
0000
0001
0000
0000
0000
0100
0000
0000
0000
,
0001
1000
0010
0100
0010
0000
0010
0000
,
0001
0100
0010
0100
0010
0000
0001
0000
,
0001
0010
0001
0100
0010
0000
0001
0000
,
0001
0000
0000
0000
0100
0000
0000
0000
0010
0000
0000
0000
,
0001
0100
0001
0100
0001
0000
0100
0000
,
0001
0010
0001
1000
0001
0000
0100
0000
,
0010
1000
0010
0000
0100
0000
0100
0010
,
0200
0000
0000
0000
0001
0000
0000
0000
0010
0000
0000
0000
,
0300
0000
0000
0000
;

//--------------- dance-single - B. M'Rey ----------------
#NOTEDATA:;
#STEPSTYPE:dance-single;
#DESCRIPTION:B. M'Rey;
#CREDIT:B. M'Rey;
#DIFFICULTY:Challenge;
#METER:17;
#RADARVALUES:0,0,0,0,0;
#NOTES:
0000
0000
0000
0000
,
0000
0000
0000
0000
,
0000
0000
0000
0000
,
0000
0000
0000
0000
,
0000
0000
0000
0000
,
0000
0000
0000
0000
,
0110
0000
0100
1001
0000
1000
1010
0000
,
0101
0000
0000
0000
0110
0000
0000
0000
0010
0001
0010
0000
0001
0000
0100
0000
,
1100
0001
0011
0001
,
0110
0001
1010
0100
,
1100
0000
1000
0100
0010
0001
0100
0010
,
1000
0001
0100
0010
1000
0001
0010
0100
,
1000
0001
1000
0000
0000
0000
0000
0000
0001
0000
0100
0000
0010
0000
0000
0000
,
0010
0100
1000
0000
1000
0001
0010
0000
,
0010
0001
1000
0000
1000
0100
0001
0000
,
0011
0000
0000
0000
0000
1100
0000
0000
0000
0000
0000
0110
0000
0000
0000
0000
,
1001
0000
0000
0000
0001
0100
1000
0001
,
0010
1000
0010
0001
0100
0010
1000
0100
,
0010
1000
0010
1000
1100
0000
0000
0000
,
0101
0000
0000
1000
0101
0000
1000
0000
,
0011
0000
0000
0000
0001
0100
0010
1000
,
0001
0010
0100
0001
0100
0000
1010
1000
,
1001
0000
0011
0011
0011
0000
1100
0100
,
0110
0000
0011
0001
1100
0100
0110
0001
,
1001
0000
0000
1001
1001
0000
1000
0100
,
0010
0100
1000
0101
0101
0000
0001
0010
,
0100
0010
0001
1010
1010
0000
0001
0010
,
0100
0010
0001
1100
1100
0000
0100
0010
,
0001
1000
0100
0010
0100
1000
0001
0100
,
0010
1000
0010
1000
0001
1000
0100
0000
,
0010
0001
0100
0010
1000
0010
1000
0001
,
0100
0001
1000
0010
0100
0010
0100
0001
,
1000
0100
0010
0001
1000
0001
1000
0100
,
0010
0001
0010
1000
0010
0001
1000
0001
,
1000
0001
0100
0010
0100
0000
0000
0000
1000
0100
1000
0000
0100
1000
0100
0000
,
0010
0000
0000
0000
0001
0000
0000
0000
1000
0001
1000
0000
0100
0000
0000
0000
,
1000
0001
0000
0000
0100
0010
0000
0000
0010
0001
0000
0000
0100
0010
0000
0000
,
0010
0001
0000
0000
0100
0010
0000
0000
0010
0001
0000
0000
0100
0010
0000
0000
,
0010
0100
0000
0000
1000
0010
0000
0000
0010
0100
0000
0000
1000
0010
0000
0000
,
0010
0100
0000
0000
1000
0010
0000
0000
0010
0100
0010
0100
0010
1000
0001
1000
,
0001
0000
0010
0100
0100
1000
0100
0001
,
0001
1000
0001
0010
0010
0100
1000
0001
,
0001
1000
0100
0010
0010
1000
0100
0001
,
0001
1000
0100
1000
1000
0001
0010
1000
,
1000
0001
0010
0100
0100
0001
0100
1000
,
1000
0100
0001
1000
1000
0100
0001
1000
,
1000
0100
0010
0001
0001
1000
0010
1000
,
1000
0100
0010
0001
0001
1000
0100
0010
,
0110
0000
0001
0001
0100
0100
0010
1000
,
0001
0001
0100
0100
0010
1000
0001
0001
,
0010
0010
0100
1000
0001
0001
0010
0010
,
0100
1000
0001
0001
0100
0100
1000
1000
,
0100
0100
1000
1000
0001
0001
1000
1000
,
0100
0100
0010
0010
1000
1000
0001
0001
,
0010
0010
0001
0001
0010
0010
0000
0000
,
0110
0000
0000
0000
0000
1010
0000
0000
0000
0000
0000
0011
0000
0000
0000
0000
,
1001
0000
0010
0100
0001
0010
0100
1000
,
0001
1000
0100
0010
0001
0100
0010
0001
,
0100
0010
0100
1000
0100
0010
0000
0000
,
0011
0000
0000
0000
0000
1100
0000
0000
0000
0000
0000
0011
0000
0000
0000
0000
,
1100
0000
1000
0100
0010
0001
1000
0100
,
0010
0100
1000
0001
0010
1000
0001
0010
,
0100
1000
0100
0001
0100
1000
0000
0000
,
1010
0000
0000
0000
0000
0101
0000
0000
0000
0000
0000
1010
0000
0000
0000
0000
,
0101
0000
0000
0000
0001
0010
0000
0000
0100
0010
0000
0000
0010
0001
0000
0000
,
1000
0001
0000
0000
0010
0000
0100
0000
0001
0000
0100
0000
1000
0000
0001
0000
,
0100
0010
1000
0001
1000
0010
0000
0000
,
0101
0000
0000
0000
0000
1010
0000
0000
0000
0000
0000
1001
0000
0000
0000
0000
,
0110
0000
0000
0000
1100
0000
0000
0000
0100
0010
0100
0000
0000
0000
0100
0000
,
0001
0000
1000
0000
0010
0000
0000
0000
0010
1000
0010
0000
0000
0000
0100
0000
,
1000
0000
0100
0000
0010
0000
0000
0000
0100
0010
0100
0000
0000
0000
0000
0000
,
1001
0000
0000
0000
0000
1001
0000
0000
0000
0000
0000
1001
0000
0000
0000
0000
;
