#VERSION:0.83;
#TITLE:RELAX;
#ARTIST:FRANKIE GOES TO HOLLYWOOD;
#GENRE:HI-NRG;
#MUSIC:RELAX.ogg;
#BANNER:RELAX-bn.png;
#BACKGROUND:RELAX-bg.png;
#CDTITLE:./CDTITLES/DANCEMANIA 80'S TWO.PNG;
#SAMPLESTART:27.113;
#SAMPLELENGTH:15;
#OFFSET:-0.311;
#BPMS:0=115.289;

//--------------- dance-single - B. M'Rey ----------------
#NOTEDATA:;
#STEPSTYPE:dance-single;
#DESCRIPTION:B. M'Rey;
#DIFFICULTY:Beginner;
#METER:2;
#RADARVALUES:0,0,0,0,0;
#NOTES:
0000
0000
0000
0000
,
0000
0000
0000
0000
,
0000
0000
0000
0000
,
0000
0000
0000
0000
,
0000
0000
0000
0000
,
0001
0000
0001
0000
,
0001
0000
0100
0000
,
0100
0000
0100
0000
,
1000
0000
1000
0000
,
1000
0000
0001
0000
,
0001
0000
0001
0000
,
0100
0000
0100
0000
,
0100
0000
0010
0000
,
0010
0000
0010
0000
,
0001
0100
0010
0000
,
0100
0000
0100
0000
,
0010
0100
0100
0000
,
0010
0000
0001
0000
,
0001
1000
0010
0000
,
0001
0000
1000
0000
,
0000
0000
0010
1000
,
0010
0000
0001
0000
,
0010
0000
0010
1000
,
0100
0000
0100
0000
,
0010
0000
0010
0100
,
0010
0000
0001
0000
,
0001
0000
0001
0010
,
0100
0000
0100
0000
,
0100
0000
0001
0000
,
0001
0010
0100
1000
,
0100
0000
0100
0000
,
0001
0000
0001
0010
,
0100
0000
0100
0000
,
1000
0000
0001
0000
,
0001
0010
0100
1000
,
0100
1000
0010
1000
,
0100
0000
0100
0000
,
0100
0000
0001
0000
,
0010
0000
0100
0000
,
1000
0000
0001
0100
,
0001
0000
0100
0000
,
1000
0000
0001
0010
,
0001
0000
0001
0000
,
0100
1000
0100
0000
,
0010
0000
0010
0000
,
0001
0100
0010
0000
,
0100
0000
0100
0000
,
0010
0100
0100
0000
,
0010
0000
0001
0000
,
0001
1000
0010
0000
,
0001
0000
1000
0000
,
0000
0000
0010
1000
,
0010
0000
0001
0000
,
0010
0000
0010
1000
,
0100
0000
0100
0000
,
0010
0000
0010
0100
,
0010
0000
0001
0000
,
0001
0000
0001
0010
,
0100
0000
0000
0000
;

//--------------- dance-single - B. M'Rey ----------------
#NOTEDATA:;
#STEPSTYPE:dance-single;
#DESCRIPTION:B. M'Rey;
#DIFFICULTY:Easy;
#METER:4;
#RADARVALUES:0,0,0,0,0;
#NOTES:
0000
0000
0000
0000
,
0000
0000
0000
0000
,
0000
0000
0000
0000
,
0000
0000
0000
0000
,
0000
0000
0000
0000
,
0100
1000
0010
0100
,
0000
0100
0000
0010
,
0001
1000
0100
0000
,
0010
0000
0100
0010
,
0001
0010
0000
0010
,
0100
1000
0001
0000
,
0010
0000
0001
0100
,
0001
0010
0001
0010
,
0100
0000
0001
0000
,
0001
0100
0010
0100
,
0001
0000
0001
0000
,
0100
0010
0002
0000
,
0013
0000
0100
0000
,
0001
0100
0001
0000
,
0001
0000
0010
0000
,
0001
0010
0100
0010
,
0100
0010
0001
0000
,
0010
0100
0010
0100
,
0010
1000
0001
0000
,
0100
0010
0001
1000
,
0100
1000
0100
0000
,
0100
1000
0001
0100
,
0000
1000
0010
1000
,
0001
0000
0010
0000
,
1000
0100
0001
0100
,
0001
0000
0100
0000
,
0010
0000
0001
0010
,
0001
0000
0001
1000
,
0100
0000
0001
0000
,
0110
0000
0110
0000
,
0100
0010
0001
0100
,
0001
0100
0010
0000
,
0010
1000
0010
0000
,
0001
1000
0100
0000
,
0010
1000
0100
0000
,
0001
1000
0100
0000
,
0001
0100
0010
0000
,
0010
1000
0001
0000
,
0001
1000
0010
1000
,
0010
0000
0100
0000
,
0001
1000
0100
0000
,
0001
0000
0010
0000
,
0010
1000
0100
0000
,
0001
0000
0001
0000
,
0001
0010
0100
0000
,
0100
0000
0001
0000
,
0100
1000
0010
1000
,
0100
0000
0100
0010
,
0000
0010
0000
1000
,
0010
0000
0100
1000
,
0000
0010
0000
0100
,
0000
1000
0010
1000
,
0000
0010
0000
0100
,
0001
0000
0000
0000
;

//--------------- dance-single - B. M'Rey ----------------
#NOTEDATA:;
#STEPSTYPE:dance-single;
#DESCRIPTION:B. M'Rey;
#DIFFICULTY:Medium;
#METER:6;
#RADARVALUES:0,0,0,0,0;
#NOTES:
0000
0000
0000
0000
,
0000
0000
0000
0000
,
0000
0000
0000
0000
,
0000
0000
0000
0000
,
0000
0000
0000
0000
,
0001
0100
0001
0100
,
0010
1000
0010
0100
,
0010
0100
0001
1000
,
0010
1000
0001
0100
,
0001
0100
0010
1000
,
0010
1000
0010
0100
,
0001
1000
0010
0100
,
0010
0000
1000
0000
0001
0000
0100
0001
,
0010
0000
0000
0010
0100
0001
0000
0000
,
0001
0000
1000
0000
0001
0000
0000
0010
,
1000
0000
0000
0001
0010
0100
0000
0000
,
1000
0000
0100
0000
0010
0000
0000
0001
,
1000
0000
0000
0100
0010
0100
0000
0000
,
0100
0000
0010
0000
0001
0000
0000
0001
,
0010
0000
0000
0001
0100
0001
0000
0000
,
0010
0000
0100
0000
1000
0001
1000
0010
,
0001
0100
0010
1000
,
0010
0100
0001
1000
,
0100
0010
0100
1000
,
0100
1000
0001
1000
,
0010
0100
0010
1000
,
0010
1000
0001
1000
,
0001
0010
0100
1000
,
0010
1000
0100
0010
,
0001
0100
0010
0100
0010
0100
0001
0000
,
0100
1000
0100
1000
,
0001
0000
1000
0100
0001
0100
0010
0000
,
0001
0010
0100
1000
,
0100
0000
1000
0000
0001
0000
1000
0001
,
0100
1001
0010
1001
,
0010
1000
0100
0010
0001
0010
0001
0100
,
0001
0010
0100
0010
,
0100
0010
0001
1000
,
0001
0010
0001
1000
,
0010
1000
0100
0010
,
0001
1000
0001
0010
,
0001
0100
0010
0100
,
0010
1000
0001
0010
,
0100
0000
1000
0000
0001
0000
1000
0001
,
0010
0000
0000
0010
0100
0001
0000
0000
,
0001
0000
1000
0000
0001
0000
0000
0010
,
1000
0000
0000
0001
0010
0100
0000
0000
,
1000
0000
0100
0000
0010
0000
0000
0001
,
1000
0000
0000
0100
0010
0100
0000
0000
,
0100
0000
0010
0000
0001
0000
0000
0001
,
0010
0000
0000
0001
0100
0001
0000
0000
,
0010
0000
0100
0000
1000
0001
1000
0010
,
0100
1000
0100
0010
,
0100
0010
0001
0100
,
0001
0010
0100
0010
,
0100
1000
0100
0010
,
0001
0010
0100
1000
,
0010
1000
0100
0010
,
0001
0000
0000
0000
;

//--------------- dance-single - B. M'Rey ----------------
#NOTEDATA:;
#STEPSTYPE:dance-single;
#DESCRIPTION:B. M'Rey;
#DIFFICULTY:Hard;
#METER:9;
#RADARVALUES:0,0,0,0,0;
#NOTES:
0000
0000
0000
0000
,
0000
0000
0000
0000
,
0000
0000
0000
0000
,
0000
0000
0000
0000
,
0000
0000
0000
0000
,
0100
1000
0100
1000
0010
0100
0010
0100
,
0001
1000
0001
1000
0100
0010
0100
1000
,
0001
0010
0100
0010
0100
1000
0010
1000
,
0010
0100
0001
0100
0001
1000
0010
1000
,
0001
0100
0001
0100
0010
1000
0010
1000
,
0100
0010
0001
0010
0100
1000
0100
1000
,
0010
0100
0010
1000
0001
1000
0010
0100
,
0010
0100
0001
1000
0001
1000
0100
1000
,
0100
0000
0100
0010
0001
1000
0000
0000
,
0010
0100
0010
1000
0100
0010
0000
1000
,
0001
0000
0010
0100
0010
1000
0000
0000
,
0001
0010
0001
0000
0100
0000
0100
1000
,
0010
0000
0100
0010
0001
1000
0000
0000
,
0001
0100
0010
1000
0010
1000
0000
1000
,
0010
0000
0010
0100
0010
1000
0000
0000
,
0001
0000
1000
0000
0010
1000
0010
1000
,
0110
1100
0011
0000
,
0010
1000
0010
1000
0010
0100
0001
0010
,
1001
0110
0011
0000
,
0010
1000
0100
0010
0001
0100
0010
0100
,
1001
1100
0110
0000
,
0010
0100
0001
0100
0010
0100
0001
0010
,
1001
1100
0110
1000
,
0001
0010
0001
1000
0100
0010
0000
1000
,
0000
1000
0001
1000
0001
0100
0001
0000
,
0100
0010
0000
1000
0010
1000
0010
0000
,
0100
0010
0001
0000
0001
0010
0100
0000
,
0001
0000
0000
0000
0000
0000
0000
0000
0000
0000
0000
0000
0000
0000
0000
0000
0000
0000
0000
0000
0000
0000
0000
0000
0100
0000
0000
0000
0000
0000
0000
0000
0000
0000
0000
0000
0000
0000
0000
0000
0000
0000
0000
0000
0000
0000
0000
0000
0000
0000
0000
0000
0000
0000
0000
0000
0000
0000
0000
0000
0000
0000
0000
0000
0000
0000
0000
0000
0000
0000
0000
1000
0000
0000
0000
0000
0000
0000
0000
0000
0000
0000
0000
0000
0000
0000
0000
0000
0000
0000
0000
0000
0000
0000
0000
0000
0100
0000
0000
0000
0000
0000
0000
0000
0000
0000
0000
0000
0000
0000
0000
0000
0000
0000
0000
0000
0000
0000
0000
0000
0000
0000
0000
0000
0000
0000
0000
0000
0000
0000
0000
0000
0000
0000
0000
0000
0000
0000
0000
0000
0000
0000
0000
0000
0001
0000
0000
0000
0000
0000
0000
0000
0000
0000
0000
0000
0000
0000
0000
0000
0000
0000
0000
0000
0000
0000
0000
0000
0000
0000
0000
0000
0000
0000
0000
0000
0000
0000
0000
0000
0000
0000
0000
0000
0000
0000
0000
0000
0000
0000
0000
0000
,
0100
0000
0000
0000
0000
0000
0000
0000
0000
0000
0000
0000
0000
0000
0000
0000
0000
0000
0000
0000
0000
0000
0000
0000
1000
0000
0000
0000
0000
0000
0000
0000
0000
0000
0000
0000
0000
0000
0000
0000
0000
0000
0000
0000
0000
0000
0000
0000
0000
0000
0000
0000
0000
0000
0000
0000
0000
0000
0000
0000
0000
0000
0000
0000
0000
0000
0000
0000
0000
0000
0000
0100
0000
0000
0000
0000
0000
0000
0000
0000
0000
0000
0000
0000
0000
0000
0000
0000
0000
0000
0000
0000
0000
0000
0000
0000
0010
0000
0000
0000
0000
0000
0000
0000
0000
0000
0000
0000
0000
0000
0000
0000
0000
0000
0000
0000
0000
0000
0000
0000
0000
0000
0000
0000
0000
0000
0000
0000
0000
0000
0000
0000
0000
0000
0000
0000
0000
0000
0000
0000
0000
0000
0000
0000
0010
0000
0000
0000
0000
0000
0000
0000
0000
0000
0000
0000
0000
0000
0000
0000
0000
0000
0000
0000
0000
0000
0000
1000
0000
0000
0000
0000
0000
0000
0000
0000
0000
0000
0000
0000
0000
0000
0000
0000
0000
0000
0000
0000
0000
0000
0000
0000
,
0110
0100
0110
0001
,
0001
1000
0100
1000
0001
1000
0001
0010
,
0011
1100
0110
0000
,
0001
0010
0001
0100
0001
1000
0010
0100
,
1001
1100
0110
0000
,
0010
1000
0001
0010
0001
0100
0001
0010
,
1100
1001
0011
0000
,
0010
0100
0001
1000
0010
0100
0001
1000
,
0101
0110
0110
0000
,
0100
0010
0100
0010
0001
0010
0001
0100
,
0010
0000
0001
1000
0010
0100
0000
0000
,
0100
1000
0001
0100
0001
0010
0000
1000
,
0001
0000
0001
0010
0001
1000
0000
0000
,
0001
0010
0001
0100
0001
0000
0000
0010
,
0001
0000
0001
0010
0001
0010
0000
0000
,
0001
0100
0001
1000
0010
1000
0000
0001
,
0010
0000
0001
1000
0100
0010
0000
1000
,
0010
1000
0100
0010
,
0001
1000
0001
0100
0001
0010
0100
0000
,
0010
1000
0001
0010
,
0001
0010
0001
1000
0001
1000
0010
0000
,
0001
1000
0001
0010
,
0100
0100
0010
1000
0100
0010
0001
0000
,
0010
1000
0010
1000
,
1010
0000
0000
0000
;
