#TITLE:RAN KAN KAN;
#SUBTITLE:;
#ARTIST:TITO PUENTES Y OLGA TANON;
#TITLETRANSLIT:;
#SUBTITLETRANSLIT:;
#ARTISTTRANSLIT:;
#GENRE:;
#CREDIT:;
#MUSIC:Ran Kan Kan.ogg;
#BANNER:Ran Kan Kan.png;
#BACKGROUND:Ran Kan Kan-bg.png;
#CDTITLE:./CDTITLES/LICENSED MUSIC.PNG;
#SAMPLESTART:61.470;
#SAMPLELENGTH:15.000;
#SELECTABLE:YES;
#OFFSET:-0.070;
#BPMS:0.000=130.448;
#STOPS:;
#BGCHANGES:;
#FGCHANGES:;

//--------------- dance-single - B. M'Rey ----------------
#NOTES:
     dance-single:
     B. M'Rey:
     Beginner:
     2:
     0.189,0.238,0.051,0.085,0.004:
0000
0000
0000
0000
,
0000
0000
0000
0000
,
0000
0000
0000
0000
,
0000
0000
0000
0000
,
1000
0000
0001
0000
,
0010
1000
0100
0000
,
0010
0000
0001
0000
,
0100
0010
1000
0000
,
0100
0000
0010
0000
,
0001
0100
1000
0000
,
0010
0000
0100
0000
,
0001
0010
0001
0000
,
0010
0000
1000
0000
,
0010
0100
0000
0000
,
1000
0001
1000
0000
,
0001
0010
0000
0000
,
1000
0001
0010
0000
,
0100
0010
0000
0000
,
0001
1000
0010
0000
,
0100
0010
0000
0000
,
0001
1000
0010
0000
,
0100
0010
0000
0000
,
1000
0001
0100
0000
,
0001
0010
0000
0000
,
0100
0010
0001
0000
,
0020
0000
1030
0100
,
0000
0000
0001
0010
,
0200
0000
0301
0010
,
0100
1000
0100
0010
,
0002
0000
1003
0010
,
0100
0001
0010
0100
,
0020
0000
0031
0000
,
1000
0000
0001
0000
,
1001
0000
0000
0000
,
0100
0000
0000
0001
0000
0000
0100
0000
,
1001
0000
0000
0000
,
0010
0000
0000
1000
0000
0000
0001
0000
,
0100
0000
0000
0000
,
0001
0000
0000
0000
,
1000
0000
0000
0000
0000
0000
0000
0100
0000
0000
0000
0000
1000
0000
0000
0000
,
0100
0000
0000
0010
0000
0000
0100
0000
,
0010
0000
0000
0110
0000
0000
0110
0000
,
0200
0000
0301
0010
,
0000
0000
1000
0100
,
0020
0000
1030
0100
,
0010
0000
0010
0100
,
2000
0000
3001
0100
,
0010
1000
0100
0010
,
0200
0000
1300
0000
,
0001
0000
0000
1000
,
1001
0100
0000
0000
,
1000
0001
1000
0000
,
0001
0010
0000
0000
,
1000
0001
0010
0000
,
0100
0010
0000
0000
,
0001
1000
0010
0000
,
0100
0010
0000
0000
,
0001
1000
0010
0000
,
0100
0010
0100
0000
,
0000
0000
0000
0000
,
2002
0000
0000
0000
,
0000
0000
0000
0000
,
0000
0000
0000
3003
0000
0000
0000
0000
0000
0000
0000
0000
0000
0000
0000
0000
;

//--------------- dance-single - B. M'Rey ----------------
#NOTES:
     dance-single:
     B. M'Rey:
     Easy:
     3:
     0.245,0.317,0.043,0.238,0.038:
0000
0000
0000
0000
,
0000
0000
0000
0000
,
0000
0000
0000
0000
,
0000
0000
0000
0000
,
1000
0001
0010
0100
,
0010
0000
0000
0000
1000
0000
0000
0000
0000
0001
0000
0000
0000
0000
0000
0000
,
0010
0100
0001
0010
,
1000
0000
0000
0000
0100
0000
0000
0000
0000
1000
0000
0000
0000
0000
0000
0000
,
0010
0100
0001
1000
,
0010
0000
0000
0000
0100
0000
0000
0000
0000
0001
0000
0000
0000
0000
0000
0000
,
1000
0010
0100
0001
,
0010
0000
0000
0000
0001
0000
0000
0000
0000
0100
0000
0000
0000
0000
0000
0000
,
2000
0000
3001
0000
,
0100
1000
0010
0100
,
0002
0000
0003
0010
,
0100
0010
1000
0001
,
0200
0000
0000
0300
,
0001
0010
0100
0010
,
2000
0000
0000
3000
,
0001
0010
0001
0100
,
0020
0000
0000
0030
,
1000
0001
0010
0100
,
0010
0100
0010
0100
0010
0000
0110
0000
,
0001
1000
0010
0100
,
0001
1000
0001
1000
0001
0000
0000
0000
,
0200
0000
0000
0000
0000
0000
0000
0300
0010
0000
0000
0000
0001
0000
0000
0000
,
0020
0000
0000
0000
0130
0001
0010
0000
,
0200
0000
0000
0000
0000
0000
0000
0300
0001
0000
0000
0000
0010
0000
0000
0000
,
0100
0010
1000
0001
,
0020
0000
0000
0000
0000
0000
0000
0030
1000
0000
0000
0000
0100
0000
0000
0000
,
1000
0010
0001
0100
,
0020
0000
0000
0000
0000
0000
0000
0030
0002
0000
0000
0000
0000
0000
0000
2003
,
0000
0000
0000
0000
0000
3200
0000
0000
0000
0000
0000
0000
0000
0000
0000
0000
,
0310
0000
0001
0000
,
1000
0000
0010
0000
,
0101
0000
0010
0000
,
1000
0000
0100
0000
,
0002
0000
0003
0000
,
0200
0000
0300
0000
,
0010
0000
0000
0000
0000
0000
0000
1000
0000
0000
0000
0000
0010
0000
0000
0000
,
1000
0000
0000
0001
0000
0000
1000
0000
,
0001
0000
0000
1001
0000
0000
1001
0000
,
0002
0000
0000
0000
0000
0000
0000
0003
1000
0000
0000
0000
0010
0000
0000
0000
,
1000
0000
0100
0000
0001
0010
1000
0000
,
0002
0000
0000
0000
0000
0000
0000
0003
0010
0000
0000
0000
1000
0000
0000
0000
,
0001
1000
0100
0010
,
2000
0000
0000
0000
0000
0000
0000
3000
0100
0000
0000
0000
0001
0000
0000
0000
,
0100
1000
0010
0001
,
2000
0000
0000
0000
0000
3000
0020
0000
0000
0000
0000
0230
0000
0000
0000
0000
,
0000
0302
0000
0000
0000
0000
0000
0000
0000
0000
0000
0000
0010
0000
0013
0000
,
0100
1000
0010
0100
,
0002
0000
0003
0010
,
0100
0010
1000
0001
,
0200
0000
0000
0300
,
0001
0010
0100
0010
,
2000
0000
0000
3000
,
0001
0010
0001
0100
,
0020
0000
0000
0030
,
1000
0000
0001
0000
0010
0100
0010
0000
,
0000
0000
0000
0000
,
0220
0000
0000
0000
,
0000
0000
0000
0000
,
0000
0000
0000
0330
0000
0000
0000
0000
0000
0000
0000
0000
0000
0000
0000
0000
;

//--------------- dance-single - B. M'Rey ----------------
#NOTES:
     dance-single:
     B. M'Rey:
     Medium:
     6:
     0.302,0.37,0.094,0.085,0.051:
0000
0000
0000
0000
,
0000
0000
0000
0000
,
0000
0000
0000
0000
,
0000
0000
0000
0000
,
0010
0100
0001
0010
,
1000
0000
0100
0000
0000
0010
0000
0000
,
0001
0010
0001
0010
,
0100
0000
1000
0000
0000
0010
0000
0000
,
0100
0010
0001
0010
,
1000
0000
0100
0000
0000
0010
0000
0000
,
0001
0010
0001
0100
,
0010
0000
1000
0000
0000
0100
0000
0000
,
0001
1000
0001
0000
0110
0000
0000
0000
,
0010
0100
0001
0010
,
1000
0100
0010
0000
0000
0000
1001
0000
,
0001
0010
0100
0010
,
0001
0010
0100
0000
0000
0000
0110
0000
,
1000
0010
0100
0001
,
0010
0100
1000
0000
0000
0000
0011
0000
,
0010
0100
0001
0010
,
1000
0100
0010
0000
0000
0000
1010
0000
,
0001
1000
0001
0000
1000
0000
0001
0000
,
1000
0001
1000
0001
0000
0000
0110
0000
,
0100
0010
0100
0000
0010
0000
0100
0000
,
0010
0100
0010
0200
0000
0000
0300
0000
,
1000
0000
1000
0000
1000
0000
0000
1000
0000
0000
0001
0000
0010
0000
0000
0200
,
0000
0000
0000
0300
1000
0010
0100
0001
,
0001
0000
0001
0000
0001
0000
0000
0001
0000
0000
0000
0000
0010
0000
0000
0000
,
0100
1000
0010
0100
,
0001
0000
1000
0000
0001
0000
0000
1000
0000
0000
0001
0000
0010
0000
0000
0000
,
0100
0010
0001
1000
,
0010
0000
0100
0000
0010
0000
0000
0100
0000
0000
0000
0001
0000
0000
0000
0000
,
0010
0000
0000
0100
0000
0000
0000
0000
,
1000
0010
0100
0001
,
0010
0001
0100
1000
,
0010
0100
0001
0010
,
1000
0100
0001
0010
,
0002
0000
0000
0003
,
0200
0000
0000
0300
,
0010
0000
0000
0000
0000
0000
0000
0001
0000
0000
0000
0000
1000
0000
0000
0000
,
0010
0000
0000
0100
0000
0000
0001
0000
,
0010
0000
0000
0110
0000
0000
1001
0000
,
0010
0000
0010
0000
0010
0000
0000
0010
0000
0000
1000
0000
0001
0000
1000
0000
,
0002
0000
0000
0000
0103
0010
0100
0010
,
0100
0000
0100
0000
0100
0000
0000
0100
0000
0000
0000
0000
0010
0000
0000
0000
,
0001
0000
0100
0000
0010
1000
0100
0000
,
0010
0000
0100
0000
0010
0000
0000
0100
0000
0000
0000
0000
0001
0000
1000
0000
,
0010
0100
0000
0010
0001
0010
0100
1000
,
0001
0000
1000
0000
0001
0000
0000
2000
0000
0000
0000
3020
0000
0000
0000
0000
,
0000
0230
0000
0000
0000
0000
0001
0301
,
0010
0100
0001
0010
,
1000
0100
0010
0001
0000
0000
0000
0000
,
0001
0010
0100
0010
,
0001
0010
0100
1000
0000
0000
0000
0000
,
1000
0010
0100
0001
,
0010
0100
1000
0100
0000
0000
0000
0000
,
0010
0100
0001
0010
,
1000
0100
0010
0100
0000
0000
0000
0000
,
1001
0000
1001
0000
0001
1000
0001
0000
,
0000
0000
0000
0000
,
0220
0000
0000
0000
,
0000
0000
0000
0000
,
0000
0000
0000
0330
0000
0000
0000
0000
0000
0000
0000
0000
0000
0000
0000
0000
;

//--------------- dance-single - B. M'Rey ----------------
#NOTES:
     dance-single:
     B. M'Rey:
     Hard:
     9:
     0.54,0.582,0.349,0.06,0.327:
0000
0000
0000
0000
,
0000
0000
0000
0000
,
0000
0000
0000
0000
,
0000
0000
0000
0000
,
1000
0001
0010
0100
0010
1000
0010
0001
,
0010
0000
1000
0001
0010
0000
0100
0000
0000
0001
0000
0000
0000
0000
0000
0000
,
0010
0100
0001
1000
0010
0100
0001
0010
,
0001
0000
1000
0100
0010
0000
0001
0000
0000
0100
0000
0000
0000
0000
0000
0000
,
0001
1000
0010
0100
0001
0010
0100
0001
,
1000
0000
0010
0001
0100
0000
1000
0000
0000
0010
0000
0000
0000
0000
0000
0000
,
1000
0001
0010
0001
0100
0010
1000
0100
,
0001
0000
0010
1000
0100
0000
0001
0000
0000
0100
0000
0000
0000
0000
0000
0000
,
1000
0001
1000
0000
0020
0000
0000
0000
,
0130
1000
0001
0000
0010
0100
0001
1000
,
0010
0000
0100
0010
0001
1000
0000
0100
0000
0000
0010
0000
1000
0000
0100
0000
,
0001
1000
0010
0000
0100
0010
0001
1000
,
0010
0000
0100
0001
0010
1000
0000
0100
0000
0000
0000
0001
0000
0000
0010
0000
,
0100
1000
0001
0010
0001
0100
0010
1000
,
0001
0000
1000
0010
0100
0001
0000
0100
0000
0000
1000
0000
0100
0000
0001
0000
,
0010
0100
1000
0001
0010
0001
0100
0010
,
1000
0000
0001
0010
0100
1000
0000
0100
0000
0000
0001
0000
0010
0000
0100
1000
,
0001
0010
0100
1000
0100
0001
0100
1000
,
0100
0000
0001
0100
1000
0100
0000
0001
0000
0000
0000
0000
0110
0000
0000
0000
,
1000
0010
0001
0010
1000
0010
0001
0010
,
1000
0000
0010
0001
0010
1000
0000
0020
0000
0000
0000
0000
0000
0000
0000
0000
,
0130
0000
0110
0000
0110
0000
0000
0110
0000
0000
0001
0000
1000
0000
0010
0000
,
0200
0000
0000
0000
0010
0000
0000
0000
0310
0001
1000
0010
0100
0010
0001
0000
,
0011
0000
0011
0000
0011
0000
0000
0011
0000
0000
0010
0000
1000
0000
0100
0000
,
0001
0010
0100
1000
0010
0100
0001
0010
,
1100
0000
1100
0000
1100
0000
0000
1100
0000
0000
0010
0000
1000
0000
0010
0000
,
0100
0001
0010
0001
0100
0010
0100
1000
,
1001
0000
1001
0000
1001
0000
0000
1001
0000
0100
0010
0000
0001
0000
0000
0010
,
0100
0000
1000
0000
0000
0010
0100
0000
0001
0000
0010
0000
1000
0000
0100
0000
,
1001
0100
0010
1000
,
0001
0010
0001
0100
,
0110
1000
0001
0010
,
0001
0100
0010
1000
,
0100
0000
0000
0000
0001
0000
0000
0000
1000
0000
0000
0000
0010
0000
0000
0000
0100
0000
0000
0000
0010
0000
0000
0000
0000
0000
0000
0000
0000
0000
0000
0000
0000
0000
0000
0000
1000
0000
0000
0000
0000
0000
0000
0000
0000
0001
0000
0000
,
1000
0000
0000
0000
0100
0000
0000
0000
0001
0000
0000
0000
0010
0000
0000
0000
0100
0000
0000
0000
0010
0000
0000
0000
1000
0000
0000
0000
0000
0000
0000
0000
0000
0000
0000
0000
0001
0000
0000
0000
0000
0000
0000
0000
0000
0100
0000
0000
,
0010
0001
0000
0000
0000
0010
0100
0000
0000
1001
0000
0000
,
0100
0000
0010
0000
0000
0000
0000
0000
0000
1000
0000
0100
0000
0000
0000
0000
0000
0000
0001
0000
0010
0000
0000
0000
,
0110
0000
0000
1001
0000
0000
0110
0000
,
1001
0000
1001
0000
1001
0000
0000
1001
0000
0000
0010
0000
0100
0000
1000
0000
,
0002
0000
1000
0000
1003
0100
0001
0010
,
1010
0000
1010
0000
1010
0000
0000
1010
0000
0000
1000
0000
0100
0000
0001
0000
,
0010
1000
0001
0100
1000
0001
0010
1000
,
0101
0000
0101
0000
0101
0000
0000
0101
0000
0000
1000
0000
0100
0000
1000
0000
,
0001
0010
1000
0010
0001
1000
0001
0100
,
0110
0000
0110
0000
0110
0000
0100
0010
0001
0000
1000
0000
0010
0100
0001
0000
,
0001
0000
0100
0010
0200
0000
0000
0000
0000
0000
0000
0000
0001
0000
0301
0000
,
0110
1000
0001
0000
0010
0100
0001
1000
,
0010
0000
0100
0010
0001
1000
0000
0100
0000
0000
0010
0000
1000
0000
0100
0000
,
0001
1000
0010
0001
0100
0010
0001
1000
,
0010
0000
0100
0001
0010
1000
0000
0100
0000
0000
0000
0001
0000
0000
0010
0000
,
0100
1000
0001
0010
0001
0100
0010
1000
,
0001
0000
1000
0010
0100
0001
0000
0100
0000
0000
1000
0000
0100
0000
0001
0000
,
0010
0100
1000
0001
0010
0001
0100
0010
,
1000
0000
0001
0010
0100
1000
0000
0100
0000
0000
0001
0000
0010
0000
0100
1000
,
0001
0000
0000
0000
1001
0000
0000
1000
0000
0001
0000
1000
0000
0000
0000
0000
,
0000
0000
0000
0000
,
0220
0000
0000
0000
,
0000
0000
0000
0000
,
0000
0000
0330
0110
0000
0000
0000
0000
0000
0000
0000
0000
0000
0000
0000
0000
;
