#VERSION:0.83;
#TITLE:QUE TE PASA;
#ARTIST:ELISSA;
#GENRE:POP;
#MUSIC:QUE TE PASA.ogg;
#BANNER:QUE TE PASA-bn.png;
#BACKGROUND:QUE TE PASA-bg.png;
#CDTITLE:./CDTITLES/DANCEMANIA BASS#5.PNG;
#SAMPLESTART:24.888;
#SAMPLELENGTH:15;
#OFFSET:-0.057;
#BPMS:0=132.898;

//--------------- dance-single - B. M'Rey ----------------
#NOTEDATA:;
#STEPSTYPE:dance-single;
#DESCRIPTION:B. M'Rey;
#DIFFICULTY:Beginner;
#METER:1;
#RADARVALUES:0,0,0,0,0;
#NOTES:
0000
0000
0000
0000
,
0000
0000
0000
0000
,
0000
0000
0000
0000
,
0000
0000
0000
0000
,
0000
0000
0000
0000
,
1001
0000
0000
0000
,
1000
0000
0000
0000
,
0010
0000
0100
0000
,
0001
0000
0000
0000
,
0010
0000
1000
0000
,
0100
0000
0000
0000
,
0001
0000
0010
0000
,
0001
0000
0000
0000
,
0100
0000
0010
0000
,
1000
0000
0000
0000
,
0000
0000
0001
0000
,
0100
0000
0000
0000
,
0000
0000
0000
1000
,
0001
0000
0100
0000
,
0010
0000
0001
0000
,
1000
0000
0010
0000
,
0100
0000
0001
0000
,
1000
0000
0000
0000
,
0000
0000
0010
0000
,
0001
0000
0000
0000
,
0000
0000
0000
0100
,
0000
0010
0000
1000
,
0000
0001
0000
0010
,
0000
0001
0000
0100
,
0000
0010
0000
0001
,
1000
0000
0000
0000
,
0100
0000
0000
0000
,
1000
0000
0000
0000
,
0001
0000
0000
0010
,
0100
0000
0000
0000
,
0001
0000
1000
0000
,
0010
0000
0000
0000
,
0100
0000
1000
0100
,
0001
0000
1000
0000
,
0010
0000
0100
0000
,
0001
0000
1000
0000
,
0010
0000
0100
0000
,
1001
0000
0000
0000
,
0000
0000
0001
0000
,
0100
0000
0000
0000
,
0000
0000
0000
0000
,
1000
0000
0010
0000
,
0100
0000
0001
0000
,
0010
0000
0001
0000
,
0100
0000
0010
0000
,
1000
0000
0000
0000
,
0000
0000
0100
0010
,
0001
0000
0000
0000
,
0000
0000
0000
1000
,
0010
0000
0100
0000
,
0001
0000
1000
0000
,
0010
0000
0100
0000
,
0001
0000
0000
0000
,
1001
0000
0000
0000
;

//--------------- dance-single - B. M'Rey ----------------
#NOTEDATA:;
#STEPSTYPE:dance-single;
#DESCRIPTION:B. M'Rey;
#DIFFICULTY:Easy;
#METER:4;
#RADARVALUES:0,0,0,0,0;
#NOTES:
0000
0000
0000
0000
,
0000
0000
0000
0000
,
0000
0000
0000
0000
,
0000
0000
0000
0000
,
0000
0000
0000
0000
,
1001
0000
0000
0000
,
1000
0000
0010
0000
,
0100
0000
0001
1000
,
0001
0000
0100
0000
,
0010
0000
1000
0100
,
1000
0000
0010
0000
,
0100
0000
0001
0010
,
0001
0000
1000
0000
,
0010
0000
0100
0001
,
0010
0000
1000
0000
,
0100
0000
0001
1000
,
0010
0000
0100
0000
,
0001
0000
1000
0010
,
0100
0000
0001
0001
0001
0000
0000
0000
,
0010
0000
0100
1000
1000
0000
0100
0000
,
0010
0000
0001
0001
0001
0000
0000
0000
,
0010
0100
0001
0001
,
1000
0000
0010
0000
,
0100
0000
0001
1000
,
0010
0000
0100
0000
,
1000
0000
0010
0100
,
0001
0000
0001
0001
0001
0000
0000
0000
,
0010
0000
0100
1000
1000
0000
0010
0000
,
0100
0000
0010
0010
0010
0000
0000
0000
,
0001
0000
1000
0000
,
0010
0000
0000
0000
,
0100
0000
0000
0000
,
1001
0000
0000
0000
,
0010
0000
0000
0000
0000
0000
0001
0010
,
0100
0000
1000
0000
,
0010
0000
0100
0010
,
0100
0000
0001
0000
,
1000
0000
0000
0000
0010
0000
0001
0010
,
0100
0000
1000
0000
,
0010
0000
0100
0010
,
0001
0000
1000
0000
,
0010
0000
0000
0000
0001
0000
0001
0010
,
0100
0000
1000
0000
,
0010
0000
0100
0100
,
0100
0000
0010
0000
,
0001
0000
1000
0001
,
0010
0000
1000
1000
1000
0000
0000
0000
,
0010
0000
0100
0100
0100
0000
0001
0000
,
0010
0000
0001
0001
0001
0000
0000
0000
,
1000
0000
0010
0000
0100
0000
0001
0100
,
1000
0000
0100
0000
,
0010
0000
0001
1000
,
0010
0000
0100
0000
,
1000
0000
0001
0000
,
0100
0000
0010
0010
0010
0000
0000
0000
,
1000
0000
0100
0100
0100
0000
0001
0000
,
0010
0000
0001
0001
0001
0000
0000
0000
,
1000
0010
0100
0001
,
1001
0000
0000
0000
;

//--------------- dance-single - B. M'Rey ----------------
#NOTEDATA:;
#STEPSTYPE:dance-single;
#DESCRIPTION:B. M'Rey;
#DIFFICULTY:Medium;
#METER:7;
#RADARVALUES:0,0,0,0,0;
#NOTES:
0000
0000
0000
0000
,
0000
0000
0000
0000
,
0000
0000
0000
0000
,
0000
0000
0000
0000
,
0000
0000
0000
0000
,
1001
0000
0000
0000
,
0100
0010
0001
1000
,
0001
0000
0010
0000
0100
0100
0010
0010
,
0001
1000
0001
0010
,
0001
0000
0010
0000
0100
0100
1000
1000
,
0010
1000
0100
1000
,
0001
0000
0010
0000
0001
0001
1000
1000
,
0010
1000
0001
1000
,
0001
0000
0010
0000
0001
0001
0100
0100
,
0010
1000
0100
1000
,
0001
0100
0001
0010
,
0100
0000
0000
1000
0000
0000
0000
0000
0010
0000
0000
0000
0100
0000
0000
0000
,
0001
0000
0100
0000
0001
0000
0100
0001
,
0010
0000
1000
0100
0001
0000
1000
0000
,
0010
0000
0100
0000
0001
0010
0100
0000
,
0010
0000
0100
1000
0001
0000
1000
0000
,
0010
0000
0100
0001
0010
0000
1000
1000
,
0100
0000
0000
0010
0000
0000
0000
0000
0100
0000
0000
0000
1000
0000
0000
0000
,
0001
0000
0100
0000
0010
0000
1000
0001
,
0100
0000
0000
1000
0000
0000
0000
0000
0100
0000
0000
0000
0010
0000
0000
0000
,
0001
0000
1000
0000
0010
0000
1000
0010
,
0100
0000
1000
0010
0001
0000
0010
0000
,
0100
0000
1000
0001
0010
0000
0100
0010
,
0001
0100
0010
0100
,
1010
0000
0000
0000
0000
0000
0010
0010
,
0001
0100
0001
1000
,
0001
1000
0010
0100
,
0001
0010
0001
1000
,
0100
0000
1000
0000
0001
0000
0010
0010
,
0100
1000
0010
0100
,
0001
0000
1000
0000
0001
0001
0010
0010
,
0001
1000
0010
0100
,
0010
0000
0100
0000
0010
0000
1000
1000
,
0100
0100
0010
0000
0001
0000
1000
0000
,
0010
0000
1000
0000
0100
0100
0010
0010
,
0100
0010
0001
1000
,
0010
0010
0100
0100
0010
0010
0100
0100
,
0010
1000
0001
0010
,
0100
0010
1100
1010
,
0100
0000
0000
1000
0000
0000
0000
0000
0010
0000
0000
0100
0000
0000
0000
0000
,
0001
0000
1000
0000
0100
0000
1000
0100
,
0010
0000
1000
0001
0010
0000
0100
0000
,
0001
0000
0100
0001
0010
0000
0100
0000
,
0010
0000
1000
0001
0100
0000
1000
0000
,
0010
0000
1000
0100
0010
0000
0100
0100
,
0001
0100
0001
0010
,
0001
0000
1000
0000
0100
0010
1000
0000
,
0001
0100
0010
1000
,
0100
0000
1000
0000
0001
0000
0010
0100
,
0001
0000
0100
0010
0001
0000
1000
0000
,
0100
0001
0010
1000
0100
0000
1000
0000
,
0010
0000
1000
0010
0100
0000
1000
0000
,
0001
0010
0001
1000
,
0110
0000
0000
0000
;

//--------------- dance-single - B. M'Rey ----------------
#NOTEDATA:;
#STEPSTYPE:dance-single;
#DESCRIPTION:B. M'Rey;
#DIFFICULTY:Hard;
#METER:10;
#RADARVALUES:0,0,0,0,0;
#NOTES:
0000
0000
0000
0000
,
0000
0000
0000
0000
,
0000
0000
0000
0000
,
0000
0000
0000
0000
,
0000
0000
0000
0000
,
1001
0000
0000
0000
,
0001
0000
1000
0010
0100
0000
0001
0000
,
0010
0000
0001
0010
1000
0001
1000
0001
,
1000
0000
0010
0001
0100
0000
0001
0000
,
0010
0100
1000
0000
0100
1000
0100
1000
,
0010
0000
0100
0010
0100
0000
0001
0010
,
0001
0000
1000
0000
0010
0100
0010
0100
,
0001
0000
0010
1000
0010
0000
0100
0001
,
0100
0000
0010
0000
1000
0000
1000
0100
,
0010
0000
0001
0010
1000
0000
0010
1000
,
0100
0000
0001
0000
0001
0010
0001
0010
,
1000
0000
0100
0001
1000
0000
0010
1000
,
0100
0000
0001
0010
1000
0000
0100
1000
,
0100
0000
0010
0001
0010
0000
1000
0100
,
1000
0010
0100
0001
0010
0001
1000
0010
,
0100
0000
0001
0010
1000
0000
0100
1000
,
0010
0100
0001
0010
0001
1000
1001
1001
,
1001
0000
0000
1001
0000
0000
0000
0000
0010
0000
0000
0000
0100
0000
0000
0000
,
0001
0000
1000
0000
0010
1000
0010
1000
,
0100
0001
0010
0001
,
0100
0000
0010
0000
1000
0000
0100
1000
,
0100
0000
0001
0100
0010
0000
0001
1000
,
0100
0000
0001
0100
0010
1000
0100
0010
,
1000
0000
0001
0100
0010
0000
1000
0100
,
1000
0000
0001
0010
1000
0000
0001
0100
,
0010
1000
0100
1000
,
1001
0000
0010
0000
0100
0000
0001
0010
,
1010
0100
0010
0001
,
0101
0000
0010
0000
1000
0000
1010
1010
,
1010
0000
0100
0010
0100
0000
0001
0010
,
0001
0000
1000
0010
1000
0010
1000
0010
,
0100
0000
0010
0100
0010
0000
0001
0010
,
0001
0000
0010
1000
0010
1000
0010
1000
,
0100
0000
0010
0100
0010
0000
0001
0010
,
0001
0000
0010
1000
0010
1000
0010
1000
,
0100
0000
0010
0100
0010
0000
0001
0010
,
0001
0000
1000
0010
1000
0001
0100
0010
,
1001
0000
0000
1001
0000
0000
0000
0000
0010
0000
0000
0000
0100
0000
0000
0000
,
0001
0000
0010
0001
0010
0000
1001
0000
,
0010
0000
0000
0200
0000
0000
0000
0000
1300
0000
0000
0200
0000
0000
0000
0000
,
1000
0000
0310
0000
0100
0000
0001
0010
,
0001
0000
1000
0010
1000
0000
0100
0010
,
1000
0000
0010
0100
0001
0010
1000
0010
,
0100
0000
0001
0010
0001
0000
0010
1000
,
0100
0000
0010
1000
0100
0000
1001
1001
,
1001
0000
0000
1001
0000
0000
0010
0000
1000
0000
0000
0100
0000
0000
0010
0000
,
0001
0000
0000
0010
0000
0000
0100
0000
0001
0000
1000
0000
0010
0000
0100
0000
,
0010
0000
0000
1000
0000
0000
0100
0000
0001
0000
0000
0010
0000
0000
1000
0000
,
0100
0000
0000
0001
0000
0000
0100
0000
0010
0000
0000
0000
0001
0000
0010
0000
,
1000
0000
0100
1000
0100
0000
0010
0100
,
0010
0000
0001
0010
0100
1000
0100
0010
,
1000
0000
0010
0100
0001
0000
0001
0010
,
0001
1000
0010
0100
0010
0000
1001
1001
,
1001
0000
0000
1001
0000
0000
0000
0000
0000
0000
0000
0000
0000
0000
0000
0000
;
