#TITLE:PRIMAL SOUL;
#ARTIST:泉 陸奥彦;
#ARTISTTRANSLIT:Mutsuhiko Izumi;
#GENRE:LATIN ROCK;
#CREDIT:B. M'Rey;
#MUSIC:Primal Soul.ogg;
#BANNER:PRIMAL SOUL.png;
#BACKGROUND:PRIMAL SOUL-bg.png;
#CDTITLE:./CDTITLES/GUITARFREAKS & drummania.png;
#SAMPLESTART:12.601;
#SAMPLELENGTH:12;
#OFFSET:-0.022;
#BPMS:0=124.016;

//--------------- dance-single - B. M'Rey ----------------
#NOTES:
     dance-single:
     B. M'Rey:
     Beginner:
     1:
     0,0,0,0,0:
0000
0000
0000
0000
,
0000
0000
0000
0000
,
0000
0000
0000
0000
,
0100
0000
0000
0000
,
0010
0000
0000
0001
,
0000
0000
0000
1000
,
0000
0000
0010
0100
,
0010
0000
0001
0010
,
0001
0000
1000
0000
,
0010
0000
0100
0010
,
0100
0000
0001
0010
,
0001
0000
1000
0100
,
1000
0000
0010
0000
,
0100
0000
0001
0000
,
1000
0000
0001
0000
,
0100
0000
0010
0000
,
0100
0000
0001
0000
,
1000
0000
0010
0000
,
0100
0000
0001
0000
,
0001
0000
1000
0000
,
1000
0000
0010
0000
,
0100
0000
0010
0000
,
0110
0000
0001
0010
,
0001
0000
0001
0010
,
0001
0000
1000
0100
,
1000
0000
1000
0100
,
1000
0000
0110
0000
,
0001
0000
1000
0000
,
0010
0000
0100
0000
,
0010
0000
0001
0000
,
1000
0000
0010
0000
,
0100
0000
0001
0000
,
1000
0000
0100
0000
,
0010
0000
0001
0000
,
1000
0000
0001
0000
,
0010
0000
0110
0000
,
0000
0000
0101
0000
,
0000
0000
1010
0000
,
0000
0000
0110
0000
,
0000
0000
0001
0000
,
1000
0000
0010
0000
,
0100
0000
0001
0010
,
0001
0000
1000
0100
,
1000
0000
0010
0100
,
0010
0110
0000
0000
;

//--------------- dance-single - B. M'Rey ----------------
#NOTES:
     dance-single:
     B. M'Rey:
     Easy:
     4:
     0,0,0,0,0:
0000
0000
0000
0000
,
0000
0000
0000
0000
,
0000
0000
0000
0000
,
0000
0000
0000
0000
,
0000
0000
0100
0010
,
0100
0010
1001
0001
,
0220
0000
0000
0330
0010
0000
1000
0000
,
0100
0010
0100
1000
,
0010
1000
0001
0010
,
0100
1000
0010
0100
,
0010
0000
0000
0000
1000
0000
0000
0000
0001
0000
0000
0010
0000
0000
1000
0000
,
0000
0001
0000
0000
0100
0000
0000
0001
0000
0000
1000
0000
0000
0010
0000
0000
,
0000
0010
1000
0100
,
0010
0000
0100
0000
0100
0010
0001
0100
,
0010
1000
0000
0000
0100
0000
1000
0000
,
0001
0010
0100
1000
,
0010
0100
0001
0100
,
0001
0000
0000
0000
1000
0000
0000
0000
0100
0000
0000
0010
0000
0000
0100
0000
,
0001
0000
0000
0100
0000
0000
1000
0000
0100
0000
0000
0000
1000
0000
0000
0000
,
0001
0010
0100
1000
,
0100
1000
0001
0100
,
0001
1000
0101
0000
,
0101
0000
0000
0000
0010
1000
0001
0000
,
0001
0000
0010
0000
0010
1000
0001
0000
,
0100
0000
0001
0000
0001
0010
0100
0000
,
0100
0000
0001
0000
0001
0010
0100
0000
,
0010
0100
0001
0100
,
0001
1000
0100
1000
,
0001
0100
0010
0100
,
0010
1000
0100
0010
,
0100
0010
0001
1000
,
0010
0100
0001
1000
,
0001
0010
0100
0010
,
0001
0000
1000
0000
0100
0010
0001
0010
,
0100
1000
0001
1000
0000
0100
0010
1000
,
0010
1000
0010
0000
1000
0000
0001
0000
,
0010
0100
0010
0001
,
0100
0010
1000
0100
,
0010
0100
1000
0010
,
1000
0000
0100
0000
0010
1000
0001
0000
,
0001
0000
0010
0000
0010
1000
0001
0000
,
0100
0000
0001
0000
0001
0010
0100
0000
,
0100
0000
0001
0000
0001
0010
0100
0000
,
0010
0100
1001
0000
,
0110
1001
0000
0000
;

//--------------- dance-single - B. M'Rey ----------------
#NOTES:
     dance-single:
     B. M'Rey:
     Medium:
     8:
     0,0,0,0,0:
0000
0000
0000
0000
,
0000
0000
0000
0000
,
0000
0000
0000
0000
0000
1010
0000
0000
,
0011
0000
0000
0110
0000
0000
1100
0000
1001
0000
0000
0110
0000
0000
0101
0000
,
0000
0001
1000
0001
1000
0100
1000
0100
0010
0000
0100
0000
0010
0000
0000
0000
,
0100
0000
0010
0000
1001
1001
0001
0000
,
0220
0000
0000
0330
0010
1000
0010
1000
,
0010
0000
0100
0000
0001
0000
1000
0000
0001
1000
0000
0001
0000
0100
0020
0000
,
0000
0000
0031
0100
0001
0010
0001
0010
,
0100
0010
0100
1000
0100
1000
0010
1000
,
0100
0000
0010
0000
0100
0000
0010
0000
1000
0000
0000
0010
0000
0000
1000
0000
,
0000
0001
0000
0000
0100
0000
0000
0001
0000
0000
1000
0000
0000
0010
0000
0000
,
1000
0000
0001
0100
0001
0000
0001
0010
,
0100
0000
0000
0000
0100
0000
0010
0000
0100
1000
0100
1000
0010
0100
0010
0100
,
0001
1010
0000
0000
0100
0010
0100
0010
,
0001
0010
0001
1000
1001
0000
0100
1000
,
0010
0100
0010
0100
1010
0000
0100
1000
,
0100
0000
1000
0000
0001
0000
0010
0000
0100
0000
0000
0010
0000
0000
0100
0000
,
0001
0000
0000
0100
0000
0000
1000
0000
0100
0000
1000
0000
0001
0000
0010
0000
,
0001
0000
0010
0000
0001
0000
0100
0000
0110
0000
0000
0001
0000
0000
0100
0000
,
0001
0000
0000
0100
0000
0000
0010
0000
0100
0000
1000
0000
0100
0000
1000
0000
,
0010
0000
1000
0000
0010
0000
0100
0000
0001
0100
0000
0100
0000
0001
0000
0100
,
0001
0000
0000
0000
1001
0000
0000
0000
0001
0000
1000
0000
0001
0000
1000
0001
,
0000
0010
0000
0100
0000
0100
0010
0000
0100
0000
0010
0000
0001
0000
0100
0001
,
0000
1000
0000
0020
0000
0000
0000
0000
0130
0000
1000
0000
0010
0000
0100
0001
,
0000
0100
0000
0001
0000
0010
0001
0010
0100
0000
0010
0000
0001
0000
0010
0001
,
0000
0100
0000
0002
0000
0000
0000
0000
1003
0000
0010
0000
1000
0000
0010
0000
,
0100
0010
1000
0100
1000
0100
1000
0001
,
0010
0001
0010
0001
1000
0100
1000
0100
,
1000
0001
0100
0001
0010
0001
0010
0100
,
0010
0000
0001
0000
0100
0000
0001
0000
0100
0001
0000
0001
0010
0000
0100
0010
,
0000
0010
0100
0000
0010
0000
0001
0000
1000
0001
0000
0001
1000
0000
0001
0010
,
0000
0010
0100
0000
0010
0000
0100
0000
1000
0010
0000
0010
1000
0000
0010
1000
,
0000
1000
0001
0000
0100
0000
0001
0000
0100
0001
0100
0001
0010
0100
0010
0100
,
0010
0100
0010
0001
0000
1001
0000
0000
0000
1000
0010
1000
0010
1000
0010
1000
,
0100
0010
1000
0000
0001
0000
0100
0000
,
0010
0000
0100
0000
0010
1000
0100
0000
,
0001
0000
0010
0000
0001
1000
0010
0000
,
0001
0000
0100
0000
0010
0100
1000
0000
,
0010
0000
0000
0000
1000
0000
0000
0000
0001
0000
1000
0000
0001
0000
1000
0001
,
0000
0010
0000
0100
0000
0100
0010
0000
0100
0000
0010
0000
0001
0000
0100
0001
,
0000
1000
0000
0020
0000
0000
0000
0000
0130
0000
1000
0000
0010
0000
0100
0001
,
0000
0100
0000
0001
0000
0010
0001
0010
0100
0000
0010
0000
0001
0000
0010
0001
,
0000
0100
0000
0002
0000
0000
0000
0000
1003
0100
0000
0100
0000
0101
0000
0101
,
0000
1001
0000
0000
0011
0000
0000
0000
0000
0000
0000
0000
0000
0000
0000
0000
;

//--------------- dance-single - B. M'Rey ----------------
#NOTES:
     dance-single:
     B. M'Rey:
     Hard:
     9:
     0,0,0,0,0:
0000
0000
0000
0000
0000
0000
0000
0000
0000
0000
0000
0000
0000
0000
0000
1001
,
0000
0001
1000
0001
1000
0001
1000
0001
1000
0001
1000
0100
0010
0001
0000
0000
,
0000
0001
0010
0100
1000
0100
0010
0001
0010
0000
1010
0000
0001
0010
0001
0010
,
0001
0000
0000
0110
0000
0000
1100
0000
1001
0000
0000
0110
0000
0000
0101
0000
,
0000
0010
0100
0010
1000
0010
0100
0001
1000
0010
0001
0000
0010
0000
0000
0000
,
0100
0000
0010
0000
1001
1001
0001
0000
,
0100
0010
0100
0010
0100
0010
0100
0000
0100
0000
0100
1000
0100
0000
0001
1000
,
0010
0000
0001
1000
0010
0000
0010
1000
0001
0100
0000
1000
0000
0010
0100
1000
,
0010
0000
1000
0000
0001
0010
0100
1000
0001
0000
0001
0100
0001
0000
0010
1000
,
0100
0000
0001
0100
0001
0000
0010
1000
0100
0000
0000
0001
0000
0100
0010
0100
,
0001
0000
0000
1000
0000
0000
0100
0010
1100
0000
0000
1010
0000
0000
1001
0000
,
0000
0101
0000
0000
0101
0000
0000
1001
0000
0000
1100
0000
0000
0110
0000
0000
,
1100
0000
0000
0000
0101
1000
0010
0100
0001
0000
0001
1000
0001
0000
0100
0010
,
0001
0000
0001
0100
0010
0000
0001
0000
0100
0010
0100
1000
0001
1000
0100
0010
,
0001
0000
0200
0000
0000
0000
0000
0000
0310
0000
0001
0100
0001
0000
0100
0010
,
0001
0000
0010
0100
0001
1000
0001
1000
0100
0000
0001
1000
0010
0000
0100
0000
,
0001
0100
0001
0100
0010
1000
0001
1000
0010
0000
0010
0100
0001
0000
0001
0100
,
0010
0000
0000
1000
0000
0000
0001
0100
0010
0000
0000
0011
0000
0000
1010
0000
,
0011
0000
0100
0000
0001
0000
0100
0010
0001
0000
0001
1000
0010
0000
0100
1000
,
0010
0100
0010
0100
0000
1000
0000
0100
0001
0000
0001
0100
0000
0100
0001
0000
,
0001
1000
0001
1000
0010
0000
0100
0010
0001
0000
1000
0000
0001
0000
0010
0000
,
0100
0000
0010
0000
0100
0000
1000
0000
0010
0100
0000
0001
0000
1000
0000
0010
,
0100
0000
0000
0000
1001
0000
0000
0000
0001
0010
0100
0010
0100
0000
0001
1000
,
0000
0100
0000
1000
0000
0100
0001
0100
0001
0000
0100
0000
1000
0000
0001
0100
,
0010
0100
0000
1000
0000
0010
0100
1000
0001
0000
0100
0000
0010
0100
0000
0010
,
0000
1000
0000
0010
0000
1000
0001
0010
0001
0000
0100
0000
0010
0000
0001
0100
,
0000
1000
0000
0010
0000
0100
0010
0100
0001
0000
0001
1000
0001
0000
0100
0010
,
0001
0000
0010
0100
0001
0000
0001
1000
0010
0000
0010
0100
0010
0000
0100
1000
,
0100
1000
0010
0100
0001
0100
0001
0100
0010
0000
0100
0010
0001
0000
0010
0100
,
0001
0000
0100
1000
0100
0000
0100
0010
0001
0000
0001
0100
0001
0010
0100
1000
,
0001
0000
0100
0000
0010
0000
1000
0100
1000
0000
0001
0100
0000
1000
0001
0000
,
0100
1000
0000
0010
0001
0010
0001
0100
0010
0000
0010
1000
0000
1000
0100
0000
,
0001
0100
0000
0100
0001
1000
0100
1000
0100
0000
0001
0010
0000
0010
0001
0000
,
0100
0010
0000
0010
0001
0100
0001
0000
0110
0000
0100
1000
0100
0010
0001
0100
,
0001
0010
0001
1000
0010
0000
0100
0000
0001
0010
0001
0100
0001
1000
0100
1000
,
0100
0000
0010
0000
0001
1000
0001
1000
0001
0000
1000
0000
0001
0000
0000
0000
,
1000
0000
0010
0000
1000
0001
0100
0000
,
0010
0100
0010
0100
0010
0001
0000
1000
0000
0010
0100
0000
0001
0000
0000
0000
,
1000
0000
0000
0001
0000
0000
0010
0100
0001
0010
0100
0010
,
0001
0000
0000
0000
0010
0000
0000
0000
0001
0000
0000
0000
0100
0000
0000
0000
0010
0000
0000
0000
0100
0000
0000
0000
0010
0000
0000
0000
0000
0000
0010
0000
0000
0100
0000
0000
0010
0000
0000
0000
0000
0000
0001
0000
0000
0100
0000
0000
,
0000
0010
0000
0100
0000
0010
0100
0010
0001
0000
0010
0000
0100
0000
0100
0010
,
0000
0100
0000
1000
0000
0100
0001
0010
0001
0000
0100
0001
0010
0000
0010
1000
,
0000
0010
0000
0100
0000
0100
0010
0100
0001
0000
0001
0100
0010
0000
0001
0100
,
0000
1000
0000
0010
0000
1000
0010
1000
0100
1000
0010
0100
0000
0101
0000
0010
,
0000
0110
0000
0000
0011
0000
0000
0000
0000
0000
0000
0000
0000
0000
0000
0000
;
