#VERSION:0.83;
#TITLE:PIECE OF MY HEART;
#ARTIST:SHE'S AH REBEL;
#GENRE:EURODANCE;
#MUSIC:PIECE OF MY HEART.ogg;
#BANNER:PIECE OF MY HEART.png;
#BACKGROUND:PIECE OF MY HEART-bg.png;
#CDTITLE:./CDTITLES/DANCEMANIA PRESENTS AKI MONOGATARI 2007.PNG;
#SAMPLESTART:74.393;
#SAMPLELENGTH:15;
#OFFSET:-0.379;
#BPMS:0=154.963;

//--------------- dance-single - B. M'Rey ----------------
#NOTEDATA:;
#STEPSTYPE:dance-single;
#DESCRIPTION:B. M'Rey;
#DIFFICULTY:Beginner;
#METER:2;
#RADARVALUES:0,0,0,0,0;
#NOTES:
0000
0000
0000
0000
,
0000
0000
0000
0000
,
0000
0000
0000
0000
,
0000
0000
0000
1000
,
0000
0000
0000
0001
,
0000
0000
0000
0010
,
0000
0000
0000
1000
,
0000
0000
0000
0110
,
0000
0000
0000
0001
,
0000
0000
0000
0020
,
0000
0000
0000
0130
,
0000
0000
0000
0000
,
0100
0000
0001
0000
,
0000
0000
0010
0000
,
1000
0000
0001
0000
,
0000
0000
0000
0001
,
0000
0010
0000
0100
,
0000
1000
0000
0001
,
0000
0010
0000
0100
,
0000
0001
0000
1000
,
0000
0010
0000
0100
,
0000
0001
0000
0010
,
0000
0001
0000
1000
,
0000
0010
0000
0110
,
0000
0000
0000
0001
,
0000
0000
0000
1000
,
0000
0000
0000
0010
,
0010
0010
0000
0100
,
0100
0100
0000
0001
,
0000
0000
0000
1000
,
0000
0000
0000
0010
,
0000
0000
0100
0000
,
0001
0000
1000
0000
,
0010
0000
0100
0000
,
0001
0000
0000
1000
,
0000
0010
0000
0000
,
0100
0000
0001
0000
,
0010
0000
1000
0000
,
0000
0100
0000
0010
,
0000
0000
0000
0001
,
0000
1000
0000
0010
,
0000
0000
0000
0100
,
0000
0001
0000
0010
,
0000
0000
0000
0001
,
0000
0000
0000
0100
,
0000
0000
0000
0010
,
0000
0000
0000
1000
,
0000
0000
0000
1001
,
0000
0000
0000
0010
,
0000
0100
0000
0010
,
0000
0100
0000
0010
,
0000
0000
0000
0110
,
0000
0000
0000
0001
,
0000
1000
0000
0001
,
0000
1000
0000
0001
,
0000
0000
0000
0011
,
0000
0000
0000
0001
,
0000
0010
0000
0001
,
0000
0010
0000
0001
,
0000
0000
0000
1100
,
0000
0000
0100
0000
,
1000
0000
0100
0000
,
0100
0000
1000
0000
,
0000
0000
0000
0001
,
0000
1000
0000
0010
,
0000
0100
0000
0001
,
0000
0010
0000
0001
,
0000
0100
0000
0010
,
0000
1000
0000
0001
,
0000
0010
0000
0001
,
0000
0100
0000
0010
,
0000
1000
0000
0010
,
0000
0000
0000
0001
,
0000
0000
0000
0010
,
0000
0000
0000
0100
,
0000
0000
0000
1000
,
0000
0000
0000
0010
,
0000
0000
0000
0001
,
0000
0000
0000
1000
,
0000
0000
0000
0001
;

//--------------- dance-single - B. M'Rey ----------------
#NOTEDATA:;
#STEPSTYPE:dance-single;
#DESCRIPTION:B. M'Rey;
#DIFFICULTY:Easy;
#METER:5;
#RADARVALUES:0,0,0,0,0;
#NOTES:
0000
0000
0000
0000
,
0000
0000
0000
0000
,
0000
0000
0000
0000
,
0000
0000
0000
0101
,
0000
0000
0100
0001
,
0000
0100
0000
0100
,
0000
0010
0100
0010
,
0000
0000
0000
1100
,
0000
0000
0000
0001
,
0000
0100
0000
0001
,
0000
0010
0000
0100
,
0000
0000
0000
0000
,
1000
0000
1000
0010
,
0000
0000
0100
0010
,
1000
0100
0010
0000
,
0000
0000
0000
0100
,
0000
0010
1000
0010
,
0000
0010
0100
0001
,
0000
0001
0010
0001
,
0000
0100
0000
0001
,
0000
0001
0100
0001
,
0000
0100
0010
0100
,
0000
0001
0100
0001
,
0000
0001
0000
0100
,
0010
0100
0000
0001
,
0000
0001
0000
0010
,
0000
0010
0000
0020
,
0000
0000
0000
2030
,
0000
0000
0000
3010
,
0000
0001
0000
0100
,
0000
0010
0000
0200
,
0000
0000
1300
0001
,
0000
0010
0000
0001
,
0000
1000
0000
0010
,
0000
1000
0000
0001
,
0010
0001
0000
0000
,
1000
0100
1000
0010
,
0100
0010
0100
0000
,
1000
0000
0100
0000
,
0000
0000
1000
0010
,
0000
0010
0000
0100
,
0010
0000
0010
0100
,
0000
0001
0000
0001
,
0000
0100
0010
0200
,
0000
0300
0000
0002
,
0000
0003
0000
0200
,
0000
0300
0000
0010
,
0000
0010
0000
0001
,
0000
0000
0010
0100
,
0010
0100
1000
0000
,
1000
0000
0100
0010
,
0000
0000
0000
0001
,
0000
0000
0010
0001
,
0100
0010
0100
0000
,
0200
0000
1300
0000
,
0000
0000
0000
0010
,
0000
0000
1000
0010
,
0100
0001
0100
0000
,
0100
0010
0000
0010
,
0000
0000
0000
0001
,
0000
0000
0100
0001
,
1000
0001
1000
0000
,
0010
0000
0200
0000
,
0000
0000
0000
0301
,
0000
0001
0010
0100
,
0000
0100
0010
0001
,
0000
0001
1000
0001
,
0000
0010
0000
0010
,
0000
0001
1000
0010
,
0000
0010
1000
0100
,
0000
0100
0010
0100
,
0000
0010
0000
0001
,
0000
0100
0000
0010
,
0000
0001
0000
0010
,
0000
0100
0000
1000
,
0000
0100
0000
0001
,
0000
0010
0000
0001
,
0000
0010
0000
1000
,
0000
0100
0000
0110
,
0000
0000
0000
0110
;

//--------------- dance-single - B. M'Rey ----------------
#NOTEDATA:;
#STEPSTYPE:dance-single;
#DESCRIPTION:B. M'Rey;
#DIFFICULTY:Medium;
#METER:8;
#RADARVALUES:0,0,0,0,0;
#NOTES:
0000
0000
0000
0000
,
0000
0000
0000
0000
,
0000
0000
0000
0000
,
0000
0000
0000
1001
,
0000
0000
0100
0010
,
0001
0100
0010
0100
,
0010
0100
0001
0001
,
0000
0000
0000
1001
,
0000
0000
0010
1000
,
0100
0010
0100
0000
,
0100
0000
0010
0100
,
0000
0000
0000
0000
,
0001
0010
0100
0000
,
0000
0000
1000
0100
,
0001
0010
1001
0000
,
1000
0001
1000
0100
,
0010
0100
0010
0100
,
1000
0010
0100
0010
,
1000
0001
0010
0100
,
0010
0000
0100
1000
0010
0100
0001
0000
,
0100
0001
0100
0010
,
0100
0001
0010
0001
,
0010
0100
1000
0100
,
1000
0000
0100
1000
0010
0100
0001
0000
,
1000
0000
0010
0000
0100
0000
0010
0001
,
0010
0000
0100
1000
0100
0000
0001
0010
,
0001
0000
0100
1000
0100
0000
0010
0000
,
0001
0000
0100
0000
0010
1000
0100
0000
,
0001
0010
0100
1000
,
0001
1000
0010
0100
,
0010
0001
2000
0100
,
0100
0000
0100
0000
3100
0000
0010
0100
,
0010
0000
0100
1000
0100
0000
0010
0100
,
0010
0000
0100
0010
0001
0000
0010
0100
,
0010
0000
0010
1000
0100
0000
0100
0000
,
0010
0000
0100
0000
0001
0010
0100
0000
,
0001
0000
1000
0000
0001
0010
1000
0000
,
0001
0000
0100
0001
0010
0000
0100
0000
,
0010
1000
0010
0100
,
0001
0100
0010
0100
,
0010
1000
0010
1000
,
0001
1000
0001
0100
,
0001
0100
0010
0100
,
0010
0000
1000
0100
0010
0000
0110
0000
,
0000
0110
0000
0101
,
0000
0011
0000
1100
,
0000
1010
0000
0110
,
0000
0000
0101
0000
0010
0000
0001
0100
,
0000
0000
1001
0000
0010
1000
0100
0000
,
0001
0100
0001
0000
0100
0010
0000
0010
,
0100
0010
0100
0100
,
0000
0000
0001
0000
0000
0000
0001
0010
,
0000
0000
1001
0000
0010
1000
0100
0000
,
0001
0100
0010
0000
0010
1000
0000
0000
,
0010
0100
0000
0000
0001
1000
0000
0100
,
0000
0000
0100
0000
0001
0000
0001
0010
,
0000
0000
0110
0000
0100
1000
0001
0000
,
0100
0010
0100
0000
0100
0010
0000
0000
,
0001
0010
0001
1000
,
0000
0000
0010
0000
0000
0000
0001
0010
,
0000
0000
1010
0000
0010
0100
0001
0000
,
0001
0100
0010
0000
0100
1000
0000
0000
,
0001
0010
0000
0000
0100
1000
0010
0000
,
0010
0000
0010
1000
0100
0010
0100
0000
,
0010
0100
0010
0001
,
1000
0010
1000
0010
,
1000
0001
0010
0100
,
0010
0000
0001
0010
0100
1000
0001
0000
,
1000
0010
0100
0001
,
0100
0010
1000
0010
,
0100
0010
0100
0001
,
1000
0000
0001
1000
0010
0100
0001
0000
,
1000
0001
1000
0001
,
0100
0010
0100
0010
,
0100
0001
1000
0001
,
1000
0100
1000
0010
,
0100
0010
0100
0010
,
1000
0100
1000
0100
,
1000
0001
0010
1001
,
0000
0000
0000
1001
;

//--------------- dance-single - B. M'Rey ----------------
#NOTEDATA:;
#STEPSTYPE:dance-single;
#DESCRIPTION:B. M'Rey;
#DIFFICULTY:Hard;
#METER:12;
#RADARVALUES:0.543199,0.573863,0.212086,0.037872,0.007574,502,474,28,5,0,0,0.543199,0.573863,0.212086,0.037872,0.007574,502,474,28,5,0,0;
#NOTES:
0000
0000
0000
0000
,
0000
0000
0000
0000
,
0000
0000
0000
0000
,
0000
0000
0000
1001
,
0000
0000
0000
0000
1000
0100
1000
0010
,
1000
0100
0010
0100
0010
0002
0000
0000
,
0013
0001
1000
0100
,
0000
0000
0000
1001
,
0000
0000
0000
0000
0001
0010
0001
0100
,
0001
0010
0100
1000
0100
1000
0000
0000
,
0001
0010
0000
0100
0010
0002
0000
1003
,
0000
0000
0000
0000
0000
0000
0000
0100
,
0010
0100
0010
0100
1000
0001
1000
0000
,
0000
0000
0000
0100
0010
0000
0100
0000
,
0010
0001
0001
0000
,
1001
0000
1001
0000
1001
0000
0100
0010
,
0100
1000
0010
1000
0100
0010
0000
0100
,
0010
0100
0010
0100
0001
0010
0000
1000
,
0010
0100
0001
0010
0100
0010
0000
1000
,
0100
0010
0001
1000
0010
0100
0000
0100
,
0001
1000
0100
0010
0100
0010
0000
1000
,
0010
1000
0001
1000
0100
0010
0000
0100
,
0010
0100
0001
0100
0001
0010
0000
0010
,
0001
0010
0001
1000
0100
0010
0100
1000
,
0010
0100
0001
0010
0001
1000
0100
0010
,
0001
0010
0100
0010
0100
1000
0100
1000
,
0010
1000
0010
0100
0001
0100
0002
0000
,
0100
0000
0103
0000
0010
1000
0200
0000
,
0001
0000
0001
0000
0301
1000
0100
0010
,
0100
1000
0100
0010
0001
0010
0001
0010
,
0100
1000
0010
0100
0010
0100
0001
0010
,
0100
0010
0100
1000
0001
1000
0001
0010
,
0100
0010
0100
1000
0010
0100
0010
0100
,
0001
1000
0001
0010
0100
0010
0100
1000
,
0001
1000
0010
0100
0001
0100
0010
0100
,
0001
0000
1000
0000
0010
0000
0000
0000
0010
0000
0001
0100
0010
0000
1000
0000
,
0100
0010
0001
1000
0001
0010
0100
1000
,
0001
0010
0001
0010
0100
0000
0100
1000
,
0010
0100
0001
0100
0001
0100
0000
1000
,
0010
0000
0100
0010
0100
1000
0100
0010
,
0001
1000
0001
0100
0001
0010
0100
1000
,
0000
0000
0000
1000
0001
0010
0100
1000
,
0000
0010
0100
1000
0001
1000
0000
1000
,
0001
0100
0001
0010
0001
0100
0110
0000
,
1010
0000
1100
0000
0010
0100
0101
0000
,
0011
0000
1001
0000
0100
0010
0101
0000
,
0011
0000
1100
0000
0100
0010
0102
0000
,
0000
0000
0013
0000
0110
0000
1001
0100
,
0010
0001
0110
0000
0100
0001
0100
0001
,
0010
0001
0100
0010
1000
0100
0010
0100
,
0010
0100
1000
0010
0100
0001
0010
0100
,
0010
0001
0100
0010
1000
0100
1100
0010
,
1000
0100
0011
0000
1000
0010
1000
0100
,
0010
0001
0100
0010
0100
0110
0000
0000
,
0100
0110
0000
0001
0010
0100
0010
0001
,
0100
0000
0001
0000
1000
0000
0100
0001
0010
0000
0001
0000
0110
0000
0010
0000
,
1000
0100
1001
0000
0100
0010
1000
0100
,
0010
0001
0100
0010
1000
0100
1000
0010
,
1000
0100
0010
0100
1000
0001
0010
0100
,
1000
0010
0100
0010
0100
0001
0110
0001
,
1000
0100
0011
0000
0100
0010
1000
0001
,
1000
0100
1000
0010
0100
0010
0000
0000
,
0001
0100
0000
0000
1000
0010
0000
0001
,
0100
0000
0100
0000
0100
0000
0100
0010
,
0100
1000
0010
1000
0100
0010
0000
0100
,
0010
0100
0010
0100
0001
0010
0000
1000
,
0010
0100
0001
0010
0100
0010
0000
1000
,
0100
0010
0001
1000
0010
0100
0000
0100
,
0001
1000
0100
0010
0100
0010
0000
1000
,
0010
1000
0001
1000
0100
0010
0000
0100
,
0010
0100
0001
0100
0001
0010
0000
0010
,
0001
0010
0001
1000
0100
0010
0001
0000
,
0100
0010
1000
0100
,
0010
0001
0100
0010
,
1000
0100
0010
0001
,
1000
0000
0001
1000
0010
0100
0110
0000
,
1000
0010
0100
0001
,
0010
0001
1000
0100
,
0010
0100
0010
0001
,
0000
0000
0100
1001
;
