#TITLE:PARANOiA Energy;
#SUBTITLE:;
#ARTIST:KVDO-X;
#TITLETRANSLIT:;
#SUBTITLETRANSLIT:;
#ARTISTTRANSLIT:;
#GENRE:;
#CREDIT:;
#MUSIC:PARANOiA Energy.ogg;
#BANNER:PARANOiA Energy-bn.png;
#BACKGROUND:PARANOiA Energy-BG.png;
#CDTITLE:./CDTITLES/DANCE DANCE REVOLUTION/EXTREME 3.PNG;
#SAMPLESTART:79.443;
#SAMPLELENGTH:12.000;
#SELECTABLE:YES;
#OFFSET:-0.031;
#BPMS:0.000=290.132
,64.000=145.066
,224.000=290.132
,288.000=145.066
;
#STOPS:;
#BGCHANGES:;
#FGCHANGES:;

//--------------- dance-single - B. M'Rey ----------------
#NOTES:
     dance-single:
     B. M'Rey:
     Beginner:
     3:
     0,0,0,0,0:
0000
0000
0000
0000
,
0000
0000
0000
0000
,
0000
0000
0000
0000
,
0000
0000
0000
0000
,
0000
0000
0000
0000
,
0000
0000
0000
0000
,
0000
0000
0000
0000
,
0000
0000
0000
0000
,
1000
0000
0000
0000
,
0001
0000
0000
0000
,
0010
0000
0010
0000
,
0010
0000
0000
0000
,
0100
0000
0000
0000
,
0000
0000
0000
0000
,
0000
0000
0000
0000
,
0000
0000
0000
0000
,
0001
0000
0000
0000
,
1000
0000
0000
0000
,
0010
0000
0000
0000
,
0100
0000
0000
0000
,
1001
0000
0000
0000
,
0010
0000
0000
0000
,
0001
0000
0000
0000
,
0100
0000
0000
0000
,
0010
0000
0010
0000
,
0001
0000
0001
0000
,
1000
0000
1000
0000
,
0010
0000
0010
0000
,
0100
0000
0100
0000
,
0001
0000
0001
0000
,
1000
0000
1000
0000
,
0010
0000
0010
0000
,
0100
0000
0100
0000
,
0001
0000
0001
0000
,
1000
0000
1000
0000
,
0010
0000
0010
0000
,
0100
0100
0100
0000
,
0010
0010
0000
0000
,
0001
0001
0000
0000
,
1000
1000
0000
0000
,
0010
0010
0000
0100
,
0010
0010
0000
0001
,
0010
0010
0000
1000
,
0100
0100
0000
0001
,
0010
0010
0000
0100
,
1000
1000
0000
0010
,
0100
0100
0000
0001
,
0010
0001
0000
0100
,
0101
0000
0101
0000
,
0001
0001
0001
0001
,
1010
0000
1010
0000
,
0010
0010
0010
0010
,
0110
0000
0110
0000
,
0100
0100
0100
0100
,
1001
0000
1001
0000
,
0001
0001
0001
0001
,
0001
0000
0000
0000
,
1000
0000
0000
0000
,
0010
0000
0100
0000
,
0001
0000
0000
0000
,
1000
0000
0000
0000
,
0010
0000
0000
0000
,
0100
0000
1000
0000
,
0010
0000
0000
0000
,
0100
0000
0000
0000
,
0001
0000
0000
0000
,
0010
0000
0001
0000
,
0100
0000
0000
0000
,
0010
0000
0000
0000
,
1000
0000
0000
0000
,
0001
0000
0100
0000
,
0010
0000
0000
0000
,
2002
0000
0000
0000
,
0000
0000
0000
0000
,
0000
0000
0000
0000
,
0000
0000
0000
0000
,
3003
0000
0000
0000
;

//--------------- dance-single - B. M'Rey ----------------
#NOTES:
     dance-single:
     B. M'Rey:
     Easy:
     6:
     0,0,0,0,0:
0000
0000
0000
0000
,
0000
0000
0000
0000
,
0000
0000
0000
0000
,
0000
0000
0000
0000
,
0000
0000
0000
0000
,
0000
0000
0000
0000
,
0000
0000
0000
0000
,
0000
0000
0000
0000
,
1000
0000
0001
0000
,
0010
0000
0001
0000
,
0001
0010
0100
1000
,
0100
0000
0000
0000
,
1001
0000
0000
0000
,
0000
0000
0000
0000
,
0000
0000
0000
0000
,
0000
0000
0000
0000
,
0110
0100
0000
0000
,
0011
0010
0000
0000
,
1100
0100
0000
0000
,
0110
0100
0000
0000
,
1001
0010
0000
0000
,
1100
1000
0000
0000
,
0011
0010
0000
0000
,
1100
1000
0000
0000
,
0001
0010
0001
0000
,
1000
0100
1000
0000
,
0010
0100
0010
0000
,
0001
0010
1000
0000
,
0100
1000
0100
0000
,
0001
0010
0001
0000
,
0100
0010
1000
0000
,
0100
0001
0010
0000
,
0100
0001
0100
0001
,
0100
0001
0100
0010
,
1000
0010
1000
0010
,
1000
0010
0100
0001
,
0100
0001
0100
0001
,
0100
0010
1000
0010
,
1000
0001
1000
0001
,
1000
0001
0100
0001
,
1010
1000
1010
1000
,
0101
0100
0110
0100
,
1010
1000
1001
1000
,
0110
0100
0110
1000
,
1001
0010
0011
0010
,
0110
1000
1100
0010
,
0011
0100
1001
1000
,
1100
1000
0110
0010
,
0011
0000
1100
0000
,
0110
1100
0011
1010
,
0110
0000
0101
0000
,
1100
1010
0110
0110
,
1001
0000
0011
0000
,
1100
0011
0011
0110
,
0110
0000
0011
0000
,
0011
1100
1001
1100
,
1000
0001
0010
0000
,
0001
0000
0000
0000
,
1000
0010
0100
0000
,
0100
0000
0000
0000
,
0001
0010
0001
0000
,
0001
0000
0000
0000
,
1000
0100
1000
0000
,
0010
0000
0100
0000
,
0001
0010
0001
0000
,
1000
0000
0000
0000
,
0010
0100
1000
0100
,
0001
0000
0000
0001
,
0010
0000
0000
1000
,
0100
0000
0000
0000
,
0010
0100
0001
0000
,
0010
1000
0100
1000
,
0002
0000
0000
0000
,
0000
0000
0000
0000
,
2000
0000
0000
0000
,
0000
0000
0000
0000
,
3003
0000
0000
0000
;

//--------------- dance-single - B. M'Rey ----------------
#NOTES:
     dance-single:
     B. M'Rey:
     Medium:
     8:
     0,0,0,0,0:
0000
0000
0000
0000
,
0000
0000
0000
0000
,
0000
0000
0000
0000
,
0000
0000
0000
0000
,
0000
0000
0000
0000
,
0000
0000
0000
0000
,
0000
0000
0000
0000
,
0000
0000
0000
0000
,
1000
0001
0010
0000
,
0100
0000
0001
0000
,
0001
0010
1000
0100
,
1000
0000
0010
0000
,
0202
0000
0000
0000
,
0000
0000
0000
0000
,
0320
0000
0000
0000
,
0000
0000
0000
0000
,
0133
0001
0100
0000
0000
0000
0000
0100
,
1000
0100
0010
0000
0000
0000
0000
0000
,
0100
0001
1000
0000
0000
0000
0100
0001
,
0100
0001
1000
0000
0000
0000
0000
0000
,
1010
0010
1000
0000
0000
0000
0000
0001
,
0100
0001
0010
0000
0000
0000
0000
0000
,
1000
0001
1000
0000
0000
0000
0000
0100
,
0010
0100
1000
0000
0000
0000
0000
0000
,
1010
0001
0010
0000
0010
0000
0010
0001
,
1000
0100
1000
0000
0010
0000
0010
0000
,
0010
0001
0010
0000
0100
0000
0100
0001
,
0100
0010
0100
0000
1000
0000
1000
0000
,
1000
0010
1000
0000
0100
0000
1000
0000
,
0100
0001
0100
0000
0100
0000
0010
0000
,
1000
0100
1000
0000
1000
0000
0010
0001
,
0010
0001
0010
0000
0010
0000
1000
0000
,
0010
0100
1000
0000
1000
0001
1000
0000
,
1000
0001
0100
0000
0100
0001
0100
0000
,
1000
0100
1000
0000
1000
0100
1000
0000
,
0010
0001
0010
0000
0010
0001
1000
0000
,
1000
0100
1000
0100
1000
0010
0100
0000
,
0100
0010
0100
0010
1000
0001
1000
0000
,
1000
0001
1000
0100
0010
0100
0010
0000
,
0010
0100
1000
0010
1000
0010
1000
0000
,
1000
0001
0010
0000
0010
0001
0010
0000
,
1000
0010
1000
0010
1000
0010
1000
0000
,
0010
0001
0010
0000
0010
0001
1000
0000
,
1000
0100
1000
0100
1000
0010
0100
0000
,
0100
0010
0100
0000
0100
0001
1000
0000
,
1000
0100
1000
0001
0010
0001
0010
0000
,
0010
0001
1000
0000
1000
0010
1000
0000
,
1000
0100
0010
0100
0010
0100
0010
0100
,
1000
1010
1000
0110
,
0100
0001
0100
0000
0101
0000
1001
0000
,
1000
1100
1000
0110
,
0010
0001
0010
0000
0011
0000
1001
0000
,
1000
1100
1000
0110
,
0010
0001
0010
0000
0011
0000
0110
0000
,
0100
0110
0100
1001
,
1000
0001
1000
0000
1010
0000
0110
0000
,
0100
0001
0100
0001
,
0100
0001
0100
0000
,
1000
0010
1000
0010
,
0100
0000
1000
0001
,
0100
0000
0100
0001
,
0100
0010
0100
0010
,
1000
0000
1000
0010
,
1000
0001
1000
0001
,
0010
0000
0010
0001
,
1000
0000
1000
0100
,
1000
0100
1000
0001
,
0100
0000
0100
0001
,
1000
0000
1000
0010
,
0100
0010
0100
0010
,
0100
0010
1000
0001
,
1000
0001
1000
0001
,
2000
0000
0000
0000
,
0000
0000
0000
0000
,
0200
0000
0000
0000
,
0000
0000
0000
0000
,
3300
0000
0000
0000
;

//--------------- dance-single - B. M'Rey ----------------
#NOTES:
     dance-single:
     B. M'Rey:
     Hard:
     10:
     0,0,0,0,0:
0000
0000
0000
0000
,
0000
0000
0000
0000
,
0000
0000
0000
0000
,
0000
0000
0000
0000
,
0000
0000
0000
0000
,
0000
0000
0000
0000
,
0000
0000
0000
0000
,
0000
0000
0000
0000
,
0010
1000
0010
0100
,
0010
0100
0001
1000
,
0001
0100
0001
0100
,
0100
0010
0001
1000
0001
0010
0001
1000
,
0200
0000
0000
0000
,
0000
0000
0000
0000
,
0020
0000
0000
0000
,
0331
1000
0001
1000
0001
0000
0010
0000
,
0001
0010
0001
0000
0001
0000
0010
0100
,
0010
0100
0001
0000
0001
0000
0001
0000
,
0100
1000
0100
0000
0001
0000
0001
0010
,
0001
0100
0010
0000
0010
0000
0001
0000
,
0001
0100
0001
0000
0010
0000
0010
1000
,
0010
1000
0100
0000
0100
0000
0100
0000
,
0001
0010
0100
0000
0100
0000
0100
0010
,
0001
0010
0001
0000
0100
0000
0100
0000
,
0101
0010
0001
0010
0101
0010
0100
1000
,
0110
1000
0100
0010
0101
0010
0001
0010
,
0101
1000
0100
1000
0101
0010
0001
0010
,
0101
0010
0100
1000
0110
1000
0100
0010
,
0101
1000
0010
1000
0110
1000
0100
0010
,
0101
1000
0100
0010
0101
0010
0001
0010
,
0110
1000
0100
1000
0101
0010
0001
0010
,
1001
0010
0100
1000
0110
1000
0001
1000
,
0001
1000
0001
1000
0001
0100
0010
0100
,
0010
0100
0001
1000
0001
1000
0010
1000
,
0010
0100
0010
0100
0001
0100
0001
1000
,
0100
1000
0100
1000
0001
0100
0001
0100
,
0001
0010
0100
0010
0001
0010
0001
0100
,
0001
1000
0010
1000
0010
1000
0001
0010
,
0001
0010
0001
0100
0010
0100
0010
0100
,
0001
1000
0001
1000
0001
0010
0100
0010
,
0100
1000
0100
1000
0010
1000
0010
0100
,
0001
0100
0001
0100
0010
1000
0001
1000
,
0001
1000
0100
0010
0100
0010
0100
1000
,
0010
0100
0010
1000
0010
1000
0001
1000
,
0001
0010
0001
0010
0100
0010
0100
1000
,
0100
1000
0010
0100
0010
0100
0010
1000
,
0001
1000
0001
1000
0010
0100
0010
0100
,
0001
0100
0001
1000
0001
1000
0010
0100
,
0110
0000
0010
1000
0011
0000
0010
1000
,
0110
0110
0101
1010
,
1010
0000
0100
1000
0110
0000
0100
0010
,
0011
1001
1001
1010
,
0110
0000
0100
1000
1100
0000
0001
0010
,
0011
1001
1010
1010
,
0011
0000
0001
0010
1001
0000
0100
1000
,
1100
0101
0101
1001
,
1001
0010
0001
0010
,
0101
1000
0100
1000
,
0110
1100
0011
0110
,
1010
0100
0001
0101
,
0101
1000
0001
1000
,
0110
0000
1000
0000
0010
0000
0100
0001
,
0010
0100
1000
0000
0001
0000
1000
0000
,
1100
1100
0110
0110
,
0110
0010
0001
1000
,
1001
1000
0001
0100
,
0110
0110
0110
0110
,
0011
0010
0001
0100
,
0101
0100
0010
0100
,
1010
0000
1000
0000
0010
0000
1000
0001
,
0100
0010
1000
0000
0010
0000
0100
0000
,
0010
1000
0010
1000
,
0002
0000
0000
0000
,
0000
0000
0000
0000
,
0200
0000
0000
0000
,
0000
0000
0000
0000
,
0303
0000
0000
0000
;
