#VERSION:0.83;
#TITLE:PARANOiA Energy MAX;
#ARTIST:KVDO-X;
#GENRE:HARD TEKNO;
#MUSIC:PARANOiA Energy MAX.ogg;
#BANNER:PARANOiA Energy MAX-BN.png;
#BACKGROUND:PARANOiA Energy MAX-BG.png;
#CDTITLE:./CDTITLES/DANCE DANCE REVOLUTION EXTREME 3.PNG;
#SAMPLESTART:99.297;
#SAMPLELENGTH:15;
#OFFSET:-0.032;
#BPMS:0=290.132;

//--------------- dance-single - B. M'Rey ----------------
#NOTEDATA:;
#STEPSTYPE:dance-single;
#DESCRIPTION:B. M'Rey;
#DIFFICULTY:Beginner;
#METER:5;
#RADARVALUES:0,0,0,0,0;
#NOTES:
0000
0000
0000
0000
,
0000
0000
0000
0000
,
0000
0000
0000
0000
,
0000
0000
0000
0000
,
1000
0000
0000
0000
,
0001
0000
0000
0000
,
0010
0000
0000
0000
,
0001
0000
0000
0000
,
0100
0000
0000
0000
,
0010
0000
0000
0000
,
1000
0000
1000
0000
,
0001
0000
0000
0000
,
0010
0000
0000
0000
,
0100
0000
0000
0000
,
0001
0000
0000
0000
,
0001
0000
0000
0000
,
0100
0000
0000
0000
,
0010
0000
0000
0000
,
1000
0000
1000
0000
,
0100
0000
0000
0000
,
0001
0000
0000
0000
,
0001
0000
0000
0000
,
0010
0000
0000
0000
,
0010
0000
0000
0000
,
0100
0000
0000
0000
,
0100
0000
0000
0000
,
1000
0000
0000
0000
,
1000
0000
0000
0000
,
0100
0000
0000
0000
,
0100
0000
0000
0000
,
0010
0000
0000
0000
,
0010
0000
0000
0000
,
0100
0000
0010
0000
,
0100
0000
0010
0000
,
0220
0000
0000
0000
,
0000
0000
0000
0000
,
0332
0000
0000
0000
,
0000
0000
0000
0000
,
0000
0000
0000
0000
,
0000
0000
0000
0000
,
1003
0000
0000
0000
,
0000
0000
0000
0000
,
0010
0000
0000
0000
,
0000
0000
0000
0000
,
0100
0000
0000
0000
,
0000
0000
0000
0000
,
0001
0000
0000
0000
,
0000
0000
0000
0000
,
0010
0000
0000
0000
,
0000
0000
0000
0000
,
0100
0000
0000
0000
,
0000
0000
0000
0000
,
0010
0000
0000
0000
,
0000
0000
0000
0000
,
0001
0000
0000
0000
,
0000
0000
0000
0000
,
1000
0000
0000
0000
,
0010
0000
0000
0000
,
0100
0000
0000
0000
,
0001
0000
0000
0000
,
0010
0000
0000
0000
,
0001
0000
0000
0000
,
0100
0000
0000
0000
,
1000
0000
0000
0000
,
0010
0000
0000
0000
,
0100
0000
0000
0000
,
1000
0000
0000
0000
,
0001
0000
0000
0000
,
0010
0000
0000
0000
,
0001
0000
0000
0000
,
0100
0000
0000
0000
,
1000
0000
0000
0000
,
0100
0000
0000
0000
,
0010
0000
0000
0000
,
0001
0000
0000
0000
,
0010
0000
0000
0000
,
0100
0000
0000
0000
,
1000
0000
0000
0000
,
0100
0000
0000
0000
,
1000
0000
0000
0000
,
0010
0000
0000
0000
,
0100
0000
0000
0000
,
0010
0000
0000
0000
,
0100
0000
0000
0000
,
0001
0000
0000
0000
,
0010
0000
0000
0000
,
0001
0000
0000
0000
,
0010
0000
0000
0000
,
0001
0000
0010
0000
,
0001
0000
0000
0000
,
0001
0000
0010
0000
,
0001
0000
0000
0000
,
1000
0000
0100
0000
,
1000
0000
0000
0000
,
1000
0000
0100
0000
,
1000
0000
0000
0000
,
0010
0000
0100
0000
,
0010
0000
0000
0000
,
0010
0000
0100
0000
,
0010
0000
0000
0000
,
0001
0000
1000
0000
,
0001
0000
0000
0000
,
0001
0000
1000
0000
,
0001
0000
0000
0000
,
0001
0000
0000
0000
,
0001
0000
0000
0000
,
1000
0000
1000
0000
,
1000
0000
0000
0000
,
0100
0000
0000
0000
,
0100
0000
0000
0000
,
0010
0000
0010
0000
,
0010
0000
0000
0000
,
1000
0000
0000
0000
,
1000
0000
0000
0000
,
0010
0000
0010
0000
,
0010
0000
0000
0000
,
0100
0000
0000
0000
,
0100
0000
0000
0000
,
0001
0000
0001
0000
,
0001
0000
0000
0000
,
1000
0000
0000
0000
,
0001
0000
0000
0000
,
0010
0000
0000
0000
,
0001
0000
0000
0100
,
0010
0000
0000
0000
,
1000
0000
0000
0000
,
0001
0000
0000
0000
,
0010
0000
0000
0100
,
0010
0000
0000
0000
,
0001
0000
0000
0000
,
1000
0000
0000
0000
,
0010
0000
0000
0001
,
0010
0000
0000
0000
,
0100
0000
0000
0000
,
1000
0000
0000
0000
,
0010
0000
0000
0000
,
0200
0000
0000
0000
,
0000
0000
0000
0000
,
0000
0000
0000
0000
,
0000
0000
0000
0000
,
0000
0000
0000
0000
,
0000
0000
0000
0000
,
0000
0000
0000
0000
,
0000
0000
0000
0000
,
0300
0000
0000
0000
;

//--------------- dance-single - B. M'Rey ----------------
#NOTEDATA:;
#STEPSTYPE:dance-single;
#DESCRIPTION:B. M'Rey;
#DIFFICULTY:Easy;
#METER:7;
#RADARVALUES:0,0,0,0,0;
#NOTES:
0000
0000
0000
0000
,
0000
0000
0000
0000
,
0000
0000
0000
0000
,
0000
0000
0000
0000
,
1000
0000
0000
0000
,
0001
0000
0000
0000
,
0010
0000
0100
0000
,
0010
0000
0100
0000
,
0001
0000
0000
0000
,
1000
0000
0000
0000
,
0010
0000
0100
0000
,
0001
0000
1000
0000
,
1001
0000
0000
0000
,
0010
0000
0100
0000
,
0001
0000
1000
0000
,
0100
0000
0010
0000
,
1010
0000
0000
0000
,
0101
0000
0000
0000
,
0010
0000
0100
0000
,
0001
0000
1000
0000
,
1001
0000
0000
0000
,
1001
0000
0000
0000
,
0110
0000
0000
0000
,
0110
0000
0000
0000
,
0101
0000
0000
0000
,
0101
0000
0000
0000
,
1010
0000
0000
0000
,
1010
0000
0000
0000
,
0001
0000
0001
0000
,
1000
0000
1000
0000
,
0001
0000
0001
0000
,
1000
0000
1000
0000
,
0001
0000
0001
0000
,
1000
0000
1000
0000
,
1001
0000
1001
0000
,
1001
0000
1001
0000
,
0020
0000
0000
0000
,
0000
0000
0000
0000
,
0200
0000
0000
0000
,
0000
0000
0000
0000
,
0331
0000
0000
0000
,
0000
0000
0000
0000
,
0001
0000
0100
0000
,
0000
0000
0000
0000
,
1000
0000
0010
0000
,
0000
0000
0000
0010
,
0100
0000
0000
0000
,
0000
0000
0000
0000
,
0001
0000
0100
0000
,
0000
0000
0000
0000
,
0010
0000
0001
0000
,
0000
0000
0000
0000
,
1000
0000
0100
0000
,
0000
0000
0000
0010
,
0100
0000
0000
0000
,
0000
0000
0000
0000
,
0001
0000
1000
0000
,
0010
0000
0000
0000
,
0001
0000
1000
0000
,
0010
0000
0000
0000
,
1001
0000
0100
0000
,
0010
0000
0000
0000
,
0100
0000
0001
0000
,
1000
0000
0000
0000
,
0010
0000
0100
0000
,
0001
0000
0000
0000
,
0001
0000
1000
0000
,
0010
0000
0000
0000
,
0100
0000
1000
0000
,
0100
0000
0000
0000
,
0010
0000
0100
0000
,
0001
0000
0000
0000
,
0001
0000
0010
0000
,
0100
0000
0000
0000
,
1000
0000
0100
0000
,
1000
0000
0000
0000
,
0010
0000
0100
0000
,
0001
0000
0000
0000
,
0010
0000
0100
0000
,
0001
0000
0000
0000
,
1000
0000
0100
0000
,
1000
0000
0000
0000
,
0010
0000
0100
0000
,
0001
0000
0000
0000
,
0010
0000
0100
0000
,
1000
0000
0000
0000
,
0001
0000
0010
0000
,
0001
0000
0000
0000
,
0100
0000
0100
0000
,
0100
0000
0100
0000
,
0010
0000
0010
0000
,
0010
0000
0010
0000
,
0001
0000
0001
0000
,
0001
0000
0001
0000
,
1000
0000
1000
0000
,
1000
0000
1000
0000
,
0010
0000
0010
0000
,
0010
0000
0010
0000
,
0100
0000
0100
0000
,
0100
0000
0100
0000
,
0001
0000
0001
0000
,
0001
0000
0001
0000
,
1000
0000
1000
0000
,
1000
0000
1000
0000
,
1010
0000
0000
0000
,
0110
0000
0000
0000
,
0001
0000
0001
0000
,
0001
0000
0001
0000
,
0101
0000
0000
0000
,
1010
0000
0000
0000
,
0100
0000
0100
0000
,
0100
0000
0100
0000
,
1010
0000
0000
0000
,
0110
0000
0000
0000
,
0100
0000
0100
0000
,
0100
0000
0100
0000
,
0101
0000
0000
0000
,
1010
0000
0000
0000
,
0010
0000
0010
0000
,
0010
0000
0010
0000
,
0001
0000
0000
0000
,
1000
0000
0000
0000
,
0010
0000
0100
0000
,
0001
0000
0000
0000
,
1000
0000
0000
0000
,
0010
0000
0000
0000
,
0100
0000
0001
0000
,
0010
0000
1001
0000
,
0110
0000
0000
0000
,
0001
0000
0000
0000
,
1000
0000
0100
0000
,
0010
0000
0000
0000
,
1001
0000
0000
0000
,
0101
0000
0000
0000
,
0010
0000
0100
0000
,
1000
0000
0100
0000
,
1001
0000
0000
0000
;

//--------------- dance-single - B. M'Rey ----------------
#NOTEDATA:;
#STEPSTYPE:dance-single;
#DESCRIPTION:B. M'Rey;
#DIFFICULTY:Medium;
#METER:10;
#RADARVALUES:0,0,0,0,0;
#NOTES:
0000
0000
0000
0000
,
0000
0000
0000
0000
,
0000
0000
0000
0000
,
0000
0000
0000
0000
,
0001
0010
1000
0000
,
0100
0010
1000
0000
,
0001
0100
1000
0100
,
1000
0100
1000
0000
,
0010
0100
0001
0000
,
0010
0000
0001
0000
,
0001
1000
0100
0000
,
1010
0000
0101
0000
,
0010
0100
1000
0000
,
0100
0010
0001
0000
,
0001
0010
1000
0100
,
1000
0100
0010
1000
,
1001
0000
0010
0100
,
1000
0000
0001
0010
,
0101
0000
1010
0000
,
0110
0001
1000
0100
,
1010
0000
0000
0000
,
0101
0000
0000
0000
,
1010
0000
0000
0000
,
0101
0000
0000
0000
,
1010
0000
0000
0000
,
0101
0000
0000
0000
,
1010
0000
0000
0000
,
0101
0000
0000
0000
,
0101
0000
0110
0000
,
1010
0000
0110
0000
,
0101
0000
1010
0000
,
0101
0000
1010
0000
,
0110
0000
1001
0000
,
0110
0000
1001
0000
,
1001
0000
1001
0000
,
1001
0000
0110
0000
,
2002
0000
0000
0000
0000
0000
0000
3000
,
1000
0000
0000
0000
,
1000
1000
1000
0000
,
1000
0000
1000
0003
,
0001
0010
0002
0000
,
0000
0000
0000
0103
,
0010
1000
0200
0000
,
0000
0000
0000
0000
,
0301
0010
0200
0000
,
0310
0000
1000
0100
,
1000
0100
2000
0000
,
0000
0000
0000
0000
,
3001
0010
0200
0000
,
0310
0000
0001
0000
,
0001
0010
1000
0000
,
0100
0000
1000
0000
,
0010
0100
0010
0000
,
0001
0000
0010
0000
,
1000
0100
1000
0000
,
0010
0000
0100
0000
,
0101
0000
0010
1000
,
0100
0000
0000
0010
,
0100
1000
0100
0000
,
1001
0000
0000
0000
,
0010
0100
0010
0000
,
1001
0000
0000
0001
,
0100
0010
1000
0000
,
1010
0000
0000
0000
,
0010
0100
0001
0000
,
0101
0000
0000
0010
,
1000
0100
1000
0000
,
0110
0000
0000
0000
,
0001
0010
0001
0000
,
0101
0000
0000
0010
,
1000
0100
1000
0000
,
1010
0000
0000
0000
,
0001
0010
0001
0010
,
0001
0000
1000
0000
,
0100
1000
0100
1000
,
0010
0000
0100
0000
,
0010
0001
0100
0010
,
0100
0000
0010
0000
,
0001
0010
0001
0010
,
1000
0000
0100
0000
,
0010
1000
0100
1000
,
0100
0000
0010
0000
,
0001
0010
0100
0001
,
0100
0000
0010
0000
,
1000
0100
1000
0010
,
0100
0000
0010
0000
,
0001
0010
0100
0000
,
1000
0000
0100
0000
,
0010
1000
0100
1000
,
0100
0010
1000
0010
,
0100
0010
1000
0010
,
0100
0010
1000
0010
,
0100
0001
0010
0100
,
0001
0010
0100
0001
,
0100
0010
0100
0001
,
0100
0010
0100
0001
,
0010
1000
0010
0100
,
1000
0010
0100
0010
,
1000
0010
0100
0010
,
1000
0010
0100
0010
,
0100
0001
0010
0100
,
0001
0100
0010
0100
,
0001
0100
0010
0100
,
0001
0100
0010
1000
,
0110
0000
1000
0000
,
1100
0000
1000
0000
,
0110
0000
0101
0000
,
0110
0000
1010
0000
,
0101
0000
0010
0000
,
0110
0000
0001
0000
,
0101
0000
1010
0000
,
0101
0000
1010
0000
,
0110
0000
0001
0000
,
0110
0000
1000
0000
,
0110
0000
0101
0000
,
1010
0000
0110
0000
,
0110
0000
0001
0000
,
1010
0000
0010
0000
,
0110
0000
0101
0000
,
1010
0000
0110
0000
,
0001
0010
1000
0100
,
1000
0000
0010
0000
,
0010
0100
0001
0100
,
0010
1000
0100
1000
,
1010
0000
0001
0100
,
0010
0000
0001
0000
,
0001
0010
1000
0100
,
1010
0000
0101
0000
,
0110
0000
0010
1000
,
0100
0000
0001
0000
,
0001
1000
0001
1000
,
0001
0000
0100
0000
,
0010
1000
0100
0000
,
0001
0000
0010
0000
,
0001
1000
0100
0010
,
0100
0001
1000
0010
,
2002
0000
0000
0000
,
0000
0000
0000
0000
,
0000
0000
0000
0000
,
0000
0000
0000
0000
,
0203
0000
0000
0000
,
0000
0000
0000
0000
,
0000
0000
0000
0000
,
0000
0000
0000
0000
,
3300
0000
0000
0000
;

//--------------- dance-single - B. M'Rey ----------------
#NOTEDATA:;
#STEPSTYPE:dance-single;
#DESCRIPTION:B. M'Rey;
#DIFFICULTY:Hard;
#METER:14;
#RADARVALUES:0,0,0,0,0;
#NOTES:
0000
0000
0000
0000
,
0000
0000
0000
0000
,
0000
0000
0000
0000
,
0000
0000
0000
0000
,
0001
1000
0001
1000
,
0100
1000
0100
0010
,
0001
1000
0001
1000
0001
0100
0010
0100
,
0010
0100
1000
0000
0100
0000
1000
0000
,
1001
1000
0001
0100
,
0101
0100
0010
0100
,
0010
1000
0010
1000
0010
0000
0001
0000
,
1000
0001
0100
0001
,
0100
0010
0100
0010
,
1000
0001
0100
0001
,
0001
1000
0001
1000
0100
0000
0100
1000
,
0001
1000
0010
1000
,
0010
1000
0100
0010
,
0100
1000
0100
1000
,
0001
1000
0001
1000
0001
0000
0001
0000
,
1000
0001
1000
0001
,
1010
0001
0010
1000
,
0110
0000
0001
0010
,
0110
0000
0001
1000
,
1001
0000
0001
0010
,
0110
0000
0100
0010
,
1001
0000
0001
1000
,
0011
0000
0100
0010
,
0110
0000
0001
1000
,
1001
1000
0101
0100
,
0110
0100
0110
0100
,
1001
1000
1100
1000
,
1100
1000
0011
0010
,
0101
0101
0101
0110
,
0110
0110
1010
1001
,
0001
1000
0010
1000
0010
1000
0001
0010
,
0001
0010
0001
1000
0001
0000
1000
0000
,
0200
0000
0000
0000
,
0020
0000
0000
0000
0000
0000
0000
0030
,
0010
0010
0010
0010
,
0010
0000
0010
0000
,
0301
0010
0100
0000
,
0100
0010
0001
1000
,
0001
1000
0010
0000
,
0010
0100
0001
0000
,
0001
0100
0010
0000
,
0100
0000
1000
0000
0010
0100
1000
0010
,
0100
0010
0100
0000
,
0100
1000
0010
0000
,
0100
1000
0100
0000
,
0100
0010
0001
0010
,
0001
1000
0001
0000
,
0010
0100
0010
0000
,
0001
1000
0001
0000
,
0001
0000
0010
0000
0100
0010
0100
0010
,
0100
0010
0001
0000
,
0001
1000
0100
0000
,
0101
0100
0001
0100
,
0011
0010
0100
0010
,
0110
0010
0001
1000
,
0110
1000
0010
1000
,
0110
0100
0010
0100
,
0101
0000
0100
0000
0001
0010
0001
0010
,
0001
0010
0100
0010
,
0011
0100
0001
0010
,
1001
1000
0010
0100
,
0110
0100
0010
1000
,
0011
1000
0010
1000
,
0110
0100
0010
0100
,
0011
0100
0001
0010
,
0101
0000
0010
0000
0100
0010
0100
0010
,
0100
1000
0100
1001
,
0001
1000
0001
0010
,
0001
1000
0001
1000
,
0001
1000
0001
1000
0001
0000
0001
0000
,
1000
0001
1000
0001
,
0001
1000
0001
1000
0001
0000
0001
0000
,
1000
0001
1000
0001
,
0001
1000
0001
1000
0100
0000
0001
0000
,
1000
0001
1000
0001
,
0100
1000
0100
1000
0100
0000
0010
0000
,
0100
0010
0100
0001
,
0100
1000
0100
1000
0100
0000
0010
0000
,
1000
0001
1000
0001
,
0010
1000
0010
1000
0010
0000
0001
0000
,
1000
0010
1000
0010
,
0001
1000
0001
1000
0100
0000
0001
0000
,
1000
0001
1000
0100
,
0001
1000
0001
0100
0001
0000
1000
0000
,
0001
0000
0001
1000
0001
0000
0100
0010
,
0100
0000
0001
0100
0001
0000
0010
0000
,
0010
0000
0100
1000
0001
0000
0001
0100
,
0001
0000
0010
0100
0010
0000
0100
0000
,
0010
0000
0010
0100
0010
0000
0001
0010
,
0001
0000
0001
1000
0010
0000
0001
0000
,
0001
0000
0001
0100
0010
0000
0010
1000
,
0001
0000
0001
0100
0001
0000
0100
0000
,
0100
0000
0001
0100
0001
0000
0001
0010
,
0100
0000
0100
0010
0001
0000
0010
0000
,
0001
0000
0001
0100
0001
0000
0010
0100
,
0010
0000
0010
1000
0001
0000
0001
0000
,
0010
0000
0100
1000
0100
0000
0001
0010
,
0100
0000
0100
0010
0001
0000
0010
0000
,
0001
0000
0100
0010
0100
0000
0100
1000
,
0001
0000
0100
1000
0100
0000
0100
0000
,
0001
0010
0001
0000
0001
0000
0100
1000
,
0100
0000
0100
0000
0001
0000
0001
0100
,
0101
0000
1010
0000
,
1001
0000
0000
0000
0110
0000
0010
1000
,
0001
0000
0100
1000
0100
0000
0001
0010
,
0100
0000
0001
1000
0100
0000
0100
0010
,
0110
0000
1100
0000
,
1010
0000
0110
0000
,
0101
0000
0001
0100
0001
0000
0100
1000
,
0100
0000
0010
0100
0010
0000
0010
1000
,
0101
0000
0110
0000
,
1100
0000
1010
0000
,
0101
0000
0001
1000
0100
0000
0100
1000
,
0001
0000
0001
0010
0001
0000
0010
1000
,
1010
0000
0011
0000
,
0110
0000
0011
0000
,
0001
1000
0001
1000
,
0100
1000
0100
0010
,
0001
1000
0001
1000
0001
0010
0100
0010
,
0100
1000
0100
1000
,
1001
1000
0001
0100
,
0101
0000
0000
0000
0000
0000
0000
0000
0000
0000
0000
0000
0000
0000
0000
0000
0000
0000
0000
0000
0000
0000
0000
0000
0000
0000
0000
0000
0000
0000
0000
0000
0000
0000
0000
0000
0000
0000
0000
0000
0000
0000
0000
0000
0000
0000
0000
0000
0100
0000
0000
0000
0000
0000
0000
0000
0000
0000
0000
0000
0000
0000
0000
0000
0000
0000
0000
0000
0000
0000
0000
0000
0000
0000
0000
0000
0000
0000
0000
0000
0000
0000
0000
0000
0000
0000
0000
0000
0000
0000
0000
0000
0000
0000
0000
0000
0010
0000
0000
0000
0000
0000
0000
0000
0000
0000
0000
0000
0000
0000
0000
0000
0000
0000
0000
0000
0000
0000
0000
0000
0000
0000
0000
0000
0000
0000
0000
0000
0000
0000
0000
0000
0000
0000
0000
0000
0000
0000
0000
0000
0000
0000
0000
0000
0100
0000
0000
0000
0000
0000
0000
0000
0000
0000
0000
0000
0000
0000
0000
0000
0000
0000
0000
0000
0000
0000
0000
0000
0000
0000
0000
0000
0000
0000
0000
0000
0000
0000
0000
0000
0000
0000
0000
0000
0000
0000
0000
0000
0000
0000
0000
0010
,
0010
1000
0010
1000
0010
0000
0001
0000
,
1001
0101
0101
0101
,
0101
0010
0100
0010
,
1000
0001
0100
0001
,
0001
1000
0100
1000
0100
1000
0001
0010
,
0001
1000
0010
1000
,
0010
1000
0100
0010
,
0100
1000
0100
1000
,
0001
1000
0001
1000
0001
0100
0010
0100
,
0010
0100
0001
0010
0001
0010
0001
0100
,
2000
0000
0000
0000
,
0000
0000
0000
0000
,
0000
0000
0000
0000
,
0000
0000
0000
0000
,
0200
0000
0000
0000
,
0000
0000
0000
0000
,
0000
0000
0000
0000
,
0000
0000
0000
0000
,
3300
0000
0000
0000
;
