#TITLE:ON FIRE;
#SUBTITLE:(NEW GENERATION MIX);
#ARTIST:PAVESI SOUND FEAT. CHARLIE JAY;
#TITLETRANSLIT:;
#SUBTITLETRANSLIT:;
#ARTISTTRANSLIT:;
#GENRE:;
#CREDIT:;
#MUSIC:ON FIRE (NEW GENERATION MIX).ogg;
#BANNER:ON FIRE (NEW GENERATION MIX)-bn.png;
#BACKGROUND:ON FIRE (NEW GENERATION MIX)-bg.png;
#CDTITLE:./CDTITLES/DANCEMANIA/PRESENTS AKI MONOGATARI 2007.PNG;
#SAMPLESTART:42.959;
#SAMPLELENGTH:12.000;
#SELECTABLE:YES;
#OFFSET:-0.150;
#BPMS:0.000=140.000;
#STOPS:;
#BGCHANGES:;
#FGCHANGES:;

//--------------- dance-single - B. M'Rey ----------------
#NOTES:
     dance-single:
     B. M'Rey:
     Beginner:
     2:
     0,0,0,0,0:
0000
0000
0000
0000
,
0000
0000
0000
0000
,
0000
0000
0000
0000
,
0000
0000
0000
0000
,
1001
0000
0000
0000
,
0000
0000
0000
0000
,
0110
0000
0000
0000
,
0001
0000
0001
1001
,
0001
0000
1000
0000
,
0010
0000
0100
0000
,
0001
0000
0010
0000
,
0001
0001
1000
1000
,
0010
0000
0100
0000
,
0001
0000
1000
0000
,
0010
0000
0100
0000
,
1001
0000
0000
0000
,
0001
0000
0010
0000
,
1000
0000
0100
0000
,
1000
1000
1000
0000
,
0001
0000
0010
0000
,
0001
0000
0100
0000
,
0010
0000
0001
0000
,
0001
0000
1000
1000
,
1000
0000
0010
0100
,
0000
0000
0000
1001
,
0001
0000
1000
0000
,
0010
0010
0010
0000
,
0100
0000
0001
0000
,
0010
0000
0000
0000
,
0001
0000
1000
0000
,
0100
0100
0100
0000
,
1000
0000
0010
0000
,
1001
0000
0000
0000
,
0010
0000
0010
0000
,
0001
1000
0001
0000
,
0010
0000
0010
0000
,
1000
0100
1000
0000
,
0100
0000
0100
0000
,
0001
1000
0001
0000
,
0010
0000
0010
0000
,
0001
0010
0001
0000
,
0001
0000
1000
0000
,
0010
0000
0100
0000
,
0001
0000
1000
0000
,
0010
0000
0100
0000
,
1001
0000
0010
0000
,
0001
0000
0100
0000
,
1000
0000
0010
0000
,
0001
0000
0000
0000
,
1000
0000
0010
0000
,
0100
0000
1000
0000
,
0001
0000
0010
0000
,
0001
0000
0100
0000
,
1001
0000
0010
0000
,
0100
0000
0001
0000
,
1000
0000
0010
0000
,
0100
0000
0100
0000
,
0002
0000
0000
0000
,
0000
0000
0000
0000
,
0000
0000
0000
0000
,
0000
0000
0000
0000
,
0203
0000
0000
0000
,
0000
0000
0000
0000
,
0000
0000
0000
0000
,
0000
0000
0000
0000
,
2300
0000
0000
0000
,
3000
0000
0000
0000
;

//--------------- dance-single - B. M'Rey ----------------
#NOTES:
     dance-single:
     B. M'Rey:
     Easy:
     3:
     0,0,0,0,0:
0000
0000
0000
0000
,
0000
0000
0000
0000
,
0000
0000
0000
0000
,
0000
0000
0000
0000
,
0011
0000
0100
0000
,
0100
0000
0001
1000
,
1001
0000
0100
0000
,
0001
0000
0100
0000
,
0100
0010
0001
1000
,
0100
0010
0001
1000
,
0100
0010
0001
1000
,
0010
0000
0010
0000
,
0001
0100
0001
0010
,
0001
1000
0010
0100
,
0001
0100
0010
0100
,
0010
0000
0010
0000
,
0001
0010
0001
0000
,
0010
0100
0001
1000
,
0100
0010
0100
0000
,
0001
0100
0001
0010
,
0001
0100
0010
1000
,
0010
1000
0100
0010
,
0100
1000
0001
0100
,
0010
1000
0010
1000
,
1001
0000
0000
0000
,
0100
0010
0100
0000
,
0010
0100
0010
0000
,
0010
1000
0100
0000
,
0100
0020
0000
1030
,
0010
1000
0010
0000
,
0100
0010
0001
0000
,
0001
0010
0001
0000
,
0020
0000
0000
1030
,
0001
0100
0001
0000
,
0100
0010
0100
0000
,
0010
0100
0001
0000
,
0002
0000
0000
0103
,
0010
1000
0010
0000
,
0010
0100
0001
0000
,
0100
1000
0100
0000
,
0020
0000
0000
0130
,
0010
0100
0010
1000
,
0001
0010
0100
1000
,
0100
1000
0100
0010
,
0001
0000
0100
0000
,
0100
0010
0100
0010
,
0001
0010
0001
1000
,
0001
0010
0100
0010
,
0100
0000
0001
0000
,
0001
0100
0001
0100
,
0010
0100
0001
1000
,
0001
1000
0010
1000
,
0010
0000
0010
0000
,
0001
0010
0100
0010
,
0100
1000
0100
0010
,
0001
0010
0100
1000
,
0010
0000
0010
0000
,
0010
0000
0100
0000
,
1000
0000
0100
0000
,
0001
0000
0100
0000
,
0010
0000
0100
0000
,
0001
0000
0010
0000
,
1000
0000
0010
0000
,
0001
0000
0100
0000
,
0001
0000
0100
0000
,
0002
0000
0000
0000
,
0003
0000
0000
0000
;

//--------------- dance-single - B. M'Rey ----------------
#NOTES:
     dance-single:
     B. M'Rey:
     Medium:
     7:
     0,0,0,0,0:
0000
0000
0000
0000
,
0000
0000
0000
0000
,
0000
0000
0000
0000
,
0000
0000
0000
0000
,
0010
0000
0010
0100
0010
0000
0100
0010
,
0001
0100
1000
0100
,
1001
0000
0100
0010
0001
0000
0100
0010
,
1100
1100
0101
1001
,
0100
0010
0001
1000
0010
1000
0010
1000
,
0000
0010
0100
0010
0100
1000
0001
1000
,
0000
1000
0100
0010
0100
0010
0001
0010
,
0001
0100
0010
0100
,
0001
0010
0001
1000
0010
0100
0010
0100
,
0000
1000
0001
0100
0010
1000
0100
0010
,
0000
0010
0100
1000
0100
1000
0010
1000
,
0100
0010
0100
1001
,
0001
1000
0100
0010
0001
0010
0000
1000
,
0100
0010
0001
0010
0100
0010
0001
1000
,
0100
1000
0010
0100
0010
0000
0001
0010
,
0100
0010
0000
0010
0001
1000
0010
0000
,
0010
1000
0001
0000
0001
1000
0010
0000
,
0001
0100
0001
0000
0100
1000
0001
0000
,
0001
0010
0100
0000
0001
0010
0100
0010
,
0001
1000
0100
0000
0010
1000
0010
0000
,
0010
0100
0000
0010
0000
1000
0010
0000
,
0001
1000
0001
0100
0001
0000
0110
0000
,
0001
1000
0100
0010
0001
0000
0001
0000
,
0001
0010
0100
0010
0100
0000
0101
0000
,
0010
1000
0010
0000
0100
0010
0100
0000
,
0100
0010
0001
0100
0010
0000
0110
0000
,
0001
1000
0010
0100
0010
0000
0001
0000
,
0010
1000
0010
1000
0010
0000
0101
0000
,
0010
0100
0010
0000
0001
0100
0001
0000
,
0001
0000
0100
0010
0100
0000
0101
0000
,
0010
1000
0010
1000
0100
0000
0100
0000
,
0100
0000
0001
1000
0010
0000
1001
0000
,
0001
0100
0001
0100
0000
1000
0001
0000
,
0001
0000
0010
0100
0010
0000
0110
0000
,
0100
1000
0100
1000
0010
0000
0010
0000
,
0001
0000
0001
0010
0100
0000
1001
0000
,
0001
1000
0100
0010
0000
1000
0010
0000
,
0010
1000
0001
0100
0001
1000
0010
0100
,
0000
0100
0001
1000
0100
1000
0010
0100
,
0000
0100
0010
1000
0001
1000
0010
1000
,
0100
0010
0100
0010
,
0001
1000
0010
0100
0001
1000
0100
1000
,
0000
0100
0010
0100
0001
0010
0001
0010
,
0000
0010
0001
0100
0010
1000
0010
1000
,
0100
0010
0100
0001
,
1000
0100
0001
0010
0100
1000
0100
1000
,
0000
0010
0100
1000
0010
1000
0001
1000
,
0000
0100
0001
1000
0100
1000
0010
0100
,
0010
0100
0001
1000
,
0010
1000
0001
0100
0010
1000
0100
0010
,
0000
0010
0100
1000
0001
0010
0100
1000
,
0000
0100
0001
0010
0100
0010
0100
0010
,
0001
1000
0001
0010
,
0001
0010
0001
0100
,
0001
1000
0100
1000
,
0001
1000
0010
0100
,
0001
1000
0001
1000
,
0010
1000
0001
0100
,
0001
1000
0010
1000
,
0100
0010
0100
0010
,
0001
1000
0010
0100
,
0220
0000
0000
0000
,
0330
0000
0000
0000
;

//--------------- dance-single - B. M'Rey ----------------
#NOTES:
     dance-single:
     B. M'Rey:
     Hard:
     9:
     0,0,0,0,0:
0000
0000
0000
0000
,
0000
0000
0000
0000
,
0000
0000
0000
0000
,
0000
0000
0000
0000
,
0100
0000
0100
0000
0001
0000
0010
1000
,
0100
0000
0000
0000
0001
0000
0000
0000
0100
0000
0000
1000
0000
0000
0100
0000
,
0010
0000
0001
0000
0100
0000
0001
0100
,
1001
0110
0101
0110
,
0001
0000
0010
0000
0100
1000
0000
0010
0100
0000
0010
0001
0000
0001
0010
0000
,
0001
0000
0010
0000
0100
1000
0000
0100
0001
0000
0100
0001
0000
0001
0100
0000
,
0010
0000
0100
0000
0001
0010
0000
1000
0001
0000
1000
0100
0000
0001
0100
0000
,
0010
0000
0100
0001
0000
0000
0100
0000
0010
0000
1000
0100
0000
0001
0010
0000
,
0100
0000
0010
0000
0001
1000
0000
1000
0100
0000
1000
0001
0000
0001
1000
0000
,
0010
0000
0100
0000
0001
1000
0000
0100
0010
0000
0100
0010
0000
0010
1000
0000
,
0100
0000
1000
0000
0010
1000
0000
1000
0010
0000
0100
0001
0000
0001
0010
0000
,
0001
0000
0000
0001
0000
0000
1000
0000
0100
0000
0000
0010
0000
0000
0010
0000
,
0001
1000
0010
0100
0010
0100
0010
1000
,
0001
0000
0100
0000
0010
0000
1000
0000
0100
0001
1000
0000
0010
0000
1000
0000
,
0001
0010
0100
0010
0001
0000
0100
1000
,
0010
0100
1000
0000
0100
0000
0010
0000
0001
0010
0100
0000
0010
0000
0100
0000
,
0001
0010
0001
0010
0100
0010
0100
1000
,
0100
1000
0001
1000
0010
0100
0001
0100
,
0010
0100
0001
0000
0100
1000
0100
0010
,
0001
0100
0001
0100
0010
0100
0010
1000
,
0010
1000
0000
0010
0000
1000
0100
0000
,
0001
0000
0010
0100
0000
0010
0000
1000
0100
0000
1000
0000
0010
0000
1000
0000
,
0100
0010
0100
0000
0100
0000
0010
0000
0001
0000
1000
0000
0100
0000
1000
0000
,
0010
0000
0100
0001
0000
0010
0000
1000
0001
0000
0010
0000
0001
0000
1000
0000
,
0010
0100
0001
0010
0100
1000
0100
0010
,
0001
0000
0100
0010
0000
1000
0000
1000
0010
0000
1000
0000
0100
0000
0010
0000
,
0100
0010
0100
0000
0100
0000
1000
0000
0001
0000
1000
0000
0100
0000
0010
0000
,
0001
0000
0010
0001
0000
0100
0000
0100
0010
0000
1000
0000
0010
0000
1000
0000
,
0010
0100
0001
0010
0100
0010
0001
0010
,
0001
0000
1000
0010
0000
0100
1000
0000
0010
1000
0000
0100
0001
0000
0010
0000
,
0001
0010
0100
0010
0100
1000
0100
1000
,
0010
0000
0100
0001
0000
0010
1000
0000
0010
0100
0000
0010
0001
0000
1000
0000
,
0001
0010
0100
0010
0100
1000
0001
0100
,
0001
0000
0100
0001
0000
0100
0010
0000
0100
1000
0000
1000
0010
0000
1000
0000
,
0010
0100
0001
0100
0010
0100
0001
0010
,
0100
0000
1000
0100
0000
0001
1000
0000
0001
0100
0000
0100
0001
0000
1000
0000
,
0100
0010
0001
1000
0100
0010
0001
0010
,
0001
0000
0010
0000
0100
1000
0000
0010
0100
0000
0010
0001
0000
0001
0010
0000
,
0001
0000
0010
0000
0100
1000
0000
0100
0001
0000
0100
0001
0000
0001
0100
0000
,
0010
0000
0100
0000
0001
0010
0000
1000
0001
0000
1000
0100
0000
0001
0100
0000
,
0010
0000
0100
0001
0000
0000
0100
0000
0010
0000
1000
0100
0000
0001
0010
0000
,
0100
0000
0010
0000
0001
1000
0000
1000
0100
0000
1000
0001
0000
0001
1000
0000
,
0010
0000
0100
0000
0001
1000
0000
0100
0010
0000
0100
0010
0000
0010
1000
0000
,
0100
0000
1000
0000
0010
1000
0000
1000
0010
0000
0100
0001
0000
0001
0010
0000
,
0001
0000
0000
0001
0000
0000
1000
0000
0100
0000
0000
0010
0000
0000
0010
0000
,
1000
0000
0010
0000
0100
0001
0000
0010
0100
0000
0010
1000
0000
1000
0010
0000
,
1000
0000
0010
0000
0100
0001
0000
0100
1000
0000
0100
1000
0000
1000
0100
0000
,
0010
0000
0100
0000
1000
0010
0000
0001
1000
0000
0001
0100
0000
1000
0100
0000
,
0010
0000
0100
1000
0000
0000
0100
0000
0010
0000
0001
0100
0000
1000
0010
0000
,
0100
0000
0010
0000
1000
0001
0000
0001
0100
0000
0001
1000
0000
1000
0001
0000
,
0010
0000
0100
0000
1000
0001
0000
0100
0010
0000
0100
0010
0000
0010
0001
0000
,
0100
0000
0001
0000
0010
0001
0000
0001
0010
0000
0100
1000
0000
1000
0010
0000
,
1000
0000
0000
1000
0000
0000
0001
0000
0100
0000
0000
0010
0000
0000
0010
0000
,
0010
1000
0010
0000
0100
1000
0001
0000
,
0001
0100
0001
0000
0010
1000
0010
0000
,
0001
0100
0001
0000
0001
1000
0100
0000
,
0100
1000
0010
0000
0010
0100
0010
0000
,
0001
1000
0001
0000
0100
0010
0001
0000
,
0001
0010
0100
0000
0100
1000
0100
0000
,
0001
0010
0001
0000
0100
1000
0010
0000
,
0010
0100
0010
0000
0001
0100
0010
0000
,
0200
0000
0000
0000
,
0300
0000
0000
0000
;
