#VERSION:0.83;
#TITLE:NUMBER ONE;
#ARTIST:FASTWAY;
#GENRE:EUROBEAT;
#MUSIC:Number One.ogg;
#BANNER:NUMBER ONE-bn.png;
#BACKGROUND:NUMBER ONE-bg.png;
#CDTITLE:./CDTITLES/Para Para Paradise 2ndMIX.PNG;
#SAMPLESTART:43.997;
#SAMPLELENGTH:15;
#OFFSET:-0.059;
#BPMS:0=158.065;

//--------------- dance-single - B. M'Rey ----------------
#NOTEDATA:;
#STEPSTYPE:dance-single;
#DESCRIPTION:B. M'Rey;
#DIFFICULTY:Beginner;
#METER:3;
#RADARVALUES:0,0,0,0,0;
#NOTES:
0000
0000
0000
0000
,
0000
0000
0000
0000
,
0000
0000
0000
0000
,
0000
0000
0000
0000
,
0000
0000
0000
0000
,
0001
0000
1000
0000
,
0010
0000
0100
0000
,
0010
0000
1000
0000
,
0001
0001
1000
1000
,
0010
0000
0100
0000
,
0010
0000
0001
0000
,
1000
0000
0010
0000
,
0100
0100
0010
0000
,
0001
0000
1000
0000
,
0010
0000
0100
0110
,
0001
0000
0010
0000
,
1000
0100
1000
0000
,
0010
0000
0100
0000
,
0010
0000
0001
0101
,
0010
0000
1000
0000
,
0010
0000
0000
0000
,
0100
0000
0010
0000
,
1000
1000
0001
0001
,
0010
0000
0001
0000
,
0100
0100
0010
0000
,
0010
0000
1000
0000
,
0010
0010
0100
0100
,
0000
0001
0000
0010
,
1000
0010
0001
1001
,
0010
0000
0100
0000
,
0001
0001
0001
0000
,
1000
0000
0010
0000
,
0100
0100
0100
0000
,
1000
0000
0010
0000
,
0010
0010
0010
0000
,
0100
0000
0001
0000
,
1000
1000
1000
0000
,
1000
0000
0001
0000
,
1000
1000
1000
0000
,
0010
0000
0100
0000
,
0001
0001
0001
0000
,
0001
0000
1000
0000
,
0010
0010
0010
0000
,
0100
0000
0001
0000
,
0100
0100
0100
0000
,
0010
0010
0000
0000
,
1000
0000
0001
0000
,
0010
0000
0001
0000
,
0100
0000
0010
0000
,
1000
1000
0001
0001
,
0010
0000
0100
0000
,
0010
0000
0001
0000
,
1000
0000
0010
0000
,
0100
0100
1000
0000
,
1001
0000
0000
0000
;

//--------------- dance-single - B. M'Rey ----------------
#NOTEDATA:;
#STEPSTYPE:dance-single;
#DESCRIPTION:B. M'Rey;
#DIFFICULTY:Easy;
#METER:7;
#RADARVALUES:0,0,0,0,0;
#NOTES:
0000
0000
0000
0000
,
0000
0000
0000
0000
,
0000
0000
0000
0000
,
0000
0000
0000
0000
,
0000
0000
0000
0000
,
0010
0100
0001
0000
,
1000
0100
0001
0000
,
0100
0010
0001
0000
,
0001
0100
0010
1000
,
0100
0010
0001
0000
,
0010
1000
0001
0000
,
0010
1000
0100
0000
,
0001
0010
0100
0000
,
0100
0010
0001
0100
,
0001
0010
0100
0110
,
0100
1000
0010
0100
,
0010
0000
0000
0001
0000
0000
1000
0000
,
0001
0100
0010
0100
,
0001
0010
0100
1010
,
0010
0100
0001
0010
,
2200
0000
0000
3300
0022
0000
0000
0033
,
0100
1000
0010
0100
,
0001
0010
0001
0100
,
0010
0000
0001
0000
,
0001
1000
0010
0000
,
0001
0100
0010
0100
,
0010
1000
0010
0100
,
0001
0000
0100
0000
,
0001
1000
0100
1001
,
0010
0100
0001
0100
,
0010
0000
0000
0010
0000
0000
0010
0000
0000
0000
0000
0000
0010
0000
0000
0000
,
0100
0010
0100
1000
,
0100
0000
0000
0100
0000
0000
0100
0000
0000
0000
0000
0000
1000
0000
0000
0000
,
0100
0010
0001
0100
,
0001
0000
0000
0001
0000
0000
0001
0000
0000
0000
0000
0000
0100
0000
0000
0000
,
0001
0010
0100
0010
,
1000
0000
0000
1000
0000
0000
1000
0000
0000
0000
0000
0000
0100
0000
0000
0000
,
0001
1000
0010
1000
,
0100
0000
0000
0010
0000
0000
0100
0000
0000
0000
0000
0000
1000
0000
0000
0000
,
0001
0100
0001
0010
,
0001
0000
0000
1000
0000
0000
0001
0000
0000
0000
0000
0000
0100
0000
0000
0000
,
0001
0010
0100
1000
,
0010
0000
0000
0001
0000
0000
0010
0000
0000
0000
0000
0000
0100
0000
0000
0000
,
0001
0010
0100
1000
,
0100
0000
0000
1000
0000
0000
0100
0000
0000
0000
0000
0000
0010
0000
0000
0000
,
0001
0000
0000
0010
0000
0000
1000
0000
0000
0000
0000
0000
0000
0000
0000
0000
,
0001
0100
0001
0000
,
0001
0010
0100
0000
,
0001
1000
0010
0000
,
0010
1000
0100
0010
,
0001
1000
0010
0000
,
0100
1000
0100
0000
,
0001
0010
0100
0000
,
0010
0100
0001
1000
,
1001
0000
0000
0000
;

//--------------- dance-single - B. M'Rey ----------------
#NOTEDATA:;
#STEPSTYPE:dance-single;
#DESCRIPTION:B. M'Rey;
#DIFFICULTY:Medium;
#METER:10;
#RADARVALUES:0,0,0,0,0;
#NOTES:
0000
0000
0000
0000
,
0000
0000
0000
0000
,
0000
0000
0000
0000
,
0000
0000
0000
0000
,
0000
0000
0000
1001
,
0100
0010
0001
0000
0001
1000
0010
0000
,
0010
1000
0100
0000
0001
1000
0001
0000
,
0001
0010
0100
0000
0100
1000
0001
0000
,
0001
0100
1000
0010
,
0010
1000
0001
0000
0010
1000
0100
0000
,
0100
1000
0100
0000
0001
0100
0010
0000
,
0100
1000
0100
0000
0100
0010
0001
0000
,
0010
0000
0001
0000
1000
0000
0001
0100
,
0010
0000
0010
0000
0001
0100
0000
1000
,
0000
0010
0100
1000
0010
0000
0101
0000
,
0010
1000
0100
0000
0010
0000
0010
0100
,
0010
1000
0000
0001
0000
0100
0000
1000
,
0100
0000
0100
0000
0001
0100
0000
1000
,
0000
0100
0010
0100
0010
0000
1001
0000
,
0010
1000
0001
0000
0001
0010
0000
1000
,
0010
1000
0001
1010
,
0100
0010
0001
1000
0001
0000
0001
1000
,
0100
1000
0010
1000
0000
0010
0000
0001
,
0000
0100
0001
0010
0100
0000
0100
0000
,
0001
0100
0001
0010
0100
0000
0100
0010
,
0000
1000
0100
0010
0001
0010
0100
0010
,
0001
0100
0010
0100
0000
0100
0001
0000
,
0001
0010
0001
1000
0010
0100
0000
1000
,
0000
0100
0001
1000
0001
0000
1000
0000
,
0100
1000
0001
0000
0010
1000
0100
0000
,
0100
0000
0000
0001
0000
0000
0100
0000
0000
0000
1000
0000
0010
0000
0100
0000
,
0010
0000
0010
1000
0100
0000
0100
0010
,
0100
0000
0000
0010
0000
0000
1000
0000
0000
0000
0100
0000
0001
0000
0000
0000
,
0100
0010
0001
0000
0001
1000
0100
0000
,
0100
0000
0000
0010
0000
0000
1000
0000
0000
0000
1000
0000
0100
0000
0010
0000
,
0100
0000
0001
0100
0010
0000
0100
1000
,
0010
0000
0000
0100
0000
0000
1000
0000
0000
0000
1000
0000
0010
0000
0000
0000
,
0001
0010
0001
0000
0100
1000
0100
0000
,
0100
0000
0000
1000
0000
0000
0100
0000
0000
0000
0100
0000
0001
0000
0010
0000
,
0001
0000
0100
1000
0100
0000
0010
0100
,
0001
0000
0000
0010
0000
0000
1000
0000
0000
0000
0010
0000
0100
0000
0000
0000
,
0001
1000
0100
0000
0100
1000
0010
0000
,
0001
0000
0000
1000
0000
0000
0100
0000
0000
0000
0100
0000
0010
0000
0100
0000
,
0010
0000
0100
1000
0010
0000
0001
0100
,
0010
0000
0000
0100
0000
0000
1000
0000
0010
0000
0100
0000
0001
0000
0010
0000
,
0100
0000
0000
0010
0000
0000
1000
0000
0000
0000
0000
0000
0000
0000
0000
0000
,
0100
0010
0001
0000
0100
1000
0010
0000
,
0001
0100
0001
0000
0001
0010
0100
0000
,
0001
0100
0010
0000
0010
1000
0100
0000
,
0001
0010
0100
1000
,
0010
0100
0010
0000
0010
1000
0100
0000
,
0001
1000
0100
0000
0100
0010
0001
0000
,
0001
0100
0010
0000
0001
1000
0100
0000
,
0001
0100
0001
0200
0000
0310
0001
1000
,
0010
0000
0000
0000
;

//--------------- dance-single - B. M'Rey ----------------
#NOTEDATA:;
#STEPSTYPE:dance-single;
#DESCRIPTION:B. M'Rey;
#DIFFICULTY:Hard;
#METER:13;
#RADARVALUES:0,0,0,0,0;
#NOTES:
0000
0000
0000
0000
,
0000
0000
0000
0000
,
0000
0000
0000
0000
,
0000
0000
0000
0000
,
1001
0000
0000
0000
,
0001
0000
1000
0000
0001
1000
0000
0010
0000
0001
0000
0010
0100
0000
0010
0000
,
0100
0000
0010
0000
0001
0100
0000
0001
0000
0010
0100
0000
0001
0000
1000
0000
,
0010
0000
0100
0000
0010
0100
0000
0010
0000
1000
0000
0001
0010
0000
1000
0000
,
0001
0100
0010
1000
0010
1000
0010
0100
,
0001
0000
0100
0000
0001
0100
0000
0010
0000
1000
0000
0001
0010
0000
0100
0000
,
0001
0000
0100
0000
0001
1000
0000
0100
0000
1000
0000
0010
0001
0000
1000
0000
,
0001
0000
0100
0000
0001
0100
0000
0010
0000
0100
0001
0000
0010
0000
1000
0000
,
0010
0000
1000
0000
0001
0000
0000
0100
0000
0000
0010
0000
1000
0000
0010
0000
,
1000
0000
1100
0000
0010
0100
0000
0001
,
1000
0100
0010
0001
1000
0001
0010
0000
,
0100
0001
0010
0000
1000
0001
0100
0010
,
0100
0000
0010
1000
0000
0010
0000
0100
,
0010
0000
0110
0000
0100
0001
0010
0000
,
1000
0010
1000
0010
0100
0001
0000
0001
,
0010
0100
1000
0100
0010
0001
0000
0001
,
0100
0000
0000
0001
0000
0000
0100
0000
1000
0000
0000
0000
1000
0000
0010
0000
,
0100
0001
0010
0001
0100
0001
1000
0100
,
1000
0010
0100
0001
0000
0010
0000
0100
,
0010
0001
1000
0100
0010
0100
0010
0100
,
0001
0100
0001
1000
,
0010
0001
0010
0100
0010
0001
1000
0010
,
0100
0010
1000
0010
0000
0100
0010
0000
,
0010
0100
0010
0100
1000
0010
0000
0001
,
0000
0100
1000
0100
0010
0000
0001
0000
,
0001
1000
0001
0100
0001
0100
0010
0100
,
1010
0000
0000
1010
0000
0000
1001
0000
0000
0000
1000
0000
0001
0000
0100
0010
,
0000
0000
0100
0000
0010
0000
0100
0001
0000
0000
1000
0000
0001
0000
1000
0000
,
1010
0000
0000
0110
0000
0000
0110
0000
0000
0000
1000
0000
0001
0000
1000
0000
,
0001
1000
0010
0100
0001
0100
0001
1000
,
0101
0000
0000
0110
0000
0000
0110
0000
0000
0000
0100
0000
0001
0000
0010
0001
,
0000
0000
0010
0000
0001
0000
1000
0010
0000
0000
1000
0000
0100
0000
1000
0000
,
0110
0000
0000
0011
0000
0000
0011
0000
0000
0000
0010
0000
0001
0000
0100
0000
,
0010
1000
0010
1000
0010
0100
0001
0010
,
0110
0000
0000
1100
0000
0000
1100
0000
0000
0000
1000
0000
0001
0000
1000
0001
,
0000
0000
0010
0000
0001
0000
0100
0010
0000
0000
0100
0000
0001
0000
1000
0000
,
0011
0000
0000
0011
0000
0000
0110
0000
0000
0000
0010
0000
0001
0000
1000
0000
,
0001
1000
0001
0100
0010
0100
0010
0100
,
1001
0000
0000
1001
0000
0000
1001
0000
0000
0000
0100
0000
0010
0000
0100
0010
,
0000
0000
0100
0000
0001
0000
1000
0100
0000
0000
1000
0000
0100
0000
1000
0000
,
0011
0000
0000
0011
0000
0000
0010
0000
0001
0000
1000
0000
0010
0000
0100
0000
,
0010
0000
0000
0001
0000
0000
0100
0000
0000
0000
0000
0000
0000
0000
0000
0000
,
0001
0000
1000
0000
0001
1000
0000
0010
0000
0001
0000
0010
0100
0000
0010
0000
,
0100
0000
0010
0000
0001
0100
0000
0001
0000
0010
0100
0000
0001
0000
1000
0000
,
0010
0000
0100
0000
0010
0100
0000
0010
0000
1000
0000
0001
0010
0000
1000
0000
,
0001
0100
0010
1000
0010
1000
0010
0100
,
0001
0000
0100
0000
0001
0100
0000
0010
0000
1000
0000
0001
0010
0000
0100
0000
,
0001
0000
0100
0000
0001
1000
0000
0100
0000
1000
0000
0010
0001
0000
1000
0000
,
0001
0000
0100
0000
0001
0100
0000
0010
0000
0100
0001
0000
0010
0000
1000
0000
,
0010
0000
1000
0000
0001
0000
0000
0100
0000
0000
0110
0000
0000
0101
0000
0000
,
0110
0000
0000
0000
;
