#VERSION:0.83;
#TITLE:Moltov ~Dark House Mix~;
#ARTIST:Stealingvision;
#GENRE:DARK HOUSE;
#MUSIC:Moltov ~Dark House Mix~.ogg;
#BANNER:Moltov ~Dark House Mix~-bn.png;
#BACKGROUND:Moltov ~Dark House Mix~-bg.png;
#CDTITLE:./CDTITLES/DANCE DANCE REVOLUTION EXTREME 3.PNG;
#SAMPLESTART:87.3;
#SAMPLELENGTH:15;
#OFFSET:-0.027;
#BPMS:0=132,128=66,144=132,240=66;

//--------------- dance-single - B. M'Rey ----------------
#NOTEDATA:;
#STEPSTYPE:dance-single;
#DESCRIPTION:B. M'Rey;
#DIFFICULTY:Beginner;
#METER:3;
#RADARVALUES:0,0,0,0,0;
#NOTES:
0000
0000
0000
0000
,
0000
0000
0000
0000
,
0000
0000
0000
0000
,
0000
0000
0000
0000
,
1000
0000
0000
0000
,
0010
0000
0000
0000
,
0100
0000
0000
0000
,
0001
0000
0000
0000
,
0010
0000
0000
0000
,
0100
0000
0000
0000
,
0001
0000
0000
0000
,
1000
0000
0000
0000
,
0100
0000
0100
0000
,
0010
0000
0010
0000
,
0001
0000
0000
0000
,
0000
0000
0000
0000
,
1000
0000
0010
0000
,
0100
0000
0010
0000
,
0100
0000
0001
0000
,
0010
0000
0001
0000
,
0100
0000
0010
0000
,
1000
0000
0100
0000
,
1000
0000
0010
0000
,
0100
0000
0001
0000
,
0010
0000
0001
0000
,
0100
0000
0010
0000
,
1000
0000
0100
0000
,
1000
0000
0010
0000
,
0100
0000
0010
0000
,
0001
0000
0010
0000
,
0001
0000
1000
0000
,
0010
0000
0100
0000
,
0010
0000
0000
0000
,
1000
0000
0000
0000
,
0001
0000
0000
0000
,
0100
0000
0000
0000
,
0010
0000
0010
0000
,
0100
0000
0100
0000
,
0001
0000
0001
0000
,
1000
0000
1000
0000
,
0100
0000
0100
0000
,
0010
0000
0010
0000
,
0001
0000
0001
0000
,
1000
0000
1000
0000
,
1001
0000
0010
0000
,
0100
0000
0010
0000
,
0001
0000
1000
0000
,
0010
0000
1000
0000
,
0100
0000
1000
0000
,
0001
0000
0010
0000
,
0001
0000
0100
0000
,
0010
0000
1000
0000
,
0100
0000
1000
0000
,
0001
0000
0010
0000
,
0001
0000
0100
0000
,
0010
0000
0100
0000
,
0001
0000
0010
0000
,
1000
0000
0010
0000
,
0100
0000
0001
0000
,
0010
0000
0001
0000
,
2002
0000
0000
0000
,
0000
0000
0000
0000
,
0000
0000
0000
0000
,
0000
0000
0000
0000
,
3003
0000
0000
0000
;

//--------------- dance-single - B. M'Rey ----------------
#NOTEDATA:;
#STEPSTYPE:dance-single;
#DESCRIPTION:B. M'Rey;
#DIFFICULTY:Easy;
#METER:5;
#RADARVALUES:0,0,0,0,0;
#NOTES:
0000
0000
0000
0000
,
0000
0000
0000
0000
,
0000
0000
0000
0000
,
0000
0000
0000
0000
,
1000
0000
0010
0000
,
0100
0000
0010
0000
,
0100
0000
0001
0000
,
0010
0000
1000
0000
,
0100
0100
0010
0000
,
0100
0100
0001
0000
,
1000
1000
0000
0010
,
0100
0100
0000
0001
,
0010
0010
0000
0100
,
0010
0010
0000
0000
,
0001
0000
1000
0000
,
0010
0000
0100
0010
,
0110
0010
0100
0010
,
0001
0100
0010
1000
,
0100
0010
0001
0100
,
0010
0100
0010
1000
,
0100
1000
0100
0010
,
0001
0100
0001
0010
,
0001
0010
0100
0010
,
0001
1000
0100
0010
,
0001
0100
0001
0010
,
0001
0100
0001
0010
,
0100
1000
0001
0010
,
0001
0100
0010
0100
,
0001
0010
0001
0010
,
0100
1000
0010
0100
,
0010
1000
0100
1000
,
0100
1000
0010
1000
,
0100
0000
0010
0000
,
0001
0000
0010
0000
,
1000
0000
0001
0000
,
0100
0000
0000
1000
,
0001
0010
0100
0010
,
0001
1000
0001
0100
,
0001
0010
0100
1000
,
0001
0010
0100
0010
,
0001
1000
0001
1000
,
0001
1000
0001
0010
,
0001
0000
0010
0000
,
0001
0000
0001
0100
,
0010
0100
0010
1000
,
0100
0010
0001
0100
,
0010
1000
0100
1000
,
0010
0100
0010
1000
,
0100
0010
0001
0100
,
0010
0100
0010
0100
,
0010
0100
0001
0010
,
0001
1000
0100
0010
,
0100
0010
0001
0100
,
0010
0100
0001
1000
,
0001
0010
0001
1000
,
0001
0100
0001
0100
,
0010
1000
0100
0010
,
0100
0010
0001
0010
,
0100
0010
0001
0010
,
0100
1000
0010
0100
,
2002
0000
0000
0000
,
0000
0000
0000
0000
,
0000
0000
0000
0000
,
0000
0000
0000
0000
,
3003
0000
0000
0000
;

//--------------- dance-single - B. M'Rey ----------------
#NOTEDATA:;
#STEPSTYPE:dance-single;
#DESCRIPTION:B. M'Rey;
#DIFFICULTY:Medium;
#METER:8;
#RADARVALUES:0,0,0,0,0;
#NOTES:
0000
0000
0000
0000
,
0000
0000
0000
0000
,
0000
0000
0000
0000
,
0000
0000
0000
0000
,
0001
1000
0001
1000
,
0001
1000
0100
1000
,
0001
1000
0001
0010
,
0001
0010
0001
0010
,
0100
0010
0100
0010
,
0100
1000
0100
1000
,
0100
0010
0001
0010
,
0001
0100
0001
0100
,
0001
0100
0001
0010
,
0100
1000
0100
0010
,
0100
0000
0100
0000
,
0100
0000
0010
1000
,
1001
0010
1000
0000
0010
0000
1000
0000
,
0100
0001
1000
0000
0100
0000
0010
0000
,
0100
1000
0010
0000
0100
0000
0010
0000
,
0100
0001
1000
0000
0001
0010
1000
0000
,
0001
0100
1000
0000
0001
0000
0010
0000
,
0001
1000
0010
0000
0001
0000
0010
0000
,
0100
0001
0010
0000
0100
0000
0010
0000
,
0100
0010
1000
0000
0100
0001
1000
0000
,
0100
0010
1000
0000
0001
0000
1000
0000
,
0001
0010
1000
0000
0001
0000
0010
0000
,
0001
1000
0010
0000
0001
0000
1000
0000
,
0100
0001
1000
0000
0100
0010
1000
0000
,
0100
0001
1000
0000
0010
0000
0100
0000
,
0010
1000
0100
0000
0010
0000
0100
0000
,
0010
0001
1000
0000
0010
0000
1000
0000
,
0001
1000
0010
0000
0001
1000
0010
0000
,
0210
0320
0032
0203
,
0320
2030
3200
0320
,
0032
0203
0320
2030
,
3200
0320
0230
0320
,
0031
0010
0100
0000
0001
0000
1000
0100
,
0001
0000
1000
0010
0100
0000
1000
0001
,
0100
0000
0010
1000
0100
0000
0010
0001
,
0100
0000
0010
0001
0100
0000
1000
0010
,
0001
0000
1000
0100
0001
0000
1000
0001
,
0010
0000
1000
0100
0010
0000
1000
0001
,
0010
0100
0010
0100
,
0010
0000
0100
0000
0001
1000
0100
0010
,
0001
1000
0010
0000
0001
0000
0010
0000
,
0100
0001
0010
0000
0100
0000
0010
0000
,
0100
1000
0010
0000
0001
0000
0100
0000
,
0001
0010
0100
0000
0001
0010
0100
0000
,
0001
1000
0010
0000
0001
0000
0010
0000
,
0100
0001
0010
0000
0100
0000
0010
0000
,
0100
1000
0010
0000
0001
0000
1000
0000
,
0001
0010
1000
0000
0010
0100
1000
0000
,
0001
1000
0010
0000
0001
0000
0010
0000
,
0001
0100
0010
0000
0001
0000
0100
0000
,
0001
0010
0100
0000
0010
0000
0100
0000
,
0010
1000
0100
0000
0010
0001
1000
0000
,
0010
0100
1000
0000
0010
0000
1000
0000
,
0001
0010
1000
0000
0001
0000
1000
0000
,
0001
1000
0100
0000
0001
0000
0100
0000
,
0001
0010
0100
0000
0010
1000
0100
0000
,
0010
1000
0010
1000
,
0010
0100
0010
0100
,
0001
1000
0001
1000
,
0001
1000
0001
0100
,
0001
0000
0000
0000
;

//--------------- dance-single - B. M'Rey ----------------
#NOTEDATA:;
#STEPSTYPE:dance-single;
#DESCRIPTION:B. M'Rey;
#DIFFICULTY:Hard;
#METER:11;
#RADARVALUES:0,0,0,0,0;
#NOTES:
0000
0000
0000
0000
,
0000
0000
0000
0000
,
0000
0000
0000
0000
,
0000
0000
0000
0000
,
0001
0010
0001
0000
0001
0000
0010
0000
,
0001
1000
0100
1000
,
0100
1000
0100
0000
0001
0000
0010
0000
,
0100
1000
0010
0100
,
0010
1000
0001
0000
0100
1000
0001
0000
,
0001
0010
0001
0000
0010
1000
0100
0000
,
0001
0010
0001
0000
0010
1000
0001
0000
,
0010
0100
0010
0000
0001
0010
0001
0000
,
0001
0100
0010
0000
0100
0010
0001
0000
,
0010
0100
0010
0000
0001
0010
0100
0000
,
1000
0000
0001
0000
,
0100
0000
0010
0100
,
0001
1000
0001
1000
0010
1000
0010
1000
,
0100
1000
0100
0010
0100
0010
0100
0010
,
0100
1000
0001
1000
0001
1000
0001
1000
,
0010
1000
0010
0100
0010
0100
0010
0100
,
0010
1000
0001
1000
0001
0010
0001
0010
,
0001
0010
0001
0100
0010
1000
0010
1000
,
0010
1000
0010
0100
0001
0100
0001
0100
,
0001
0100
0010
0100
0010
1000
0010
1000
,
0010
1000
0010
0100
0001
0100
0001
0100
,
0001
0100
0010
0100
0010
1000
0010
1000
,
0010
0100
0010
0100
0001
0100
0001
0100
,
0001
0100
0010
1000
0010
1000
0010
0100
,
0010
0100
0010
0100
0001
1000
0010
1000
,
0100
1000
0001
1000
0001
0100
0001
0100
,
0001
0100
0001
1000
0100
1000
0100
1000
,
0010
0000
0001
0000
0001
0100
0001
0100
,
0101
0001
1000
0001
0010
0000
0010
0001
0010
0000
0100
0010
0100
0000
0100
0001
,
1000
0000
1000
0100
1000
0000
1000
0100
1000
0000
0100
0010
1000
0000
1000
0010
,
1000
0000
0100
0001
0100
0000
0100
0001
0100
0000
0100
0010
1000
0000
1000
0010
,
1000
0000
0100
0001
0100
0000
0100
0001
0100
0000
0100
0010
1000
0000
1000
0010
,
0001
0000
0010
0000
0100
1000
0000
1000
0010
0000
1000
0000
0010
0100
0000
0100
,
0010
0000
0100
0000
0001
0010
0000
0010
0100
0000
1000
0000
0100
1000
0000
1000
,
0100
0000
1000
0000
0100
0010
0000
0010
0100
0000
1000
0000
0001
0100
0000
0100
,
0001
0000
1000
0000
0010
0100
0000
0100
0010
0000
0100
0000
0010
0100
0000
0100
,
0010
0000
1000
0000
0001
0010
0000
0010
0100
0000
1000
0000
0100
0010
0000
0010
,
0100
0000
0010
0000
0100
1000
0000
1000
0100
0000
1000
0000
0001
0010
0000
0010
,
0100
1000
0100
0000
1000
0000
0010
0000
,
1000
0000
0010
0000
0010
1000
0010
1000
,
0001
1000
0001
1000
0100
1000
0100
1000
,
0100
1000
0001
0010
0100
0010
0100
0010
,
0001
0010
0001
0010
0100
1000
0001
0010
,
0100
0010
0100
0010
0100
0010
0001
0010
,
0001
1000
0010
1000
0010
1000
0010
0100
,
0010
1000
0010
1000
0100
1000
0100
1000
,
0100
1000
0010
0100
0010
0100
0010
0100
,
0010
1000
0010
1000
0001
1000
0001
0010
,
0001
0010
0001
0010
0001
1000
0010
1000
,
0010
1000
0010
0100
0001
0100
0001
1000
,
0001
1000
0001
0100
0001
0100
0010
0100
,
0010
0100
0010
0100
0001
1000
0010
1000
,
0010
1000
0010
1000
0001
1000
0100
0010
,
0100
0010
0100
0010
0001
0010
0001
0010
,
0001
0100
0001
0100
0001
0100
0010
1000
,
0001
0000
0100
0000
0100
1000
0001
1000
,
0110
0000
1000
0000
0001
1000
0010
0000
0010
1000
0010
0000
0001
0100
0010
0000
,
0010
0100
0001
0000
0001
1000
0100
0000
0100
1000
0010
0000
0010
0100
0010
0000
,
0010
1000
0010
0000
0001
1000
0001
0000
0010
0100
0010
0000
0010
0100
0010
0000
,
0010
0100
0001
0000
0001
0100
0001
0000
0001
0100
0001
0000
0100
1000
0100
0000
,
0010
0000
0000
0000
;

//--------------- dance-single - B. M'Rey ----------------
#NOTEDATA:;
#STEPSTYPE:dance-single;
#DESCRIPTION:B. M'Rey;
#DIFFICULTY:Challenge;
#METER:16;
#RADARVALUES:0,0,0,0,0;
#NOTES:
0000
0000
0000
0000
,
0000
0000
0000
0000
,
0000
0000
0000
0000
,
0000
0000
0000
0000
,
0001
0100
0001
0100
0001
0100
0001
1000
,
0001
1000
0100
0010
0100
0010
0100
0010
,
0100
1000
0100
1000
0001
1000
0010
1000
,
0010
1000
0010
0100
0010
0100
0010
1000
,
0010
0000
0100
0000
0001
1000
0000
0010
0001
0000
0100
0010
0000
0010
0100
0000
,
0001
1000
0000
1000
0001
0000
0010
0001
0000
0001
0100
0000
0010
0100
0000
0010
,
0001
0000
0010
0100
0000
0100
0010
0000
0001
0100
0000
1000
0100
0000
0100
1000
,
0000
1000
0100
0000
0100
0010
0000
0010
0100
0000
0001
0010
0000
0010
0100
0010
,
0100
1000
0010
0000
0010
1000
0000
0100
0001
0000
0001
0100
0000
0100
0001
0000
,
0100
1000
0000
1000
0100
0000
0001
0100
0000
0100
0001
0000
0001
0010
0000
0001
,
0010
1000
0001
1000
,
0100
0000
0010
0000
0001
0010
0001
0100
,
0001
1000
0001
1000
0001
1000
0001
0010
0001
0010
0100
0010
0001
1000
0100
1000
,
0010
1000
0001
1000
0001
0010
0100
0010
0100
0010
0100
0010
0100
0010
0001
1000
,
0001
1000
0010
1000
0010
1000
0010
1000
0010
0100
0010
0100
0001
0100
0001
0100
,
0001
0100
0001
1000
0001
0100
0010
0100
0010
0100
0010
0100
0010
0100
0001
1000
,
0100
0010
0100
1000
0100
1000
0100
1000
0100
1000
0010
1000
0010
0100
0010
0100
,
0010
0100
0010
0100
0001
0100
0001
0010
0001
0010
0001
1000
0001
1000
0100
1000
,
0100
1000
0001
1000
0001
0100
0001
0100
0001
0100
0010
0100
0010
0100
0010
1000
,
0010
1000
0010
1000
0100
1000
0100
1000
0100
0010
0100
0010
0100
0010
0001
0010
,
0001
0010
0001
1000
0001
0010
0001
0010
0100
0010
0100
1000
0001
1000
0001
1000
,
0001
0010
0001
0010
0001
0010
0100
0010
0100
0010
0100
1000
0100
1000
0100
1000
,
0010
1000
0001
1000
0001
0100
0001
0100
0001
0100
0001
0100
0010
0100
0010
1000
,
0010
1000
0010
1000
0010
1000
0001
1000
0100
0010
0100
0010
0001
0100
0001
0100
,
0010
0100
0010
0100
0010
0100
0010
1000
0010
1000
0001
1000
0001
1000
0001
1000
,
0001
0100
0001
0100
0010
0100
0010
0100
0001
1000
0001
0010
0001
0010
0001
0010
,
0001
0010
0100
0010
0100
1000
0100
1000
0010
1000
0100
0010
0100
1000
0010
1000
,
0100
0010
0100
0010
0100
1000
0100
1000
0100
1000
0010
1000
0010
0100
0010
0100
,
0001
1000
0001
1000
0001
0000
0010
0100
0010
0000
0001
1000
0100
0000
0100
0010
,
0100
0000
0010
1000
0010
0000
0001
0010
0001
0000
0100
0010
0100
0000
0100
1000
,
0001
0000
0001
0100
0001
0000
0010
0100
0010
0000
0010
1000
0001
0000
0100
0010
,
0100
0000
0100
1000
0001
0000
0010
0100
0010
0000
0001
0010
0001
0000
0001
1001
,
0110
0000
0100
0000
0010
1000
0000
0010
0100
0000
1000
0000
0100
0010
0000
0100
,
0001
0000
0001
0000
0010
0100
0000
0100
0001
0000
0010
0000
0001
0100
0000
0100
,
0010
0000
1000
0000
0100
1000
0000
0010
0001
0000
0100
0000
0010
0100
0000
1000
,
0010
0000
0100
0000
0001
0010
0000
0010
0100
0000
0001
0000
0001
1000
0000
0100
,
0010
1000
0010
1000
0010
0100
0000
0100
0001
0000
0010
1000
0010
1000
0000
0100
,
0001
0000
0010
0100
0010
1000
0000
1000
0010
0000
0001
0100
0001
0100
0000
1000
,
0010
0000
0010
0100
0001
0000
0000
0000
0010
0000
0000
0000
0001
0000
0000
0000
,
0010
0000
0001
0000
0100
0010
0100
1000
,
1000
0100
1000
0100
0010
0100
0010
0100
0010
0001
0010
0001
1000
0001
1000
0001
,
1000
0100
1000
0100
0010
0100
1000
0100
1000
0001
1000
0001
0100
0001
1000
0010
,
1000
0100
1000
0001
0100
0001
0100
0001
1000
0001
1000
0100
1000
0100
1000
0100
,
0010
0100
0010
0001
0010
0001
0010
0001
1000
0010
0100
0001
0100
0001
1000
0001
,
1000
0100
1000
0100
1000
0100
0010
0100
0010
0001
0010
0001
0010
0100
1000
0100
,
0010
0100
0010
0100
1000
0001
0010
0001
0010
0001
0010
0001
0100
0010
1000
0010
,
1000
0010
1000
0010
1000
0001
0010
0001
0100
0001
0100
0010
0100
0010
1000
0010
,
0100
0010
0100
0001
0100
0001
0100
0010
1000
0010
1000
0010
1000
0010
1000
0100
,
0010
0100
1000
0100
0010
0100
0010
0001
1000
0001
0100
0001
0010
0001
0010
0100
,
0010
0100
0010
0100
1000
0100
1000
0001
1000
0100
1000
0010
0100
0010
0100
0010
,
0100
0010
0100
0001
1000
0001
1000
0010
1000
0100
1000
0001
0010
0001
0010
0100
,
0010
0100
0010
0100
1000
0010
1000
0010
1000
0010
1000
0010
0100
0001
0100
0001
,
0100
0010
0100
0010
1000
0010
1000
0010
0100
0001
0100
0010
0100
0010
0100
0010
,
1000
0010
1000
0100
1000
0100
1000
0001
0010
0001
0010
0001
0010
0001
1000
0010
,
1000
0010
0100
0010
0100
0001
0100
0001
0100
0001
1000
0001
0100
0010
1000
0001
,
0100
0000
1000
0000
0010
0001
0100
0010
,
1001
1000
0001
0010
0100
1000
0010
0100
0001
1000
0100
0010
0001
1000
0010
0100
,
0001
1000
0010
0100
0001
1000
0100
0010
0001
1000
0010
0100
0001
1000
0010
0100
,
0001
0010
0100
1000
0010
0100
0001
1000
0010
0100
0001
1000
0010
0100
0001
1000
,
0100
0010
0001
1000
0100
0010
0001
0100
0010
1000
0100
0010
0001
1000
0010
0100
,
0001
0000
0000
0000
;
