#VERSION:0.83;
#TITLE:みずうみの記憶;
#ARTIST:Dormir;
#TITLETRANSLIT:Mizuumi no kioku;
#GENRE:FALSE MARCHEN;
#MUSIC:Mizuumi no kioku.ogg;
#BANNER:Mizuumi no kioku-bn.png;
#BACKGROUND:Mizuumi no kioku-BG.png;
#CDTITLE:./CDTITLES/Pop'n Music 16 PARTY.PNG;
#SAMPLESTART:56.887;
#SAMPLELENGTH:15;
#OFFSET:-7.016;
#BPMS:0=72.502,8=110,80=106,81.5=100,83=95.5,84=90.5,84.5=88.5,85=91,87.5=95,89.125=197,92.5=212,99=220,161=110,167=220,233=110,242=220,260=110,266=220;

//--------------- dance-single - B. M'Rey ----------------
#NOTEDATA:;
#STEPSTYPE:dance-single;
#DESCRIPTION:B. M'Rey;
#DIFFICULTY:Beginner;
#METER:2;
#RADARVALUES:0,0,0,0,0;
#NOTES:
0000
0000
0000
0000
,
0000
0000
0000
0000
,
1000
0000
0000
0001
,
0000
0000
0100
0000
,
0000
0010
0000
0000
,
1000
0000
0000
0100
,
0000
0000
0001
0000
,
0000
0100
0000
0000
,
0010
0000
0000
1000
,
0000
0000
0100
0000
,
0000
1000
0000
0000
,
0001
0000
0000
0100
,
0000
0000
0010
0000
,
0000
1000
0000
0000
,
0001
0000
0000
0010
,
0000
0000
0100
0000
,
0000
0000
0010
0000
0000
0010
0000
0000
,
0100
0000
0000
0100
0000
0000
0001
0000
,
0000
0001
0000
0000
1000
0000
0000
1000
,
0000
0010
0000
0000
,
0100
0000
0000
0000
,
0000
0000
0000
0000
,
0000
0001
0000
0000
,
0000
0000
0000
1000
,
0000
0000
0000
0000
,
0000
0010
0000
0000
,
0100
0000
0000
0010
,
0000
0000
0000
0000
,
0000
0001
0000
0000
,
0000
0000
0000
1000
,
0000
0000
0000
0000
,
0000
0100
0000
0000
,
0000
0000
0000
0010
,
0000
0000
0000
0000
,
0000
0100
0000
0000
,
0001
0000
0000
1000
,
0000
0000
0010
0000
,
0000
0100
0000
0000
,
0001
0000
0000
0010
,
0000
0000
0100
0000
,
0000
1000
0000
0000
,
0000
0000
0000
0001
,
0000
0000
0010
0000
,
0000
0100
0000
0000
,
1000
0000
0000
0010
,
0000
0000
0000
0000
,
0000
0100
0000
0000
,
0001
0000
0000
1000
,
0000
0000
0010
0000
,
0000
0100
0000
0000
,
0010
0000
0000
1000
,
0000
0000
0000
0000
,
0000
0001
0000
0000
,
0000
0000
0000
0100
,
0000
0000
0010
0000
,
0000
1000
0000
0000
,
0100
0000
0000
0001
,
0000
0000
0010
0000
,
0000
0100
0000
0000
,
0010
0000
0000
0001
,
0000
0000
1000
0000
,
0000
0010
0000
0000
,
0100
0000
0000
0010
,
0000
0000
0001
0000
,
0000
1000
0000
0000
,
0010
0000
0000
0000
,
0000
0000
0100
0000
,
0000
0010
0000
0000
,
1000
0000
0000
1001
;

//--------------- dance-single - B. M'Rey ----------------
#NOTEDATA:;
#STEPSTYPE:dance-single;
#DESCRIPTION:B. M'Rey;
#DIFFICULTY:Easy;
#METER:4;
#RADARVALUES:0,0,0,0,0;
#NOTES:
0000
0000
0000
0000
,
0000
0000
0000
0000
,
1000
0000
0000
0100
0000
0000
0010
0000
,
0000
0001
0000
0000
0001
0000
0000
0000
,
0000
0100
0000
0000
,
0010
0000
0000
1000
,
0000
0001
0000
0000
0100
0000
0000
0010
,
0000
0000
1000
0000
0000
0100
0000
0000
,
0001
0000
0000
0100
0000
0000
0001
0000
,
0000
0100
0000
0000
0010
0000
0000
1000
,
0000
0000
0100
0000
0000
0010
0000
0000
,
1000
0000
0000
0100
0000
0000
1000
0000
,
0000
0010
0000
0000
0100
0000
0000
0010
,
0000
0000
0000
0000
0100
0000
0000
1000
,
0000
0000
0100
0000
0000
1000
0000
0000
,
0010
0000
0000
0001
0000
0000
0010
0000
,
0000
0001
0000
0000
0000
0100
0000
0000
,
0010
0000
0000
1000
0000
0000
0010
0000
,
0000
0100
0000
0000
0010
0000
0000
1000
,
0000
0000
0001
0000
0000
0100
0000
0000
,
0002
0000
0000
2000
,
0000
3003
0100
0010
,
1000
0010
0000
0000
,
0000
0100
0000
0001
,
0000
0000
0010
0000
,
0000
1000
0000
0000
,
0010
0000
0000
0200
,
0000
0000
0000
0000
,
0300
1001
0000
0100
,
0000
0010
0000
1000
,
0000
0000
0001
0000
,
0000
0010
0000
0000
,
0100
0000
0000
0010
,
0000
0000
1000
0000
,
0000
0001
0001
0000
,
1000
1000
0000
0010
,
0010
0000
0100
0100
,
0000
0010
0010
0000
,
1000
1000
0000
0001
,
0001
0000
0100
0100
,
0000
0000
0001
0000
0000
1000
0000
0000
,
0010
0000
0000
0100
0000
0000
0001
0000
,
0000
1000
1000
0100
,
0000
0110
0000
0001
,
1000
0000
0000
0010
,
0000
0000
0100
0000
,
1000
0010
0000
0000
,
0100
0000
0000
0001
,
0000
0000
0010
0000
,
0000
1000
0000
0000
,
0010
0000
0000
0200
,
0000
0000
0000
0000
,
0300
0101
0000
1000
,
0000
0010
0000
0100
,
0000
0000
0001
0000
,
0000
1000
0000
0000
,
0010
0000
0000
0100
,
0000
0000
0010
0000
,
0000
0200
0000
0000
,
0320
0000
0000
0032
,
0000
0000
1003
0000
,
0000
0001
0000
0000
,
0100
0000
0000
0010
,
0000
0000
1000
0000
,
0000
0010
0000
0000
,
0100
0000
0000
0001
,
0000
0000
0001
0000
,
0000
1000
0000
0000
,
0010
0000
0000
0110
;

//--------------- dance-single - B. M'Rey ----------------
#NOTEDATA:;
#STEPSTYPE:dance-single;
#DESCRIPTION:B. M'Rey;
#DIFFICULTY:Medium;
#METER:7;
#RADARVALUES:0,0,0,0,0;
#NOTES:
0000
0000
0000
0000
,
0000
0000
0000
0000
,
0001
0010
0000
1000
0100
0000
0010
0100
,
0000
1000
0000
0000
0010
0000
0000
0110
,
0000
0000
0001
0000
0000
0011
0000
0000
,
1000
0010
0100
0001
0100
0000
1010
0000
,
0100
0001
0000
0000
0010
0000
0100
1000
,
0000
0001
0100
0000
0010
1000
0000
0000
,
0100
0010
0000
0101
0000
0000
0001
1000
,
0000
0110
0000
0000
1000
0000
1000
0010
,
0000
0001
0100
0000
0010
1000
0000
0000
,
0100
0010
0100
0001
1000
0000
0010
0100
,
0010
1000
0100
0000
0001
0000
0000
0200
,
0000
0000
0000
1000
1000
1000
0010
0010
,
1000
1000
0010
0010
1000
1000
0000
0010
,
0010
0001
0001
0010
0010
0001
0001
0010
,
0010
0000
0301
0010
0000
1000
0100
0000
,
0010
0001
0000
0100
1000
0000
0010
0100
,
0000
0001
0100
0000
0010
1000
0000
0100
,
0010
0000
0001
1000
0010
0100
0001
0000
,
1000
0010
0100
0001
,
0010
0100
1001
0100
,
0010
1000
0000
0001
,
0000
0001
1000
0010
,
0000
0100
0010
1000
,
0100
0010
0000
1000
,
0001
0000
0010
0200
,
0000
0000
0000
0000
,
0300
0000
0001
0010
,
0000
1000
0100
0010
,
0000
1000
0000
0010
,
0100
0010
0000
0001
,
0010
0000
1000
0100
,
0000
0010
0100
0010
,
1000
0100
0000
0000
,
0001
0000
0000
0010
,
0000
0000
0100
0000
,
0000
1000
0000
0000
,
0100
0000
0000
0010
,
0000
0000
0001
0000
,
0000
0000
1000
0000
0000
0001
0000
0000
,
0100
0000
0000
0010
0000
0000
1000
0000
,
0100
1000
0000
0010
,
0000
0100
0010
0100
,
0001
0000
0000
0010
,
0100
0010
0000
0001
,
1000
0010
0000
0100
,
0000
0001
0010
1000
,
0000
0010
0100
0000
,
0001
0010
0000
1000
,
0100
1000
0010
0200
,
0000
0000
0000
0000
,
0300
0000
0001
1000
,
0010
1000
0010
0100
,
0000
0010
0000
0001
,
0010
0001
0000
1000
,
0100
0000
0010
0100
,
0000
0001
0010
0000
,
1000
0000
0100
0000
0000
0010
0000
0000
,
0100
0000
0000
0010
0000
0000
0100
0000
,
0000
0010
0000
0000
0001
0000
1000
0000
,
0001
1000
0000
0000
,
0001
1000
0001
1000
,
0000
0000
0010
0100
,
0010
0100
0000
0000
,
0010
0000
0000
0100
0000
0000
0010
0000
,
0000
0100
0000
0000
0001
0000
1000
0000
,
0001
1000
0000
0000
,
0010
0000
0000
0110
;

//--------------- dance-single - B. M'Rey ----------------
#NOTEDATA:;
#STEPSTYPE:dance-single;
#DESCRIPTION:B. M'Rey;
#DIFFICULTY:Hard;
#METER:10;
#RADARVALUES:0,0,0,0,0;
#NOTES:
0000
0000
0000
0000
,
0000
0000
0000
0000
,
0100
0010
0001
0010
0001
0100
0001
0010
,
0100
1000
0000
0010
0100
1000
0000
0200
,
0000
0000
0301
0010
0000
0200
0000
0000
,
0301
1000
0100
1000
0010
0100
0010
0000
,
0100
1000
0000
0000
0010
1000
0010
0100
,
0010
1000
0001
0100
0001
1000
0000
0000
,
0010
0000
0100
0000
0000
0100
2000
0000
0000
0000
3010
0000
0100
0000
1000
0000
,
0000
0100
0020
0000
0000
0000
1030
0000
0001
0000
0010
0000
0100
0000
0010
0000
,
0100
1000
0010
0000
0010
1000
0000
0000
,
0100
0010
0100
0010
0100
1000
0010
0100
,
0001
1000
0010
1000
0001
0100
0001
0010
,
0002
0000
0003
0010
0100
0010
0100
0010
,
0100
0001
1000
0100
1000
0010
1000
0001
,
0100
0001
0100
0001
0010
0100
0010
0100
,
1000
0000
0100
0000
0010
0000
0000
1000
0001
0000
1000
0000
0010
0000
0100
0000
,
1001
0000
0000
0010
0100
0000
0001
0000
1000
0000
0100
0000
0001
0000
1000
0100
,
0010
0000
1001
0000
0001
0010
0100
0000
1001
0000
0010
0100
0010
0000
0110
0000
,
0100
0010
0100
0000
0010
0000
1000
0000
0010
0000
1000
0000
0100
0000
0000
0000
,
0001
1000
0010
0100
0001
0100
0010
1000
,
0100
0000
0010
0000
0100
0000
0000
0000
1001
0000
0100
0010
0100
0000
0001
0000
,
1000
0010
0100
0000
0010
0000
0001
0000
,
0100
0001
0100
0010
,
1000
0001
1000
0001
,
0010
0001
1000
0010
,
1000
0010
0100
0202
,
0000
0000
0000
0000
,
0303
0000
1000
0000
0100
0001
0100
0000
,
0010
1000
0100
0001
,
0010
0100
1000
0100
,
0010
0001
0010
0001
,
0010
0100
1000
0001
,
0100
0010
1000
0100
,
0010
0000
0100
0001
0100
0001
0100
0000
,
0010
1000
0010
1000
0010
0000
0100
0010
,
0100
0010
0100
0000
0001
0010
0001
0010
,
0001
0000
1000
0000
0100
0010
0100
0010
,
0100
0000
0001
0010
0100
0000
1000
0100
,
1000
0100
1000
0000
0100
0010
0100
0010
,
0100
0000
0001
1000
0010
0100
0000
0000
,
0001
1000
0100
0010
0000
0000
0001
0000
,
1000
0100
1000
0000
0010
0000
0100
0000
,
0010
0000
1001
0000
0001
0010
0001
0000
,
0110
1010
0110
0010
,
0001
0010
0001
0000
0100
0000
0010
0000
,
1000
0010
0100
0001
,
0010
0100
1000
0100
,
0010
0100
0010
0001
,
1000
0001
0100
0001
,
0100
0010
0100
0220
,
0000
0000
0000
0000
,
0330
0000
0001
0000
0001
1000
0010
0000
,
0100
1000
0100
0100
,
0010
0001
0010
0001
,
1000
0001
0100
0010
,
0100
0010
0100
0001
,
0010
0001
0010
0001
,
1000
0000
0020
0000
0000
0130
0000
0000
,
0002
0000
0000
1003
0000
0000
0020
0000
,
0000
0130
0000
0000
0001
0000
1000
0000
,
0001
1000
0001
0100
,
0010
0100
0010
0100
,
0001
1000
0001
0100
,
0001
0100
0010
0100
,
0010
0001
1000
0100
0000
0000
0010
1000
,
0100
0010
0000
0000
0001
0000
1000
0000
,
0001
1000
0001
0010
,
0100
0000
0100
1001
;
