#TITLE:Micro Dream;
#ARTIST:dj TAKA;
#GENRE:HAPPY;
#MUSIC:Micro Dream.ogg;
#BANNER:Micro Dream-bn.png;
#BACKGROUND:Micro Dream-bg.png;
#CDTITLE:./CDTITLES/DANCE DANCE REVOLUTION EXTREME 3.PNG;
#SAMPLESTART:14.473;
#SAMPLELENGTH:12;
#OFFSET:-0.073;
#BPMS:0=150;

//--------------- dance-single - B. M'Rey ----------------
#NOTES:
     dance-single:
     B. M'Rey:
     Beginner:
     2:
     0,0,0,0,0:
0000
0000
0000
0000
,
0000
0000
0000
0000
,
0000
0000
0000
0000
,
0000
0000
0000
0000
,
0000
0000
0000
0000
,
1000
0000
0010
0000
,
0100
0000
0010
0000
,
0001
0000
0010
0000
,
0000
0000
0000
0000
,
1000
1000
0000
0001
,
0000
0010
0000
0100
,
0000
0010
0000
0001
,
0000
1000
0001
1001
,
0100
0100
0000
0010
,
0000
1000
0000
0010
,
0000
0100
0000
0001
,
0000
0001
1000
0000
,
0020
0000
0200
0000
,
0330
0000
1000
0000
,
0010
0000
0100
0000
,
0010
0000
0001
0000
,
1000
0000
0010
0000
,
0001
0001
0000
1000
,
0000
0100
0000
0010
,
0000
0100
0000
1000
,
0000
0001
1000
1001
,
0010
0010
0000
0100
,
0000
0001
0000
0100
,
0000
0010
0000
1000
,
0000
1000
0001
0000
,
0200
0000
0020
0000
,
0330
0000
0000
0000
,
0001
0000
0000
0000
,
1000
0000
0000
0000
,
0010
0000
0000
0000
,
0100
0000
0100
0000
,
0010
0000
0000
0000
,
0001
0000
0000
0000
,
1000
0000
0000
0000
,
0100
0000
0100
0000
,
0010
0000
0000
0000
,
1000
0000
0000
0000
,
0001
0000
0000
0000
,
0100
0000
0000
0000
,
0110
0000
0000
0000
,
1000
0000
0000
0000
,
0110
0000
0000
0000
,
0000
0000
0000
0000
,
0011
0000
0000
0000
,
0000
0000
0000
0000
,
0110
0000
0000
0000
,
1010
0000
0000
0000
,
0110
0000
0100
0000
,
0100
0000
0100
0000
,
0010
0000
0010
0000
,
0001
0000
0001
0000
,
0100
0000
0100
0000
,
1000
0000
1000
0000
,
0020
0000
0000
0000
,
0000
0000
0000
0000
,
0200
0000
0000
0000
,
0000
0000
0000
0000
,
0330
0000
0000
0000
,
1000
0000
0100
0000
,
0020
0000
0000
0130
,
1000
1000
0000
0001
,
0000
0010
0000
0100
,
0000
0010
0000
0001
,
0000
1000
0001
1001
,
0100
0100
0000
0010
,
0000
1000
0000
0010
,
0000
0100
0000
0001
,
0000
0001
1000
0000
,
0001
0001
0000
1000
,
0000
0100
0000
0010
,
0000
0100
0000
1000
,
0000
0001
1000
1001
,
0010
0010
0000
0100
,
0000
0001
0000
0100
,
0000
0010
0000
1000
,
0000
1000
0001
0000
,
0200
0000
0020
0000
,
0330
0000
0000
0000
;

//--------------- dance-single - B. M'Rey ----------------
#NOTES:
     dance-single:
     B. M'Rey:
     Easy:
     5:
     0,0,0,0,0:
0000
0000
0000
0000
,
0000
0000
0000
0000
,
0000
0000
0000
0000
,
0000
0000
0000
0000
,
0000
0000
0000
0000
,
0001
0010
0001
0010
,
1000
0100
1000
0100
,
0010
0100
0010
0100
,
0001
0000
1000
0000
,
0010
0100
0010
0001
,
0010
0100
1000
0100
,
1000
0010
0100
0010
,
0100
0000
0001
0000
0010
0000
2002
3003
,
0010
0100
0010
1000
,
0100
1000
0100
0010
,
0100
0010
0001
0010
,
0001
0000
0010
0000
0100
0000
0220
0330
,
0020
0230
2300
3200
,
0310
0000
0001
0000
,
1000
0000
0100
0000
,
0010
0010
0001
0001
,
1000
1000
0010
0010
,
0100
0010
0100
0001
,
0100
0010
1000
0010
,
1000
0100
0010
0100
,
0010
0000
0001
0000
0100
0000
2002
3003
,
0100
0010
0100
1000
,
0010
1000
0010
0100
,
0010
0100
0001
0100
,
0001
0000
0100
0000
0010
0000
0220
0330
,
0200
0320
2030
3020
,
1130
0000
0000
0000
,
0010
0001
0100
0000
,
0010
1000
0001
0000
,
1000
0010
0100
0000
,
0001
0010
0100
0000
,
1000
0010
0100
0000
,
0001
0010
0100
0000
,
0010
1000
0100
0000
,
0010
0100
0010
0000
,
0001
0000
0000
0000
,
1000
0000
0000
0000
,
0010
0000
0000
0000
,
0100
0000
0000
0000
,
0110
0000
0001
0000
,
0010
0000
1000
0000
,
1010
0000
0010
0000
,
0100
0000
0010
0000
,
0011
0000
0100
0000
,
0010
0000
1000
0000
,
0110
0000
0001
0000
,
0101
0000
0010
0000
,
0110
0000
1010
0000
,
0110
0000
0101
0000
,
0001
0001
1000
1000
,
0010
0010
0100
0100
,
0001
0001
1000
1000
,
0010
0010
0100
0100
,
0001
0010
0001
0000
1000
0100
1000
0000
,
0001
0010
0001
0000
1000
0100
1000
0000
,
0020
0000
0000
0000
,
0200
0000
0000
0000
,
0330
0000
0001
0000
,
1000
0000
0010
0000
,
0100
0000
0010
0000
0100
0000
0220
0330
,
0010
0100
0010
0001
,
0010
0100
1000
0100
,
1000
0010
0100
0010
,
0100
0000
0001
0000
0010
0000
2002
3003
,
0010
0100
0010
1000
,
0100
1000
0100
0010
,
0100
0010
0001
0010
,
0001
0000
0010
0000
0100
0000
0220
0330
,
0100
0010
0100
0001
,
0100
0010
1000
0010
,
1000
0100
0010
0100
,
0010
0000
0001
0000
0100
0000
2002
3003
,
0100
0010
0100
1000
,
0010
1000
0010
0100
,
0010
0100
0001
0100
,
0001
0000
0100
0000
0010
0000
0220
0330
,
0200
0320
2030
3020
,
0130
0000
0000
0000
;

//--------------- dance-single - B. M'Rey ----------------
#NOTES:
     dance-single:
     B. M'Rey:
     Medium:
     6:
     0,0,0,0,0:
0000
0000
0000
0000
,
0000
0000
0000
0000
,
0000
0000
0000
0000
,
0000
0000
0000
0000
,
0000
0000
0000
0000
,
1000
0010
0100
0010
,
0001
0010
0001
0010
,
0100
1000
0100
1000
,
0010
0000
0100
0000
,
0001
0010
0001
0000
1000
0100
1000
0000
,
0010
0100
0010
0000
0001
0010
0001
0000
,
0010
0100
0010
0000
1000
0100
1000
0000
,
0010
0100
0001
1001
,
0010
0100
0010
0000
0001
0010
0001
0000
,
1000
0100
1000
0000
0010
0100
0010
0000
,
1000
0100
1000
0000
0001
0010
0001
0000
,
0100
0000
0010
1000
0010
0000
0100
0000
,
0002
0023
0230
2300
,
3010
0000
0100
0000
,
0001
0010
1000
0000
,
0100
0010
1000
0100
,
1000
0010
0100
0001
,
1000
0010
1000
0000
0001
0100
0001
0000
,
0010
0100
0010
0000
1000
0010
1000
0000
,
0010
0100
0010
0000
0001
0100
0001
0000
,
0010
0100
1000
0110
,
0010
0100
0010
0000
1000
0010
1000
0000
,
0001
0100
0001
0000
0010
0100
0010
0000
,
0001
0100
0001
0000
1000
0010
1000
0000
,
0100
0000
0010
0001
0010
0000
0100
0000
,
2000
3020
0230
0302
,
0013
0000
1000
0000
,
0010
0000
1000
0010
0100
0000
0010
0000
,
0001
0000
0100
0010
0001
0000
1000
0000
,
0010
0000
1000
0100
0001
0000
0010
0000
,
0100
1000
1000
0000
0100
0010
0010
0000
,
0001
0000
1000
0000
0010
0001
0100
0000
,
0010
0000
1000
0000
0001
0010
1000
0000
,
0100
0000
0010
0000
0001
0100
1000
0000
,
0010
0001
1000
0000
0100
0010
1000
0000
,
0010
0000
0100
0000
,
0001
0000
1000
0000
,
0100
0000
0001
0000
,
0010
0000
0100
0000
,
1001
0010
0100
0010
,
0001
0100
1000
0010
,
1010
0000
0010
0000
,
0100
0000
0000
0000
0001
0000
0000
1000
,
0001
0000
0010
0000
,
0100
0000
0000
0000
0010
0000
0000
0010
,
1000
0000
0000
0000
0100
0000
0000
0001
,
0100
0000
0000
0000
0010
0000
0000
1000
,
0100
0000
0000
0010
0100
0000
0000
0001
,
0100
0000
0000
1000
0010
0000
0000
0100
,
0001
0100
0010
1000
,
0010
0100
0010
0001
,
0010
0100
0010
1000
,
0001
1000
0010
0100
,
0001
0100
0001
0000
1000
0010
1000
0000
,
0001
1000
0001
0000
1000
0010
0100
0000
,
0001
0010
0100
0010
0100
1000
0100
1000
,
0020
0000
0200
0000
,
0330
0001
1000
0001
,
1000
0010
0100
0010
,
0001
1000
0010
1000
0010
1000
0200
0000
,
0301
0010
0001
0000
1000
0100
1000
0000
,
0010
0100
0010
0000
0001
0010
0001
0000
,
0010
0100
0010
0000
1000
0100
1000
0000
,
0010
0100
0001
1001
,
0010
0100
0010
0000
0001
0010
0001
0000
,
1000
0100
1000
0000
0010
0100
0010
0000
,
1000
0100
1000
0000
0001
0010
0001
0000
,
0100
0000
0010
1000
0010
0000
0100
0000
,
1000
0010
1000
0000
0001
0100
0001
0000
,
0010
0100
0010
0000
1000
0010
1000
0000
,
0010
0100
0010
0000
0001
0100
0001
0000
,
0010
0100
1000
0110
,
0010
0100
0010
0000
1000
0010
1000
0000
,
0001
0100
0001
0000
0010
0100
0010
0000
,
0001
0100
0001
0000
1000
0010
1000
0000
,
0100
0000
0010
0001
0010
0000
0100
0000
,
2000
3020
0230
0302
,
0013
0000
0000
0000
;

//--------------- dance-single - B. M'Rey ----------------
#NOTES:
     dance-single:
     B. M'Rey:
     Hard:
     9:
     0,0,0,0,0:
0000
0000
0000
0000
,
0000
0000
0000
0000
,
0000
0000
0000
0000
,
0000
0000
0000
0000
,
0000
0000
0000
0000
,
0010
0100
0001
0000
0010
1000
0001
0000
,
0010
0100
0010
0000
0001
0000
0010
0000
,
0100
0010
0001
0000
0100
0010
0100
0000
,
0010
0000
0100
0000
,
0010
0100
0001
1000
0001
0010
0100
0010
,
0001
0010
0001
0100
0010
0100
0010
0100
,
0001
0010
0001
0100
0001
1000
0010
0100
,
0001
0010
0001
1000
0011
0000
0110
0000
,
0001
1000
0010
1000
0100
1000
0010
0100
,
0001
0100
0010
0100
0010
1000
0001
0010
,
0100
1000
0100
1000
0010
1000
0010
0100
,
0001
0010
0001
0010
0101
0000
0110
0000
,
0002
0023
0230
2300
,
3001
0000
0000
0000
0001
0000
0000
0001
0000
0000
0010
0000
1000
0000
0100
0000
,
1000
0000
0000
0001
0000
0000
0001
0000
1000
0000
0000
0010
0000
0000
0010
0000
,
1000
0000
0000
1000
0000
0000
0100
0000
1000
0000
0100
0000
0010
0000
0100
0000
,
1000
0000
0000
0010
0000
0000
0001
0000
1000
0000
0000
0010
0000
0000
0100
0000
,
0010
0100
1000
0001
1000
0010
0100
0010
,
1000
0010
1000
0100
0010
0100
0010
0100
,
1000
0010
1000
0100
1000
0001
0010
0100
,
1000
0010
1000
0001
1010
0000
0110
0000
,
1000
0001
0010
0001
0100
0001
0010
0100
,
1000
0100
0010
0100
0010
0001
1000
0010
,
0100
0001
0100
0001
0010
0001
0010
0100
,
1000
0010
1000
0010
1100
0000
0110
0000
,
2000
3002
0203
0320
,
0130
0000
1000
0000
,
0001
1000
0001
1000
0001
0100
0010
0100
,
0010
0100
0001
1000
0001
1000
0001
0010
,
0100
0010
0100
0010
0001
1000
0001
1000
,
0001
0000
0010
0000
0100
1000
0100
1000
,
0010
0000
1000
0000
0010
0000
0000
0010
0000
0000
0100
0000
0001
0000
1000
0000
,
0010
0000
1000
0000
0010
0000
0000
1000
0000
0000
0100
0000
0001
0000
0100
0000
,
0001
0000
1000
0000
0100
0000
0000
0010
0000
0000
0010
0000
0001
0000
1000
0000
,
0001
1000
0100
0000
0100
0010
0100
0010
,
0001
1000
0100
1000
,
0010
1000
0100
0010
,
0100
1000
0001
0100
,
0010
0000
1000
0000
0100
0000
0010
0110
,
0010
1000
0010
0100
,
0010
0100
0001
1000
,
0100
0010
0001
0000
0001
1000
0100
0000
,
0001
0010
0001
0000
0001
1000
0100
0000
,
0110
0000
0100
0010
0001
0000
0010
1000
,
0001
0000
0100
0010
0001
0000
0001
0110
,
0110
0000
0010
0100
0001
0000
0001
0011
,
0011
0000
0010
0100
0001
0000
0001
0010
,
0101
0000
0010
0100
0011
0000
0001
0010
,
1001
0000
0000
0000
0010
0000
1000
0000
1001
0000
0000
1000
0000
0000
0100
0000
,
0010
1000
0010
0100
0010
1000
0100
1000
,
0100
0010
0100
0010
0001
0010
0100
1000
,
0100
1000
0100
0010
0001
1000
0001
1000
,
0001
0010
0100
0010
0100
1000
0100
0010
,
0001
1000
0001
1000
0001
0010
0100
0010
,
0100
1000
0100
1000
0001
1000
0001
0100
,
0001
1000
0010
1000
0100
1000
0100
0010
0100
0010
0001
0010
0001
1000
0100
1000
,
0200
0000
0020
0000
,
0330
0000
0100
1000
0100
0000
0001
0000
,
0100
0010
0100
0010
0001
0100
0001
0010
,
0001
1000
0001
1000
0100
1000
0100
0010
0100
0010
0001
0010
0002
0000
0000
0000
,
0013
0100
0001
1000
0001
0010
0100
0010
,
0001
0010
0001
0100
0010
0100
0010
0100
,
0001
0010
0001
0100
0001
1000
0010
0100
,
0001
0010
0001
1000
0011
0000
0110
0000
,
0001
1000
0010
1000
0100
1000
0010
0100
,
0001
0100
0010
0100
0010
1000
0001
0010
,
0100
1000
0100
1000
0010
1000
0010
0100
,
0001
0010
0001
0010
0101
0000
0110
0000
,
0100
0010
0001
1000
0001
0100
0010
0100
,
0001
0100
0001
0010
0100
0010
0100
0010
,
0001
0100
0001
0010
0001
1000
0100
0010
,
0001
0100
0001
1000
0101
0000
0110
0000
,
0001
1000
0100
1000
0010
1000
0100
0010
,
0001
0010
0100
0010
0100
1000
0001
0100
,
0010
1000
0010
1000
0100
1000
0100
0010
,
0001
0100
0001
0100
0011
0000
0110
0000
,
0002
0023
0230
2300
,
3001
0000
0000
0000
;

//--------------- dance-single - B. M'Rey ----------------
#NOTES:
     dance-single:
     B. M'Rey:
     Challenge:
     10:
     0,0,0,0,0:
0000
0000
0000
0000
,
0000
0000
0000
0000
,
0000
0000
0000
0000
,
0000
0000
0000
0000
,
0000
0000
0000
0000
,
0100
0000
0010
0100
0010
0000
1000
0000
0010
0000
0100
0001
0100
0000
0010
0000
,
0100
0000
1000
0001
1000
0000
1000
0000
0100
0000
1000
0100
1000
0000
0010
0000
,
0001
0000
1000
0010
1000
0000
0100
0000
0001
0000
0100
0001
0100
0000
0000
0010
,
0000
0000
1001
0000
0000
0110
0000
1000
0001
1000
0001
0000
0110
0000
0000
0000
,
0001
1000
0001
1000
0001
0000
0100
0000
0001
1000
0001
1000
0010
0000
0010
0000
,
0001
0100
0001
0100
0010
0000
0010
0100
0000
0000
0001
0100
0001
0000
0001
0010
,
0000
0010
0100
1000
0100
0000
0001
1000
0000
0010
0001
0010
0100
0000
0100
1000
,
0000
1000
0001
1000
0001
0000
0001
0020
0000
0000
0000
0000
0230
0000
0000
0000
,
0301
0010
0100
0010
0001
0100
0001
0000
0001
0010
0100
1000
0010
0100
0010
0000
,
0010
0000
0001
0000
0010
1000
0010
1000
0010
0000
0001
0100
0001
0000
0001
0000
,
0100
1000
0100
0010
0100
0000
0001
0000
0001
1000
0001
1000
0100
0000
0100
0010
,
0100
0000
0001
0010
0001
1000
0001
1000
0010
0000
0001
0100
0001
0000
0001
0010
,
2002
0000
0000
3003
2002
0000
0000
3003
0202
0000
0000
0303
0220
0000
0000
0331
,
0000
0000
1000
0001
1000
0000
0000
0100
0000
0000
0001
0000
1000
0000
1000
0001
,
1000
0000
0001
0010
0001
0000
0100
0010
0100
0000
0100
0000
0010
0000
0001
0000
,
1000
0000
0001
0010
1000
0000
0100
0000
1000
0000
0100
0000
0010
0001
0100
0000
,
0010
0001
0000
0001
0010
0000
0001
1000
0000
0010
0100
0000
0200
0000
0000
0000
,
1300
0001
1000
0001
1000
0000
0010
0000
1000
0001
1000
0001
0100
0000
0100
0000
,
1000
0010
1000
0010
0100
0000
0100
0010
0000
0000
1000
0010
1000
0000
1000
0100
,
0000
0100
0010
0001
0010
0000
1000
0001
0000
0100
1000
0100
0010
0000
0010
0001
,
0000
0001
1000
0001
1000
0000
1000
0200
0000
0000
0000
0000
0320
0000
0000
0000
,
1030
0100
0010
0100
1000
0010
1000
0000
1000
0100
0010
0001
0100
0010
0100
0000
,
0100
0000
1000
0000
0100
0001
0100
0001
0100
0000
1000
0010
1000
0000
1000
0000
,
0010
0001
0010
0100
0010
0000
1000
0000
1000
0001
1000
0001
0010
0000
0010
0100
,
0010
0000
1000
0100
1000
0001
1000
0001
0100
0000
1000
0010
1000
0000
1000
0100
,
2002
0000
0000
3003
2002
0000
0000
3003
2020
0000
0000
3030
0220
0000
0000
0330
,
1000
0000
0000
0000
0010
0000
0000
0100
0000
0100
0000
0010
0001
0000
1000
0000
,
0001
0000
0010
0000
0100
1000
0000
0010
0000
1000
0000
0100
0010
0000
0100
0000
,
0001
0000
0010
0000
0001
0010
0000
0100
0000
0001
0000
0100
0010
0000
1000
0000
,
0100
0000
1000
0000
0010
0100
0000
1000
0000
0010
0000
0100
0001
0000
1000
0000
,
0001
0010
0001
0000
1000
0100
1000
0000
0010
0100
0010
0100
0001
0000
0010
0000
,
0001
0000
0010
0000
0100
0010
0000
0100
0000
1000
0000
1000
0001
0000
1000
0000
,
0100
0000
0010
0000
0001
1000
0000
0001
0000
0010
0000
0010
0001
0000
0010
0000
,
0100
0010
0100
1000
0010
0100
0001
0010
,
0110
0000
0000
0000
1100
0000
0000
0000
0100
0001
0100
0001
0100
0001
0100
0001
,
1000
0000
0010
1000
0100
0000
0001
0000
,
0001
0000
0100
0000
0010
0000
1000
0000
0001
0000
0000
0000
0100
0010
0000
0100
,
0001
0000
0000
0000
0100
0000
0010
0000
0001
0000
0000
1000
0000
0000
1000
0000
,
0020
0000
0000
0000
0031
0100
0010
1000
,
0011
0000
0000
0000
0100
0000
1000
0000
0100
0000
0010
0100
0010
0000
1000
0010
,
0000
0000
1000
0001
0000
0000
0010
0000
0001
0000
0010
0001
0000
0010
0100
0000
,
0110
0000
0010
1000
0000
1000
0001
0000
0010
0000
0001
0010
0000
1000
0010
0000
,
0001
0000
0100
0010
0000
0010
0100
1000
0001
0000
0010
0100
0000
0010
0100
0000
,
0011
0000
0001
1000
0000
0100
0010
0000
0001
0000
0010
1000
0000
0010
0100
0000
,
0001
0000
0001
0100
0000
1000
0100
0010
0001
0000
0010
1000
0000
1000
0010
0000
,
0101
0000
0001
1000
0000
0010
0100
0000
0001
0000
0100
0010
0000
0100
0010
0000
,
0101
0000
0001
0100
0000
0100
0001
0000
0100
0000
0100
0010
0000
1000
0010
1000
,
1100
0000
0010
0100
0000
0100
0010
0100
0011
0000
0100
1000
0010
0100
0010
1000
,
0110
0000
0001
0010
0001
0100
0001
0010
1100
0000
0001
1000
0001
0000
0100
0010
,
0100
0000
0001
1000
0001
0000
0001
0010
0100
0000
0010
1000
0100
0000
0100
1000
,
0010
0000
0001
1000
0100
0000
0001
1000
0010
0000
0100
0010
0100
0000
0100
1000
,
0010
0000
0001
0010
0100
0000
0001
1000
0001
0000
0010
0100
0001
0000
0010
1000
,
0100
0000
0100
0010
0001
0000
0001
0100
0001
0000
0100
1000
0010
0000
0010
0100
,
0001
1000
0001
0100
0001
0100
0010
0100
,
0001
0010
0001
0010
0001
1000
0100
0010
,
0001
1000
0001
1000
0001
0100
0010
0100
0010
0100
0001
1000
0001
1000
0001
0010
,
0100
0010
0100
0010
0001
0100
0001
0100
0001
0010
0100
0010
0100
0010
0001
1000
,
0001
0000
0000
0100
0010
0000
1000
0000
,
0001
0010
0001
0010
0001
1000
0010
1000
,
0001
0010
0001
0010
0001
1000
0100
1000
0010
1000
0100
0010
0200
0000
0000
0000
,
0301
1000
0001
1000
0001
0000
0100
0000
0001
1000
0001
1000
0010
0000
0010
0000
,
0001
0100
0001
0100
0010
0000
0010
0100
0000
0000
0001
0100
0001
0000
0001
0010
,
0000
0010
0100
1000
0100
0000
0001
1000
0000
0010
0001
0010
0100
0000
0100
1000
,
0000
1000
0001
1000
0001
0000
0001
0020
0000
0000
0000
0000
0230
0000
0000
0000
,
0301
0010
0100
0010
0001
0100
0001
0000
0001
0010
0100
1000
0010
0100
0010
0000
,
0010
0000
0001
0000
0010
1000
0010
1000
0010
0000
0001
0100
0001
0000
0001
0000
,
0100
1000
0100
0010
0100
0000
0001
0000
0001
1000
0001
1000
0100
0000
0100
0010
,
0100
0000
0001
0010
0001
1000
0001
1000
0010
0000
0001
0100
0001
0000
0001
0010
,
1000
0001
1000
0001
1000
0000
0010
0000
1000
0001
1000
0001
0100
0000
0100
0000
,
1000
0010
1000
0010
0100
0000
0100
0010
0000
0000
1000
0010
1000
0000
1000
0100
,
0000
0100
0010
0001
0010
0000
1000
0001
0000
0100
1000
0100
0010
0000
0010
0001
,
0000
0001
1000
0001
1000
0000
1000
0200
0000
0000
0000
0000
0320
0000
0000
0000
,
1030
0100
0010
0100
1000
0010
1000
0000
1000
0100
0010
0001
0100
0010
0100
0000
,
0100
0000
1000
0000
0100
0001
0100
0001
0100
0000
1000
0010
1000
0000
1000
0000
,
0010
0001
0010
0100
0010
0000
1000
0000
1000
0001
1000
0001
0010
0000
0010
0100
,
0010
0000
1000
0100
1000
0001
1000
0001
0100
0000
1000
0010
1000
0000
1000
0100
,
2002
0000
0000
3003
2002
0000
0000
3003
2020
0000
0000
3030
0220
0000
0000
1330
;
