#VERSION:0.83;
#TITLE:Marine Snow;
#ARTIST:OutPhase;
#GENRE:TRANCE TECHNO;
#MUSIC:Marine Snow.ogg;
#BANNER:Marine Snow-bn.png;
#BACKGROUND:Marine Snow-bg.png;
#CDTITLE:./CDTITLES/DANCE DANCE REVOLUTION EXTREME 3.PNG;
#SAMPLESTART:104.2;
#SAMPLELENGTH:15;
#OFFSET:-0.036;
#BPMS:0=148.036;

//--------------- dance-single - B. M'Rey ----------------
#NOTEDATA:;
#STEPSTYPE:dance-single;
#DESCRIPTION:B. M'Rey;
#DIFFICULTY:Beginner;
#METER:2;
#RADARVALUES:0,0,0,0,0;
#NOTES:
0000
0000
0000
0000
,
0000
0000
0000
0000
,
0000
0000
0000
0000
,
0000
0000
0000
0000
,
0000
0000
0000
0000
,
0000
0000
0000
0000
,
0000
0000
0000
0000
,
0000
0000
0000
0000
,
1000
0000
0000
0000
,
0001
0000
0000
0000
,
0010
0000
0000
0000
,
0100
0000
0000
0000
,
0010
0000
0000
0000
,
1000
0000
0000
0000
,
0001
0000
0000
0000
,
0100
0000
0000
0000
,
0010
0000
0000
0000
,
1000
0000
0000
0000
,
0100
0000
0000
0000
,
0010
0000
0000
0000
,
0001
0000
0000
0000
,
0100
0000
0000
0000
,
0010
0000
0000
0000
,
1000
0000
0000
0000
,
0100
0000
0000
0000
,
1000
0000
0000
0000
,
0001
0000
0000
0000
,
0010
0000
0000
0000
,
0100
0000
0000
0000
,
0010
0000
0000
0000
,
1000
0000
0000
0000
,
0100
0000
0000
0000
,
0001
0000
0000
0000
,
0000
0000
0000
0000
,
1000
0000
0000
0000
,
0100
0000
0000
0000
,
0010
0000
0000
0000
,
0000
0000
0000
0000
,
0100
0000
0000
0000
,
0000
0000
0000
0000
,
1000
0000
0000
0000
,
0000
0000
0000
0000
,
0001
0000
0000
0000
,
0000
0000
0000
0000
,
0100
0000
0000
0000
,
0000
0000
0000
0000
,
0010
0000
0000
0000
,
0000
0000
0000
0000
,
1000
0000
1000
0000
,
0001
0000
0001
0000
,
0100
0000
0100
0000
,
0010
0000
0010
0000
,
1000
0000
1000
0000
,
0100
0000
0100
0000
,
0001
0000
0001
0000
,
0010
0000
0010
0000
,
0100
0000
0100
0000
,
0001
0000
0001
0000
,
0010
0000
0010
0000
,
1000
0000
1000
0000
,
0010
0000
0010
0000
,
0100
0000
0100
0000
,
0001
0000
0001
0000
,
1001
0000
0000
0000
,
0000
1000
0000
0000
,
0010
0100
0000
0000
,
0001
1000
0000
0000
,
0100
0010
0000
0000
,
0100
0001
0000
0000
,
1000
0001
0000
0000
,
0010
0100
0000
0000
,
1000
0100
0000
0000
,
0001
0010
0000
0000
,
0100
0010
0000
0000
,
1000
0001
0000
0000
,
0010
0100
0000
0000
,
0001
1000
0000
0000
,
0100
0010
0000
0000
,
1000
0010
0000
0000
,
0100
0001
0000
0000
,
0010
0000
0000
0000
;

//--------------- dance-single - B. M'Rey ----------------
#NOTEDATA:;
#STEPSTYPE:dance-single;
#DESCRIPTION:B. M'Rey;
#DIFFICULTY:Easy;
#METER:4;
#RADARVALUES:0,0,0,0,0;
#NOTES:
0000
0000
0000
0000
,
0000
0000
0000
0000
,
0000
0000
0000
0000
,
0000
0000
0000
0000
,
1000
0000
0000
0000
,
0100
0000
0000
0000
,
0001
0000
0000
0000
,
0010
0000
0000
0000
,
0100
0000
0100
0000
,
1000
0000
0000
0000
,
0100
0000
0000
0000
,
0001
0000
0000
0000
,
0010
0000
0100
0000
,
1000
0000
0010
0000
,
0100
0000
0001
0000
,
0010
0000
0010
0000
,
0001
0000
1000
0000
,
0010
0000
0100
0000
,
0010
0000
1000
0000
,
0001
0000
0010
0000
,
0001
0000
0100
0000
,
0010
0000
1000
0000
,
0010
0000
0100
0000
,
0010
0000
0001
0000
,
0100
0000
0010
0000
,
1000
0000
0010
0000
,
0100
0000
0001
0000
,
0010
0000
0001
0000
,
0100
0000
0010
0000
,
1000
0000
0100
0000
,
1000
0000
0010
0000
,
0100
0000
0001
0000
,
1000
0000
0000
0000
,
0010
0000
0000
0000
,
0001
0000
0000
0000
,
0100
0000
0000
0000
,
0010
0000
0000
0000
,
1000
0000
0000
0000
,
0010
0000
0000
0000
,
0001
0000
0000
0000
,
0100
0000
0000
0000
,
0100
0000
0000
0000
,
0010
0000
0000
0000
,
0001
0000
0000
0000
,
0010
0000
0000
0000
,
0100
0000
0000
0000
,
1000
0000
0000
0000
,
0010
0000
0000
0000
,
0001
0000
1000
0000
,
0010
0000
0100
0000
,
0001
0000
0010
0000
,
0001
0000
0100
0000
,
0010
0000
1000
0000
,
0100
0000
1000
0000
,
0010
0000
0100
0000
,
0010
0000
1000
0000
,
0001
0000
0010
0000
,
0001
0000
0100
0000
,
0010
0000
1000
0000
,
0100
0000
1000
0000
,
0010
0000
0100
0000
,
0001
0000
0010
0000
,
0001
0000
0100
0000
,
0010
0000
0000
0000
,
0000
1000
1000
1000
,
0000
0001
0000
0100
,
0000
0010
0000
0010
,
0000
0100
0000
0001
,
0001
0001
0001
0000
,
1000
0000
0010
0000
,
0100
0000
0010
0000
,
0100
0000
0010
1000
,
1000
1000
1000
0000
,
0100
0000
0010
0000
,
0100
0000
0010
0000
,
1000
0000
0001
0010
,
0010
0010
0010
0000
,
0100
0000
1000
0000
,
0001
0000
0010
0000
,
0100
0000
0010
0000
,
1001
0000
0000
0000
;

//--------------- dance-single - B. M'Rey ----------------
#NOTEDATA:;
#STEPSTYPE:dance-single;
#DESCRIPTION:B. M'Rey;
#DIFFICULTY:Medium;
#METER:7;
#RADARVALUES:0,0,0,0,0;
#NOTES:
0000
0000
0000
0000
,
0000
0000
0000
0000
,
0000
0000
0000
0000
,
0000
0000
0000
0000
,
1000
0000
0010
0000
,
0100
0000
0001
0000
,
0010
0000
0001
0000
,
0100
0000
0010
0000
,
1000
0000
0100
0000
,
1000
0000
0010
0000
,
0100
0000
0001
0000
,
0010
0000
0001
0000
,
0100
0000
0010
0000
,
1000
0000
0100
0000
,
1000
0000
0010
0000
,
0100
0000
0000
0000
,
0001
1000
0001
1000
,
0100
0010
0001
0010
,
0001
1000
0010
0100
,
0001
0100
0001
1000
,
0100
1000
0001
0010
,
0100
0010
0100
1000
,
0001
1000
0001
0100
,
0010
1000
0001
0100
,
0001
1000
0010
1000
,
0001
0100
0001
1000
,
0010
1000
0010
0100
,
0001
0010
0001
0100
,
0010
1000
0010
1000
,
0001
0100
0001
0100
,
0010
1000
0010
1000
,
0100
0010
0100
0010
,
0001
0000
0000
0000
,
1000
0000
0000
0000
,
0100
0000
0000
0000
,
0010
0000
0000
0000
,
1000
0000
0000
0000
,
0001
0000
0000
0000
,
0100
0000
0000
0000
,
0010
0000
0000
0000
,
1000
0000
0000
0000
,
0010
0000
0000
0000
,
0100
0000
0000
0000
,
0001
0000
0000
0000
,
0010
0000
0000
0000
,
0100
0000
0000
0000
,
0010
0000
0000
0000
,
0001
0000
0000
0000
,
0001
1000
0001
1000
,
0100
0010
0001
0010
,
0100
1000
0100
1000
,
0001
0100
0010
0100
,
0010
1000
0001
1000
,
0100
0010
0100
0010
,
0001
0100
0010
0100
,
0010
1000
0100
0010
,
0001
0010
0001
0100
,
0010
0100
0001
1000
,
0100
1000
0001
0100
,
0001
0010
0100
0010
,
0100
1000
0010
1000
,
0010
0100
0001
0100
,
0010
1000
0100
1000
,
0001
0000
0000
0000
,
0000
0001
1000
0001
,
1000
0010
0100
0010
,
0100
0001
1000
0001
,
1000
0100
0010
0100
,
0010
0001
1000
0001
,
1000
0010
0100
0001
,
0100
0001
1000
0100
,
1000
0010
0100
0001
,
0100
0001
1000
0100
,
1000
0100
0010
0001
,
0010
0001
1000
0100
,
1000
0100
0010
0001
,
0010
0001
1000
0100
,
1000
0001
0100
0001
,
0100
0010
1000
0010
,
1000
0001
0100
0010
,
1000
0000
0000
0000
;

//--------------- dance-single - B. M'Rey ----------------
#NOTEDATA:;
#STEPSTYPE:dance-single;
#DESCRIPTION:B. M'Rey;
#DIFFICULTY:Hard;
#METER:10;
#RADARVALUES:0,0,0,0,0;
#NOTES:
0000
0000
0000
0000
,
0000
0000
0000
0000
,
0000
0000
0000
0000
,
0000
0000
0000
0000
,
0001
1000
0001
1000
,
0100
1000
0100
1000
,
0100
1000
0010
0100
,
0001
0100
0001
0100
,
0001
0100
0010
0100
,
0010
1000
0010
1000
,
0010
1000
0010
0100
,
0001
1000
0001
1000
,
0001
1000
0010
1000
,
0010
1000
0010
0100
,
0010
0100
0010
0100
,
0001
0000
1000
0000
,
0001
1000
0001
1000
0001
0100
0001
0100
,
0001
0100
0010
0100
0010
1000
0100
1000
,
0010
1000
0100
1000
0001
1000
0010
0100
,
0010
1000
0100
1000
0100
0010
0100
1000
,
0100
1000
0010
1000
0100
0010
0001
0010
,
0100
1000
0001
0010
0001
0010
0001
0010
,
0001
0100
0001
0100
0010
0100
0010
1000
,
0010
1000
0010
1000
0010
0100
0001
0100
,
0001
0100
0010
0100
0010
0100
0001
0010
,
0001
0010
0001
0010
0001
1000
0010
1000
,
0001
1000
0001
1000
0010
1000
0100
0010
,
0100
0010
0001
0010
0001
0100
0001
0100
,
0001
0100
0001
0010
0100
0010
0100
0010
,
0100
0010
0001
0010
0001
1000
0010
1000
,
0001
1000
0100
1000
0100
1000
0100
0010
,
0100
0010
0100
0010
0001
0010
0001
0100
,
0001
0000
1000
0000
,
0010
0000
0100
0000
,
0010
0000
1000
0000
,
0001
0000
0100
0000
,
0010
0000
1000
0000
,
0100
0000
1000
0000
,
0010
0000
0100
0000
,
0001
0000
0010
0000
,
0100
0000
1000
0000
,
0100
0000
1000
0000
,
0010
0000
0100
0000
,
0001
0000
0010
0000
,
0001
0000
0100
0000
,
0010
0000
1000
0000
,
0100
0000
1000
0000
,
0010
0000
0100
0000
,
0001
1000
0001
1000
,
0001
0010
0001
0100
,
0001
0100
0010
0100
,
0010
0100
0010
0100
,
0001
1000
0001
1000
,
0001
1000
0100
1000
,
0100
0010
0100
0010
,
0100
0010
0001
0010
,
0001
0010
0001
0100
,
0010
0100
0010
0100
,
0010
1000
0001
0100
,
0001
1000
0001
0100
,
0001
1000
0001
1000
,
0100
1000
0010
1000
,
0001
1000
0001
0010
,
0001
0000
0010
0000
0100
0000
0010
1000
,
0100
0001
0001
1000
0001
0100
0001
0100
,
0001
0100
0010
0100
0001
0100
0001
0010
,
0001
0010
0001
0010
0001
0100
0010
0100
,
0010
0100
0010
0100
0001
0100
0001
1000
,
0001
0100
0001
1000
0001
0010
0100
0010
,
0100
0010
0100
0010
0001
0010
0001
1000
,
0001
1000
0001
1000
0001
0100
0010
1000
,
0001
1000
0010
1000
0010
0100
0010
0100
,
0010
1000
0010
1000
0001
1000
0001
1000
,
0001
1000
0010
0100
0010
1000
0010
1000
,
0010
1000
0010
0100
0001
0100
0001
0100
,
0001
0100
0010
0100
0001
0010
0001
0010
,
0001
0010
0001
1000
0100
1000
0100
1000
,
0100
1000
0010
1000
0010
0100
0010
0100
,
0010
0100
0001
0100
0001
0100
0001
0010
,
0001
0010
0001
0010
0100
0010
0100
1000
,
0100
0000
0000
0000
;
