#TITLE:MY FAVOURITE GAME;
#SUBTITLE:(SUPER PLANET MIX);
#ARTIST:NATALIE BROWNE;
#TITLETRANSLIT:;
#SUBTITLETRANSLIT:;
#ARTISTTRANSLIT:;
#GENRE:;
#CREDIT:;
#MUSIC:MY FAVOURITE GAME (SUPER PLANET MIX).ogg;
#BANNER:MY FAVOURITE GAME (SUPER PLANET MIX)-bn.png;
#BACKGROUND:MY FAVOURITE GAME (SUPER PLANET MIX)-bg.png;
#CDTITLE:./CDTITLES/DANCEMANIA/SPEED 5.PNG;
#SAMPLESTART:11.490;
#SAMPLELENGTH:12.000;
#SELECTABLE:YES;
#OFFSET:-0.336;
#BPMS:0.000=171.952;
#STOPS:;
#BGCHANGES:;
#FGCHANGES:;

//--------------- dance-single - B. M'Rey ----------------
#NOTES:
     dance-single:
     B. M'Rey:
     Beginner:
     2:
     0,0,0,0,0:
0000
0000
0000
0000
,
0000
0000
0000
0000
,
0000
0000
0000
0000
,
0000
0000
0000
0000
,
0000
1000
0010
0000
,
0000
0100
0010
0000
,
0000
1000
0010
0000
,
0000
0101
0000
1010
,
0000
1000
0010
0000
,
0000
1000
0001
0000
,
0000
1000
0010
0000
,
0000
0110
0000
1010
,
0000
1000
0010
0000
,
0000
0100
0001
0000
,
0000
0100
0010
0000
,
0000
1010
0000
0110
,
0000
0100
0010
1000
,
0001
0000
0000
2000
0000
0000
0000
0000
,
3001
0100
0001
1000
,
0001
0000
0000
0200
0000
0000
0000
0000
,
0300
0100
0010
0100
,
0001
0000
0000
2000
0000
0000
0000
0000
,
3000
0010
0001
1000
,
0001
0000
0000
0001
0000
0000
0000
0000
,
0000
0010
0100
0000
,
0000
0010
0001
0000
,
0000
0010
0001
0000
,
0000
1001
0000
0011
,
0000
0010
0100
0000
,
0000
0010
0001
0000
,
0000
0010
0100
0000
,
0000
1100
0000
0110
,
0000
0010
0100
1000
,
0100
0000
0000
0002
0000
0000
0000
0000
,
0003
1000
0000
1000
,
0100
0100
0010
0000
,
0000
1000
0010
1000
,
0010
0000
0000
0002
0000
0000
0000
0000
,
0003
1000
0001
0010
,
0000
1000
0000
1000
,
0001
0100
0010
0000
,
0010
0000
0001
0000
,
0001
0000
0000
0000
,
0000
0000
0000
1000
,
0001
0000
0000
0100
0000
0000
1000
0000
,
0100
0000
0000
0000
,
0200
0000
0000
0000
,
0000
0000
0000
1300
,
0100
1000
0001
1000
,
0000
0010
0000
0000
,
0001
1000
0001
0000
,
0001
0000
0010
0000
,
0020
0000
0100
0000
,
0100
0000
0100
0000
,
0100
0000
0100
0000
,
0100
0000
0100
0000
,
0130
0001
0001
0000
,
0000
1000
0100
0000
,
0000
0010
0100
0000
,
0000
0110
0000
0110
,
0000
1000
0001
0000
,
0000
0100
0001
0000
,
0000
0010
0001
0000
,
0000
0110
0000
1010
;

//--------------- dance-single - B. M'Rey ----------------
#NOTES:
     dance-single:
     B. M'Rey:
     Easy:
     5:
     0,0,0,0,0:
0000
0000
0000
0000
,
0000
0000
0000
0000
,
0000
0000
0000
0000
,
0000
0000
0000
0000
,
0001
0001
0001
0000
,
0010
0010
0010
0000
,
0010
0010
0010
0000
,
0010
0110
0001
0101
,
0001
0000
0001
0000
0001
0010
0000
0000
,
0010
0000
0010
0000
0010
0100
0000
0000
,
0010
0000
0001
0000
0001
0010
0000
0000
,
0100
0110
0001
0011
,
0001
0000
0001
0000
0001
0010
0000
0000
,
0010
0000
0010
0000
0001
0010
0000
0000
,
0001
0000
0001
0000
0001
0100
0000
0000
,
0010
0110
0100
1100
,
0100
0000
0100
0000
0100
0000
0100
0010
,
0001
0000
0000
0020
0000
0000
0000
0030
,
0000
0100
0001
0000
0001
0000
0010
0000
,
0010
0000
0001
0010
0000
0000
0000
0000
,
0010
0000
0010
1000
0010
0000
0010
0100
,
0010
0000
0002
0000
0000
0000
0000
0003
,
0000
0100
0000
0010
0000
0010
0000
0100
,
0001
0000
0001
0010
0000
0000
0000
0000
,
0100
0000
0100
0000
0100
1000
0000
0000
,
0100
0000
0001
0000
0001
0100
0000
0000
,
0001
0000
0001
0000
0001
0100
0000
0000
,
0010
0101
0010
0110
,
0001
0000
0001
0000
0001
0100
0000
0000
,
0001
0000
0100
0000
0100
1000
0000
0000
,
0001
0000
0001
0000
0001
0100
0000
0000
,
0001
1010
0010
0110
,
0010
0000
0010
1000
0010
0000
0001
0000
,
0001
1000
0000
0002
0000
0000
0000
0003
,
1000
0010
0010
1000
,
0100
0100
0200
0000
,
0301
0000
0100
0000
0100
0010
0000
1000
,
0001
0100
0000
0200
0000
0000
0000
0000
,
0300
1000
0100
0000
0001
0000
0001
1000
,
0000
0100
0001
0100
0000
0000
0001
0000
,
0100
0100
0001
0001
,
0100
0000
0010
0000
0001
0000
0001
1000
,
0002
0000
1000
0000
,
1000
0000
1000
0013
,
0100
0000
0000
0010
0000
0000
0001
0000
,
0200
0000
0000
0000
0000
0000
0300
1000
,
0001
0000
0000
1000
0100
0000
0000
0010
,
0100
0000
0000
1000
0100
0000
0001
0000
,
0001
0100
0100
0002
,
0000
0103
0000
0000
,
0001
0000
0010
0000
0001
0000
0000
2000
,
0000
0000
0000
0000
3100
0000
0000
0010
,
0200
0000
0000
0310
0002
0000
0000
0013
,
0200
0000
0000
1300
0200
0000
0000
0310
,
0200
0000
0000
1300
0200
0000
0000
0310
,
0200
0000
0000
0310
0002
0000
0000
0013
,
0100
0100
0100
0000
,
0100
0100
0001
0000
,
0100
0010
0100
0000
0001
0000
0000
0000
,
0000
0110
0000
1100
,
0000
0000
0001
0000
0001
0000
0000
0010
,
0001
0001
0100
0000
,
0100
0000
0100
0000
0001
0010
0000
0000
,
0000
0110
0000
0110
;

//--------------- dance-single - B. M'Rey ----------------
#NOTES:
     dance-single:
     B. M'Rey:
     Medium:
     8:
     0,0,0,0,0:
0000
0000
0000
0000
,
0000
0000
0000
0000
,
0000
0000
0000
0000
,
0000
0000
0000
0000
,
0010
1000
0010
0000
0010
0000
0000
0000
,
0001
0100
0001
0000
0010
0000
0000
0000
,
0001
0100
0001
0000
0010
0000
0000
0000
,
0010
0100
0001
0000
0001
0100
0010
0000
,
0010
0100
0001
0000
0001
0000
0001
0000
,
0001
1000
0001
0000
0001
0000
0001
0000
,
0001
1000
0001
0000
0100
0000
0100
0000
,
0001
0010
0001
0000
0001
1000
0001
0000
,
0001
0100
0001
0000
0001
0000
0001
0000
,
0001
1000
0010
0000
0010
0000
0001
0000
,
0001
1000
0100
0000
0100
0000
0001
0000
,
0001
0010
0001
0000
0001
1000
0001
0000
,
1000
0000
0010
0000
0001
0000
0010
0100
,
0001
0010
0000
0020
0000
0000
0000
0000
,
0031
0010
0100
0000
0010
0000
0010
1000
,
0100
0000
0001
0100
0000
0000
0000
0000
,
0000
0010
0100
0000
0001
0100
0001
1000
,
0100
0010
0000
2000
0000
0000
0000
0000
,
3010
0000
0010
1000
0100
0000
0100
0000
,
0010
0100
0000
0020
0000
0000
0000
0030
,
0010
0100
0001
0000
0001
0000
0001
0000
,
0001
1000
0001
0000
0001
0000
0001
0000
,
0001
1000
0001
0000
0100
0000
0100
0000
,
0001
0010
0001
0000
0001
1000
0001
0000
,
0010
0100
1000
0000
1000
0000
1000
0000
,
1000
0001
1000
0000
1000
0000
1000
0000
,
1000
0001
1000
0000
0100
0000
0100
0000
,
1000
0010
1000
0000
1000
0001
1000
0000
,
0010
0000
0010
1000
0001
0010
0000
1000
,
0100
0010
0000
0020
0000
0000
0000
0000
,
0130
0010
0001
0100
0001
1000
0010
0000
,
0100
0010
0001
0000
,
0001
0100
0001
0000
0100
1000
0001
0000
,
0010
1000
0000
2000
0000
0000
0000
0000
,
3100
0010
0100
1000
0000
1000
0100
0010
,
0000
0100
0010
1000
0000
0000
0100
0000
,
0100
0000
0001
0010
0100
0000
0010
2000
,
0000
0000
0010
0000
0010
0000
0001
0010
,
3001
0000
0001
1000
0010
0000
0100
1000
,
0001
0000
0100
1000
0100
0000
0001
0100
,
0001
0000
0000
1000
0000
0000
0010
0000
,
0002
0000
0010
0000
0013
0000
0100
0010
,
0001
0000
0010
0100
0010
0000
0001
0100
,
0001
0000
0010
0100
0010
0000
0010
1000
,
0001
0000
0100
0000
0010
0000
0010
0100
,
0010
1000
0100
0000
0100
0000
0001
1000
,
0100
0000
0010
0100
0002
0000
0100
0000
,
0100
0000
0103
1000
0010
0000
0000
0000
,
0001
0010
0001
0100
0001
1000
0010
0100
,
0010
1000
0100
0010
0001
0100
0010
1000
,
0100
1000
0010
1000
0100
1000
0010
0100
,
0001
1000
0100
0010
0100
1000
0001
0010
,
0010
1000
0010
0000
0010
0000
0000
0000
,
0001
0100
0001
0000
0010
0000
0000
0000
,
0001
0100
0001
0000
0010
0000
0000
0000
,
0010
0100
0001
0000
0001
0100
0010
0000
,
0100
1000
0100
0000
0100
0000
0000
0000
,
0001
0010
0001
0000
0100
0000
0000
0000
,
0001
0010
0001
0000
0100
0000
0000
0000
,
0100
0010
0001
0000
0001
0010
0200
0000
,
0000
0000
0000
0300
;

//--------------- dance-single - B. M'Rey ----------------
#NOTES:
     dance-single:
     B. M'Rey:
     Hard:
     9:
     0.632,0.61,0.497,0.11,0.028:
0000
0000
0000
0000
,
0000
0000
0000
0000
,
0000
0000
0000
0000
,
0000
0000
0000
0000
,
0010
1000
0100
0000
0011
0000
1010
0000
,
0010
0100
0010
0000
1100
0000
0011
0000
,
0100
0010
0100
0000
1010
0000
0110
0000
,
0010
1000
0100
0010
0001
0100
0001
0000
,
0010
0100
0001
0000
0110
0000
0110
0000
,
0010
1000
0010
0000
0110
0000
0101
0000
,
0001
1000
0100
0000
1100
0000
0110
0000
,
0001
0100
0010
0000
0010
0100
0001
0000
,
0010
1000
0100
0010
0001
0100
0010
1000
,
0100
0010
0100
1000
0001
0100
0010
1000
,
0100
1000
0010
0100
0001
0010
0100
0010
,
0001
1000
0001
1000
0100
1000
0001
0100
,
1000
0000
0010
1000
0100
1000
0100
0010
,
0001
0100
0000
0200
0000
0000
0010
0000
,
0310
0000
1000
0000
0010
0100
0000
0000
0010
0000
0100
0000
0001
0000
1000
0000
,
0001
0000
0001
0010
0000
0100
0010
0000
,
0001
0100
0010
1000
0100
1000
0010
0100
,
0001
0010
0000
0020
0000
0000
0100
0000
,
0130
0000
0010
0000
0100
0000
1000
0000
0001
0000
0000
0100
0000
0000
0010
0000
,
0001
0000
0000
0010
0000
0000
1000
0000
0000
0000
0100
0000
0010
0000
0000
0000
,
0100
1000
0010
0000
0001
1000
0100
0000
,
0100
0010
0001
0000
0001
0100
0010
0000
,
0010
0100
0001
0000
0001
0010
0001
0000
,
0100
0010
1001
0000
0100
1000
0110
0000
,
0010
0100
0001
0000
0010
0000
0100
1000
,
0010
0100
0001
0000
0010
0000
0100
0000
,
0100
0010
0001
0000
0100
0000
0001
0000
,
0100
1000
0101
0000
0010
1000
1001
0000
,
0100
0010
0001
0100
0001
1000
0010
0100
,
0001
0010
0000
0200
0000
0000
0001
0000
,
0301
1000
0100
0010
0001
0100
0010
0000
,
0001
0000
0000
0010
0000
0000
1000
0000
0002
0000
0000
0000
0010
0000
0000
0000
,
0103
0010
0001
0100
0010
1000
0010
0100
,
0001
0000
0010
0000
0000
0000
2000
0000
0000
0000
0000
0000
0001
0000
0000
3000
,
0001
0100
0010
1000
0100
0010
0001
0100
,
0000
1000
0100
0010
0000
0010
0001
0000
,
0001
1000
0001
1000
0010
1000
0010
1000
,
0001
1000
0010
0100
0010
1000
0010
0100
,
0010
0100
0010
1000
0010
1000
0010
0100
,
0010
0100
0010
1000
0001
0100
0001
1000
,
0001
1000
0001
0010
0001
0010
0001
0100
,
0010
0100
0010
0100
0001
0010
0001
0010
,
0001
0100
0001
0100
0001
1000
0001
0100
,
0001
1000
0100
0010
0100
0010
0100
1000
,
0100
1000
0100
0010
0001
0010
0100
0010
,
0100
0010
0001
0010
0100
0010
0001
0100
,
0001
0100
0001
0010
0001
0010
0001
1000
,
0100
1000
0100
1000
0001
1000
0001
0010
,
2000
0000
3200
0000
,
0320
0000
0032
0000
,
2003
0001
3020
0100
,
0230
0001
0302
1000
,
1003
0001
1000
0000
0011
0000
1100
0000
,
1000
0001
1000
0000
1100
0000
0011
0000
,
0001
1000
0001
0000
1010
0000
0101
0000
,
0010
1000
0100
0000
0001
0100
0010
0000
,
0001
1000
0001
0000
0101
0000
1010
0000
,
1000
0001
1000
0000
0110
0000
1001
0000
,
1000
0001
1000
0000
1001
0000
0110
0000
,
0001
1000
0010
0000
1000
0001
0200
0000
,
0000
0000
0000
0300
;
