#VERSION:0.83;
#TITLE:MOONLIGHT SHADOW (Nasca Joker's World Mix);
#ARTIST:MISSING HEART;
#GENRE:TRANCE;
#MUSIC:MOONLIGHT SHADOW (Nasca Joker's World Mix).ogg;
#BANNER:MOONLIGHT SHADOW (Nasca Joker's World Mix).png;
#BACKGROUND:MOONLIGHT SHADOW (Nasca Joker's World Mix)-bg.png;
#CDTITLE:./CDTITLES/TRANCE PARADISE KABATORA (COVER TRANCE).PNG;
#SAMPLESTART:57.335;
#SAMPLELENGTH:15;
#OFFSET:-0.351;
#BPMS:0=143.197;

//--------------- dance-single - B. M'Rey ----------------
#NOTEDATA:;
#STEPSTYPE:dance-single;
#DESCRIPTION:B. M'Rey;
#DIFFICULTY:Beginner;
#METER:2;
#RADARVALUES:0,0,0,0,0;
#NOTES:
0000
0000
0000
0000
,
0100
0000
0000
0000
,
0001
0000
0000
0000
,
0010
0000
0000
0000
,
0100
0000
0000
0000
,
1000
0000
0000
0000
,
0010
0000
0000
0000
,
0001
0000
0000
0000
,
0100
0000
0000
0000
,
0010
0000
0000
0000
,
1000
0000
0000
0000
,
0010
0000
0000
0000
,
0001
0000
0000
0000
,
0100
0000
0000
0000
,
0001
0000
0000
0000
,
0010
0000
0000
0000
,
2000
0000
0000
0000
,
3000
0000
0000
0000
,
0001
0000
0000
0000
,
0010
0000
0000
0000
,
1000
0000
0000
0000
,
0100
0000
0000
0000
,
0010
0000
0000
0000
,
0100
0000
0000
0000
,
1000
0000
0000
0000
,
0001
0000
0000
0000
,
1000
0000
0000
0000
,
0001
0000
0000
0000
,
0100
0000
0000
0000
,
0100
0000
0000
0000
,
0010
0000
0000
0000
,
1000
0000
0000
0000
,
0001
0000
0000
0000
,
0010
0000
0000
0000
,
0100
0000
1000
0000
,
0001
0000
0010
0000
,
0100
0000
0001
0000
,
1000
0000
0001
0000
,
0010
0000
0001
0000
,
0100
0000
0010
0000
,
1000
0000
0001
0000
,
1000
0000
0100
0000
,
0001
0000
0001
0000
,
0100
0000
0100
0000
,
0010
0000
0010
0000
,
1000
0000
1000
0000
,
0010
0000
0100
0000
,
0001
0000
1000
0000
,
0001
0000
0010
0000
,
0100
0000
0000
0000
,
0001
0000
0000
0000
,
0010
0000
0000
0000
,
1000
0000
0000
0000
,
0100
0000
0000
0000
,
0010
0000
0000
0000
,
0100
0000
0000
0000
,
1000
0000
0000
0000
,
0001
0000
0000
0000
,
1000
0000
0000
0000
,
0001
0000
0000
0000
,
0100
0000
0000
0000
,
0100
0000
0000
0000
,
0010
0000
0000
0000
,
1000
0000
0000
0000
,
0001
0000
0000
0000
,
0010
0000
0000
0000
,
1100
0000
0000
0000
;

//--------------- dance-single - B. M'Rey ----------------
#NOTEDATA:;
#STEPSTYPE:dance-single;
#DESCRIPTION:B. M'Rey;
#DIFFICULTY:Easy;
#METER:4;
#RADARVALUES:0,0,0,0,0;
#NOTES:
0000
0000
0000
0000
,
1000
0000
0000
0001
,
0010
0000
0000
0010
0000
0000
0000
0000
,
1000
0000
0000
0100
0000
0000
0000
0000
,
0010
0100
1000
0000
,
0100
0000
0010
0000
,
1000
0000
0000
0010
0000
0000
0000
0000
,
0100
0000
0000
0001
0000
0000
0000
0000
,
1000
0100
1000
0000
,
0100
0000
1000
0000
,
0100
0000
0000
0000
,
1000
0000
0010
0000
,
1000
0000
0000
0000
,
1000
0000
0010
0000
,
0010
0000
1000
0000
,
0010
0000
1000
0000
,
0200
0000
0000
0000
,
0300
0000
0000
0000
,
0010
0000
0010
0001
,
1000
0000
0000
0001
0000
0000
0000
0000
,
0010
0000
0000
0100
0000
0000
0000
0000
,
0100
0000
0001
0000
,
0100
0000
1000
0100
,
0010
0000
0000
1000
0000
0000
0000
0000
,
0010
0000
0000
0100
0000
0000
0000
0000
,
1000
0000
0010
0000
,
0100
0000
1000
0000
,
0010
0100
0000
0000
,
0100
0000
1000
0000
,
1000
0100
0000
0000
,
1000
0000
0100
0000
,
1000
0010
0000
0000
,
1000
0000
0100
0000
,
0020
0000
0000
0000
,
1030
0000
1000
0000
,
0010
0000
0100
0000
,
0100
0010
1000
0000
,
0010
0001
0100
0000
,
1000
0000
0100
0000
,
0010
0000
0100
0000
,
1000
0001
0010
0000
,
1000
0100
0010
0000
,
0010
0000
0100
0000
,
1000
0000
0001
0000
,
0010
0000
0100
0000
,
1000
0100
0000
0001
,
0010
0000
0001
0000
,
0100
0000
0010
0000
,
1000
0000
0100
2000
,
0000
0000
0000
0000
,
3010
0000
0010
0001
,
1000
0000
0000
0001
0000
0000
0000
0000
,
0010
0000
0000
0100
0000
0000
0000
0000
,
0100
0000
0001
0000
,
0200
0000
1300
0100
,
0010
0000
0000
1000
0000
0000
0000
0000
,
0010
0000
0000
0100
0000
0000
0000
0000
,
1000
0000
0010
0000
,
0100
0000
1000
0000
,
0010
0200
0000
0000
,
0310
0000
1000
0000
,
1000
0200
0000
0300
,
1000
0000
0100
0000
,
1000
0020
0000
0030
,
1000
0000
0100
0000
,
0020
0000
0000
0000
,
0030
0000
0000
0000
;

//--------------- dance-single - B. M'Rey ----------------
#NOTEDATA:;
#STEPSTYPE:dance-single;
#DESCRIPTION:B. M'Rey;
#DIFFICULTY:Medium;
#METER:7;
#RADARVALUES:0,0,0,0,0;
#NOTES:
0000
0000
0000
0001
,
1000
0000
0010
0001
,
0010
0000
0000
1000
0000
0000
0000
0000
,
1000
0000
0000
0100
0000
0000
0000
0000
,
0010
0001
0010
0000
,
1000
0100
1000
0100
,
0010
0000
0000
0010
0000
0000
0000
0000
,
1000
0000
0000
0001
0000
0000
0010
0000
,
1000
0010
0100
0000
,
0100
0001
0010
0001
,
0010
0000
0000
1000
0000
0000
0010
0000
,
2000
0000
3020
0000
,
0130
0000
0000
1000
0000
0000
0100
0000
,
0010
0001
0010
0001
,
0010
0000
0000
0100
0000
0000
0010
0000
,
0100
0001
0100
0001
,
0200
0000
0000
0000
,
0300
0000
0000
0010
,
0200
0000
0310
0001
,
0200
0000
0000
0320
0000
0000
0000
0000
,
0031
0000
0100
0010
0000
0000
0100
0000
,
1000
0100
1000
0010
,
0200
0000
0310
0010
,
2000
0000
0000
3002
0000
0000
0000
0000
,
1003
0000
0010
0100
0000
0000
0010
0000
,
0100
0010
1000
0001
,
0010
0001
0010
0001
,
0100
0000
0010
0200
0000
0000
0000
0000
,
2300
0000
3020
0000
,
0130
0000
0001
0010
0000
0000
0001
0000
,
1000
0001
1000
0100
,
1000
0000
0010
0100
0000
0000
0001
0000
,
0100
0000
0010
0000
0100
0000
0010
2000
,
0000
0000
0000
3001
,
1000
0100
0010
0100
,
0010
0100
1000
0010
,
1000
0010
1000
0001
,
0010
0001
0010
0001
,
1000
0010
1000
0010
,
1000
0001
0100
0001
,
0100
0001
1000
0100
,
0010
0100
0010
0100
,
1000
0001
1000
0001
,
1000
0010
0100
0010
,
0100
0010
1000
0001
,
1000
0001
1000
0010
,
0100
0010
0100
0010
,
1000
0100
1000
0100
,
1000
0001
0010
0001
,
0010
0001
1000
0010
,
2000
0000
3001
0100
,
0020
0000
0000
0230
0000
0000
0000
0000
,
1300
0000
0001
1000
0000
0000
0001
0000
,
0100
0010
0100
0010
,
0200
0000
1300
0001
,
2000
0000
0000
3200
0000
0000
0000
0000
,
0301
0000
0010
0100
0000
0000
0001
0000
,
1000
0001
1000
0100
,
0010
0001
0010
0100
,
0010
0000
0100
2000
0000
0000
0000
0000
,
3002
0000
2003
0000
,
3100
0000
0001
0100
0000
0000
0001
0000
,
0100
0010
1000
0100
,
0010
0200
0000
0301
,
0010
0100
1000
0100
,
0020
0000
0000
0000
,
0030
0000
0000
0000
;

//--------------- dance-single - B. M'Rey ----------------
#NOTEDATA:;
#STEPSTYPE:dance-single;
#DESCRIPTION:B. M'Rey;
#DIFFICULTY:Hard;
#METER:10;
#RADARVALUES:0,0,0,0,0;
#NOTES:
0000
0000
0000
0001
,
0100
0000
0000
0010
0001
0000
0001
0000
,
1001
0000
0000
0110
0000
0000
0000
0000
,
0100
0000
0100
0010
0000
0000
0001
0000
,
0001
0000
0010
0000
0010
0100
0000
0000
,
0001
0000
0001
0000
0100
0010
0100
0000
,
0100
0000
0000
1000
0000
0000
0000
0000
,
0100
0000
0100
1000
0000
0000
0001
0000
,
0100
0000
0010
0000
0100
1000
0000
0000
,
0001
0000
0001
0100
0010
0000
0010
0000
,
0010
1000
0100
1000
0000
0000
0100
0000
,
0002
0000
0003
1000
0200
0000
0300
1000
,
0002
0000
0003
1000
0000
0000
0100
1000
,
0100
0000
0010
0100
0001
0010
0001
0000
,
0001
0000
0010
0100
0000
0000
0010
1000
,
0100
0010
0100
0010
,
0200
0000
0000
0000
,
0300
0000
0000
0100
,
0010
0000
0000
0010
0001
0010
0100
1000
,
0020
0000
0000
0230
0000
0000
0000
0000
,
0310
0100
0010
2000
0000
0000
3001
0010
,
0001
0000
0001
0000
0010
0000
0010
0100
,
0002
0000
0000
0103
0001
0100
0010
0100
,
0020
0000
0000
2030
0000
0000
0000
0000
,
3001
0100
0010
0200
0000
0000
0310
1000
,
0100
0000
1000
0000
0100
0000
0010
1000
,
0100
0000
0001
0000
0010
0000
0010
0100
,
0010
1000
0100
2000
0000
0000
0000
0000
,
3002
0000
0000
0013
0002
0000
0000
0013
,
0100
0000
0100
2000
0000
0000
3001
0010
,
0100
0100
0001
0001
,
0100
0010
0100
0020
0000
0000
0031
0010
,
0100
0000
0001
0000
0010
0100
0001
2000
,
0000
0000
0000
3001
,
0010
0100
0010
0000
0100
1000
0001
0000
,
0001
0100
0001
0000
0010
0100
0010
0000
,
0010
0000
0001
0000
0001
0000
0001
0010
,
0100
0000
1000
0000
1000
0000
0001
1000
,
0100
0000
0100
0010
0001
0000
0001
1000
,
0001
0000
0010
1000
0010
0000
0010
1000
,
0001
0000
0001
0000
0001
0000
0100
1000
,
0100
0000
0010
0000
0010
0000
0001
0010
,
0001
0000
0001
0010
0100
0000
0100
1000
,
0100
0000
0001
0010
0000
1000
0001
0000
,
0100
0000
0100
0010
0100
0000
0001
0010
,
0001
1000
0001
1000
0000
0000
0010
0100
,
0001
0000
0001
0100
0010
0000
0010
1000
,
0010
0100
0001
0100
0000
0000
0010
1000
,
0010
0000
0010
0000
0001
0010
0001
0100
,
0020
0000
0100
0000
0100
0000
0031
0100
,
0010
0000
0001
0010
0001
0010
0001
0100
,
0010
0000
0010
0100
0000
0100
0001
0000
,
0001
1000
0001
2000
0000
0000
3010
0100
,
0010
0100
0001
1000
0001
0010
0001
1000
,
0200
0000
0000
1300
0001
0010
0001
1000
,
0001
0000
0010
0100
0000
1000
0010
0000
,
0001
1000
0001
0200
0000
0000
0310
0100
,
0010
1000
0010
0100
0001
0100
0001
0100
,
0010
0000
0010
0000
0100
0000
0100
0010
,
0100
0010
0001
0020
0000
0000
0000
0000
,
1030
0000
0010
0100
0010
0000
0001
0010
,
0001
0010
0001
0100
0000
0100
0010
0100
,
0001
0000
0001
0000
0100
0000
0100
1000
,
0100
0010
0001
0010
0000
0000
0100
0010
,
0100
1000
0010
1000
0010
0100
0010
0200
,
0000
0000
0000
0000
,
0300
0000
0000
0000
;
