#VERSION:0.83;
#TITLE:MEDIA NARANJA -super euro version-;
#ARTIST:FEY;
#GENRE:EUROBEAT;
#CREDIT:B. M'Rey;
#MUSIC:MEDIA NARANJA -super euro version-.ogg;
#BANNER:MEDIA NARANJA -super euro version-.png;
#BACKGROUND:MEDIA NARANJA -super euro version--bg.png;
#CDTITLE:./CDTITLES/Para Para Paradise.PNG;
#SAMPLESTART:76.829;
#SAMPLELENGTH:15;
#OFFSET:-0.029;
#BPMS:0=150;

//--------------- dance-single - B. M'Rey ----------------
#NOTEDATA:;
#STEPSTYPE:dance-single;
#DESCRIPTION:B. M'Rey;
#CREDIT:B. M'Rey;
#DIFFICULTY:Beginner;
#METER:2;
#RADARVALUES:0,0,0,0,0;
#NOTES:
0000
0000
0000
0000
,
0000
0000
0000
0000
,
0000
0000
0000
0000
,
0000
0000
0000
0000
,
0001
0000
0001
0000
,
1000
0000
1000
0000
,
0010
0000
0100
0000
,
0010
0000
0001
0000
,
1000
0000
0100
0000
,
1000
0000
0001
0000
,
0010
0000
0000
0000
,
0001
0000
0000
0000
,
0100
0000
0000
0000
,
0010
0000
1000
0000
,
0001
0000
0000
0000
,
0100
0000
0010
0000
,
1000
0000
0001
0000
,
0100
0000
0000
0000
,
0010
0000
0001
0000
,
1000
0000
0000
0000
,
0001
0000
0010
0000
,
0001
0000
0100
0000
,
0010
0000
0000
0000
,
1000
1000
1000
0000
,
0001
0000
0100
0000
,
0010
0000
1000
0000
,
0001
0000
0000
0000
,
0001
0001
0001
0000
,
0100
0000
0010
0000
,
1000
0000
0001
0000
,
0010
0000
0001
0000
,
0100
0000
0010
0000
,
1001
0000
0010
0000
,
0100
0000
0010
0000
,
1000
0000
0000
0000
,
0010
0010
0010
0000
,
0100
0000
0001
0000
,
0010
0000
1000
0000
,
0100
0000
0000
0000
,
0100
0100
0100
0000
,
0001
0000
0010
0000
,
0001
0000
1000
0000
,
0010
0000
0100
0000
,
0001
0000
1000
0000
,
1001
0000
0010
0000
,
0100
0000
0001
0000
,
0010
0000
0001
0000
,
1001
0000
0000
0000
,
1000
0000
0001
0000
,
0100
0010
0100
0000
,
0001
0000
0010
0000
,
0001
0000
1000
0000
,
0100
0000
1000
0000
,
0010
0000
0100
0000
,
0001
0000
0000
0000
,
1000
0000
0000
0000
,
0010
0000
0100
0000
,
0001
0010
0001
0000
,
1000
0000
0010
0000
,
0100
0000
0001
0000
,
1000
0000
0010
0000
,
0100
0000
1000
0000
,
0001
0000
0000
0000
,
0100
0000
0000
0000
,
0020
0000
0000
0000
,
0000
0000
0000
0000
,
0000
0000
0000
0000
,
0000
0000
0000
0000
,
0030
0000
0000
0000
;

//--------------- dance-single - B. M'Rey ----------------
#NOTEDATA:;
#STEPSTYPE:dance-single;
#DESCRIPTION:B. M'Rey;
#CREDIT:B. M'Rey;
#DIFFICULTY:Easy;
#METER:7;
#RADARVALUES:0,0,0,0,0;
#NOTES:
0000
0000
0000
0000
,
0000
0000
0000
0000
,
0000
0000
0000
0000
,
0000
0000
0000
0000
,
0001
1000
0001
1000
,
0001
0100
0010
0100
,
0010
0100
0001
0010
,
0001
0100
0001
0100
,
0110
0100
0010
1000
,
0010
1000
0100
1000
,
0100
0010
0100
0010
,
0001
0010
0001
0110
,
0001
0100
0010
0100
,
0010
1000
0100
1000
,
0010
1000
0100
0010
,
0100
0010
0100
1000
,
0001
1000
0010
1000
,
0001
0100
0010
0100
,
0001
0100
0001
0010
,
0001
0100
0010
0100
,
0010
0100
0001
1000
,
0001
1000
0010
1000
,
0010
0100
0010
0100
,
0101
0101
0101
0101
,
0010
1000
0010
0100
,
0001
1000
0001
1000
,
0001
0100
0010
0100
,
0110
0110
0110
0110
,
0001
0010
0001
1000
,
0100
1000
0001
0100
,
0010
0100
0010
0100
,
0001
1000
0001
1000
,
0001
0100
0010
1000
,
0001
1000
0010
1000
,
0010
0100
0010
0100
,
0101
0101
0101
0101
,
0001
1000
0100
1000
,
0100
0010
0100
0010
,
0001
0010
0100
1000
,
1010
1010
1010
1010
,
0100
0010
0100
0010
,
0100
1000
0001
1000
,
0001
0010
0100
0010
,
0100
1000
0001
1000
,
0110
1000
0100
0010
,
0100
0010
0001
0010
,
0001
1000
0001
0100
,
0110
0000
0000
0000
,
0001
0010
0100
1000
,
0010
1000
0010
1000
,
0001
0100
0001
0100
,
0001
1000
0010
1000
,
0110
1000
0100
0010
,
0100
0010
0100
1000
,
0010
1000
0010
1000
,
0100
0010
0100
0010
,
0100
1000
0001
0100
,
0001
0100
0001
1000
,
0100
1000
0100
1000
,
0001
0100
0010
1000
,
0010
1000
0010
0100
,
0001
0100
0001
0100
,
0010
1000
0100
1000
,
0100
1000
0010
0100
,
0220
0000
0000
0000
,
0000
0000
0000
0000
,
0000
0000
0000
0000
,
0000
0000
0000
0000
,
0330
0000
0000
0000
;

//--------------- dance-single - B. M'Rey ----------------
#NOTEDATA:;
#STEPSTYPE:dance-single;
#DESCRIPTION:B. M'Rey;
#CREDIT:B. M'Rey;
#DIFFICULTY:Medium;
#METER:9;
#RADARVALUES:0,0,0,0,0;
#NOTES:
0000
0000
0000
0000
,
0000
0000
0000
0000
,
0000
0000
0000
0000
,
0000
0000
0000
0000
,
0001
1000
0001
1000
0001
0000
0100
0010
,
0000
0010
0001
0100
0001
0000
1001
0000
,
0100
1000
0100
0000
0100
0010
0000
0010
,
0000
0100
0001
0100
0010
0000
0010
1000
,
0000
1000
0100
1000
0100
0000
0001
0000
,
0001
1000
0000
0100
0010
0100
0000
0100
,
0000
1000
0001
0000
0010
1000
0010
0001
,
0000
1000
0000
0001
0000
1000
0001
0000
,
0100
0010
0100
0000
0001
0100
0001
0010
,
0001
0000
0100
0010
0000
1000
0001
1000
,
0001
0000
0100
0010
0000
0010
0001
0010
,
0001
1000
0000
1000
0010
0000
0010
0000
,
0001
0100
0001
0010
0001
1000
0100
0000
,
0001
1000
0001
1000
0000
1000
0100
0000
,
0100
0010
0100
1000
0010
0000
0010
0000
,
0100
0010
0000
0010
0100
1000
0001
0010
,
0001
0000
0001
1000
0100
0000
0001
0000
,
0001
0100
0001
0100
0000
0100
0010
0000
,
0010
0000
0001
1000
0001
0000
0001
0010
,
0110
0011
1001
1001
,
0010
0000
0010
0100
0010
0000
0001
0000
,
0001
1000
0001
1000
0000
1000
0100
0000
,
0100
0000
0001
0010
0100
0000
0100
1000
,
0110
0011
0011
1100
,
0001
0000
0100
1000
0001
0000
0001
0000
,
0001
1000
0100
1000
0000
1000
0010
0000
,
0010
0100
0010
1000
0001
1000
0010
1000
,
0010
0100
0000
1000
0100
0000
0100
1000
,
0001
0001
0001
0100
,
0100
0010
0100
1000
0000
1000
0001
0000
,
0010
0000
0010
0100
0010
0000
0100
1000
,
0110
0110
0101
0101
,
0001
0000
0100
1000
0100
0000
0001
0000
,
0001
0100
0001
1000
0000
1000
0010
0000
,
0010
0000
0001
0100
0001
0000
0001
0010
,
0110
1100
1010
1010
,
0001
0100
0010
0000
0010
0000
0010
0000
,
0001
0100
0010
1000
0000
0100
0000
0100
,
0001
0100
0001
1000
0100
1000
0100
1000
,
0010
0100
0000
0100
0000
1000
0001
1000
,
0001
0000
1000
0000
0100
0000
0001
1000
,
0000
1000
0001
1000
0001
0000
0010
0000
,
0100
0000
0001
1000
0001
0000
0010
1000
,
0010
0010
0001
0001
,
0010
1000
0010
0100
0001
0000
0001
1000
,
0000
1000
0010
0100
0010
0000
0101
0000
,
0001
1000
0001
0000
0100
1000
0000
1000
,
0000
0010
0001
1000
0001
0000
0001
1000
,
0000
0010
0100
1000
0001
0000
0001
0000
,
0010
0000
0010
1000
0010
0000
0100
0010
,
0000
0010
0100
1000
0001
0000
0001
1000
,
0000
0010
0000
0100
0000
1000
0001
0000
,
0010
1000
0001
0010
0001
0000
0001
0100
,
0000
0100
0001
0100
0001
0000
1001
0000
,
0010
0100
0001
0000
0001
0100
0000
1000
,
0000
0100
0010
0100
0001
0000
0001
0010
,
0000
0010
0100
1000
0100
0000
0010
0000
,
0001
0000
0001
0100
0001
1000
0000
0010
,
0100
0000
0100
1000
0001
0000
0010
0000
,
0110
0000
0001
1000
0001
0000
0110
0000
,
0001
0100
0001
0100
0010
0000
0001
1000
,
0000
0010
0100
0010
0100
0000
1001
0000
,
0010
1000
0010
0000
0010
0100
0000
0010
,
0000
0010
0001
1000
0100
0000
0100
1000
,
2002
0000
0000
0000
,
3003
0000
0000
0000
;

//--------------- dance-single - B. M'Rey ----------------
#NOTEDATA:;
#STEPSTYPE:dance-single;
#DESCRIPTION:B. M'Rey;
#CREDIT:B. M'Rey;
#DIFFICULTY:Hard;
#METER:14;
#RADARVALUES:0,0,0,0,0;
#NOTES:
0000
0000
0000
0000
,
0000
0000
0000
0000
,
0000
0000
0000
0000
,
0000
0000
0000
0000
,
0001
0000
1000
0010
1000
0000
1000
0010
1000
0000
0001
0100
0001
0000
0100
0000
,
0001
0000
0100
0010
0100
0000
0100
0001
0100
0000
0000
0000
0110
0000
0000
0000
,
0100
1000
0001
0010
0001
1000
0000
1000
,
0000
1000
0010
0100
0010
0000
0001
0100
,
0001
0000
1000
0001
1000
0000
0010
0100
0010
0000
0100
0001
0100
0000
0000
0000
,
0001
0100
0010
0100
0010
0100
0001
1000
,
0100
1000
0100
1000
0001
0010
0001
0020
,
0000
2030
0000
3020
0000
1030
0010
0000
,
0010
0000
0100
0001
0100
0000
0100
0000
0001
0000
0010
0000
0001
0000
0010
0001
,
0100
0000
0010
0000
0100
0000
1000
0001
0100
0000
0010
0000
0001
0000
0010
0000
,
0001
1000
0010
0000
0100
0000
1000
0000
0100
0000
1000
0000
0010
1000
0010
0000
,
0010
0100
0010
0100
0001
1000
0001
1000
,
0001
1000
0001
0000
0100
0010
0100
0000
0100
0000
0010
0000
0001
0000
0100
0000
,
0010
0000
0100
0000
0010
0000
0100
0000
0001
0000
1000
0000
0100
1000
0100
0000
,
0100
1000
0001
0100
0001
0100
0001
0010
,
0100
1000
0100
0010
0100
0010
0001
0010
,
0001
0000
0001
1000
0010
1000
0010
0100
,
0010
0100
0001
1000
0010
0100
0010
0100
,
0010
1000
0100
1000
0001
1000
0001
0100
,
0101
0110
1010
1010
,
0100
1000
0001
0100
0001
0100
0001
1000
,
0100
1000
0100
1000
0010
0100
0010
0100
,
0010
1000
0001
0100
0001
0100
0001
1000
,
1100
1100
0110
0110
,
0010
1000
0001
0010
0001
0010
0100
0010
,
0100
1000
0001
0100
0001
0100
0010
0100
,
0010
1000
0010
1000
0001
1000
0010
0100
,
0010
0000
0100
0000
0010
0000
1000
0000
0001
0000
1000
0001
1000
0001
1000
0001
,
0010
0100
0001
0100
0010
0100
0010
1000
,
0010
1000
0100
1000
0100
0010
0100
0010
,
0001
0010
0001
1000
0001
0010
0100
0010
,
0110
0101
0011
0011
,
0100
0010
0100
1000
0100
1000
0001
0100
,
0001
0100
0001
0010
0100
0010
0100
0010
,
0001
1000
0001
1000
0001
0100
0010
0100
,
0110
1001
1001
0101
,
0010
0100
0010
0100
0001
1000
0001
1000
,
0001
0100
0010
0100
0010
0100
0001
0010
,
0001
0100
0001
0100
0010
1000
0001
0100
,
0001
0100
0001
1000
0010
1000
0010
0100
,
0010
0100
0001
0100
0001
0010
0001
1000
,
0100
1000
0100
1000
0010
0100
0001
0100
,
0001
0100
0010
1000
0010
0100
0010
0100
,
0101
0010
0001
0010
,
0001
0000
1000
0010
1000
0000
1000
0010
1000
0000
0100
0010
0100
0000
0100
0000
,
0001
0000
0100
0001
0100
0000
0010
0001
0010
0000
1000
0100
1000
0000
0010
0000
,
0100
0000
0010
0100
0010
0000
1000
0010
1000
0000
1000
0100
1000
0000
0010
0000
,
0100
0000
1000
0100
1000
0000
1000
0001
1000
0000
1000
0010
1000
0000
0100
0000
,
0010
0000
0100
0010
0100
0000
1000
0001
1000
0000
1000
0001
1000
0000
1000
0000
,
0100
0000
0010
0100
0010
0000
1000
0001
1000
0000
1000
0001
1000
0000
1000
0000
,
0100
0010
0001
0010
0001
0010
0100
1000
,
0100
1000
0001
1000
0001
0100
0001
0100
,
0010
0000
0100
0001
0100
0000
1000
0010
1000
0000
1000
0001
1000
0000
1000
0000
,
0001
0000
0100
0001
0100
0000
1000
0001
1000
0000
1000
0100
1000
0000
1000
0000
,
0001
0000
0010
0001
0010
0000
0010
0001
0010
0000
0100
0010
0100
0000
1000
0000
,
0010
0000
1000
0001
1000
0000
1000
0001
1000
0000
0100
0001
0100
0000
0100
0000
,
0010
0000
0100
0010
0100
0000
1000
0010
1000
0000
1000
0100
1000
0000
1000
0000
,
0100
0000
0010
0100
0010
0000
0010
0001
0010
0000
0010
0001
0010
0000
1000
0010
,
1000
0000
1000
0100
1000
0000
1000
0000
0100
0000
0010
0000
0100
0000
0010
0000
,
0001
0010
0001
1000
0001
0100
0010
0100
,
0010
0000
0100
0001
0100
0000
0010
0001
0010
0000
0010
0001
0010
0000
1000
0000
,
0100
0000
1000
0100
1000
0000
1000
0001
1000
0000
0010
0001
0010
0000
0010
0000
,
0001
0000
1000
0100
1000
0000
1000
0010
1000
0000
1000
0000
0010
0000
0100
0010
,
0100
0000
1000
0001
1000
0000
1000
0001
1000
0000
1000
0000
0100
0000
0010
0000
,
0002
0000
0000
0000
,
0003
0000
0000
0000
;

//--------------- dance-double - B. M'Rey ----------------
#NOTEDATA:;
#STEPSTYPE:dance-double;
#DESCRIPTION:B. M'Rey;
#CREDIT:B. M'Rey;
#DIFFICULTY:Easy;
#METER:7;
#RADARVALUES:0,0,0,0,0;
#NOTES:
00000000
00000000
00000000
00000000
,
00000000
00000000
00000000
00000000
,
00000000
00000000
00000000
00000000
,
00000000
00000000
00000000
00000000
,
00010000
00000000
00010000
00000000
,
10000000
00000000
10000000
00000000
,
00100000
00000000
01000000
00000000
,
00100000
00000000
00010000
00000000
,
00001000
00000000
00000100
00000000
,
00001000
00000000
00000010
00000000
,
00000001
00000000
00000000
00000000
,
00001000
00000000
00000000
00000000
,
00000100
01000000
00010000
00001000
,
00000100
00001000
00010000
00000100
,
00001000
00000100
00010000
00001000
,
00010000
01000000
10000000
01000000
,
00010000
01000000
00010000
01000000
,
00100000
10000000
01000000
00100000
,
01000000
00100000
00010000
00001000
,
00000100
00001000
00000100
00001000
,
00000010
00000000
00000100
00000000
,
00001000
00000000
01000000
00000000
,
00100000
00000000
00010000
00000000
,
00010000
00001000
00010000
00001000
,
00011000
00000000
01000000
00000000
,
00100000
00000000
10000000
01000000
,
00010000
00000000
00001000
00000000
,
00001000
00010000
00001000
00010000
,
00001000
00000000
00000100
00000000
,
00000001
00000010
00001000
00000000
,
00000100
00000000
00010000
00000000
,
01000000
10000000
00100000
00000000
,
10010000
00000000
00100000
00000000
,
01000000
00010000
00001000
00000100
,
00000010
00000000
00000000
00000000
,
00010000
00000100
00010000
00000100
,
01010000
10000000
00010000
00000000
,
00100000
01000000
10000000
00000000
,
01000000
00000000
00010000
00000000
,
00001000
01000000
00001000
00100000
,
00010100
00000000
00000100
00000000
,
00001000
00000100
00000001
00000000
,
00000100
00000001
00000010
00000100
,
00001000
00000000
00010000
00000000
,
10010000
00000000
00100000
00000000
,
01000000
00100000
00010000
00001000
,
00100000
00000000
00001000
00000000
,
00011000
00000000
00000000
00000000
,
00011000
01000000
00001000
00100000
,
00001000
00010000
01000000
00010000
,
01000000
00100000
00001000
00000100
,
00001000
00000100
00001000
00000001
,
00000010
00000100
00001000
00010000
,
00001000
00010000
00001000
00010000
,
00110000
00000000
00100000
00000000
,
11000000
00000000
01000000
00000000
,
00010000
10000000
00010000
00100000
,
00010000
00000100
00000010
00000100
,
00000010
00001000
00000001
00000010
,
00000001
00001000
00010000
01000000
,
00010000
01000000
00010000
10000000
,
01000000
00100000
00010000
00000100
,
00010000
00000000
00000100
00000000
,
00000100
00000000
00010000
00000000
,
00022000
00000000
00000000
00000000
,
00000000
00000000
00000000
00000000
,
00000000
00000000
00000000
00000000
,
00000000
00000000
00000000
00000000
,
00033000
00000000
00000000
00000000
;

//--------------- dance-double - B. M'Rey ----------------
#NOTEDATA:;
#STEPSTYPE:dance-double;
#DESCRIPTION:B. M'Rey;
#CREDIT:B. M'Rey;
#DIFFICULTY:Medium;
#METER:9;
#RADARVALUES:0,0,0,0,0;
#NOTES:
00000000
00000000
00000000
00000000
,
00000000
00000000
00000000
00000000
,
00000000
00000000
00000000
00000000
,
00000000
00000000
00000000
00000000
,
00100000
10000000
00100000
01000000
,
00100000
00001000
01000000
00001000
,
00010000
00001000
00000100
00100000
,
00000100
00000010
00010000
00001000
,
00000010
00000100
00000001
00000010
,
00000001
00000010
00000100
00001000
,
00010000
00100000
01000000
10000000
,
00010000
00000100
00000010
00001100
,
00001000
00010000
00100000
00000000
00010000
00000000
10000000
00000000
,
01000000
00100000
10000000
00000000
01000000
00000000
10000000
00000000
,
00010000
00000100
00000010
00000000
00000010
00000000
00000001
00000010
,
00000100
00000000
00001000
00000100
00000010
00000000
00000100
00000000
,
00000010
00000100
00001000
00000000
00010000
00000000
01000000
00000000
,
00100000
00001000
00010000
00000000
00100000
00000000
00010000
00000000
,
01000000
00100000
10000000
00000000
01000000
00000000
10000000
00000000
,
00100000
01000000
10000000
00000000
00010000
00001000
00000100
00000000
,
00011000
01000000
00010000
00100000
,
01000000
10000000
00010000
00000100
,
00000010
00000100
00000010
00000001
,
00000010
00000100
00000010
00000000
00001000
00010000
00100000
00000000
,
00010000
10000000
00100000
01000000
,
00010000
00001000
00010000
00001000
,
00000100
00000010
00000100
00001000
,
00000010
00000100
00001000
00000000
00010000
00100000
00010000
00000000
,
01010000
00100000
00010000
10000000
,
00100000
10000000
01000000
00100000
,
00010000
00000100
00000010
00001000
,
00000010
00000000
00001000
00000000
00000100
00000001
00000010
00000100
,
00000001
00000100
00000010
00001000
,
00000100
00000010
00000100
00000010
,
00000100
00001000
00010000
00100000
,
01000000
00001000
00100000
00000000
00010000
00000100
00100000
00000000
,
00010000
01000000
00010000
01000000
,
00100000
10000000
00100000
01000000
,
00010000
00000010
00000100
00001000
,
00010000
10000000
00100000
00000000
00010000
00000100
00000010
00000000
,
00000100
00001000
00000100
00001000
,
00000100
00000010
00000001
00000100
,
00001000
00000010
00001000
00000010
,
01000000
10000000
01000000
10000000
,
01010000
01000000
00010000
00100000
,
01000000
00100000
00010000
00000100
,
00000010
00001000
00000001
00001000
,
00011000
00000000
00010000
00000000
,
00100000
01000000
00010000
10000000
,
00100000
01000000
00100000
00001000
,
00100000
00000100
00010000
00001000
,
00000010
00000100
00010000
00000100
,
00010000
00001000
00000100
00000010
,
00000001
00000010
00001000
00000010
,
00010000
00100000
00010000
00001000
,
00100000
00001000
00100000
01000000
,
00100000
01000000
10000000
01000000
,
10000000
01000000
00100000
01000000
,
00100000
01000000
00010000
00001000
,
00100000
00001000
01000000
00100000
,
00010000
00000100
00010000
00001000
,
00000100
00000010
00010000
00001000
,
00100000
00000100
00001000
00000010
,
00001000
00001000
00010000
00000100
,
00022000
00000000
00000000
00000000
,
00000000
00000000
00000000
00000000
,
00000000
00000000
00000000
00000000
,
00000000
00000000
00000000
00000000
,
00033000
00000000
00000000
00000000
;

//--------------- dance-double - B. M'Rey ----------------
#NOTEDATA:;
#STEPSTYPE:dance-double;
#DESCRIPTION:B. M'Rey;
#CREDIT:B. M'Rey;
#DIFFICULTY:Hard;
#METER:11;
#RADARVALUES:0,0,0,0,0;
#NOTES:
00000000
00000000
00000000
00000000
,
00000000
00000000
00000000
00000000
,
00000000
00000000
00000000
00000000
,
00000000
00000000
00000000
00000000
,
00010000
01000000
00100000
01000000
00100000
00000000
00100000
01000000
,
00100000
01000000
00100000
00001000
00010000
00000000
00011000
00000000
,
00100000
00000100
00010000
00000000
00010000
00100000
00000100
00100000
,
00010000
00001000
00000100
00001000
00000100
00000000
00000010
00001000
,
00000100
00001000
00000001
00001000
00010000
00000000
00011000
00000000
,
00010000
00100000
01000000
00001000
00100000
01000000
00010000
00001000
,
00010000
00001000
00010000
00000000
00100000
10000000
01000000
00100000
,
01000000
10000000
00100000
01000000
00010000
01000000
00010000
00000000
,
00100000
00001000
00100000
00000000
00100000
00001000
00100000
01000000
,
00100000
00000000
00000100
00001000
00010000
00000100
00010000
00100000
,
00010000
00000000
00000100
00000010
00010000
00001000
00000100
00001000
,
00000001
00000010
00000100
00000010
00000100
00000000
00001010
00000000
,
00010000
00100000
01000000
00100000
00010000
01000000
00010000
00000000
,
00100000
01000000
00100000
01000000
00100000
10000000
01000000
00000000
,
00100000
01000000
00100000
10000000
00010000
00000000
00000100
00000000
,
00010000
00000100
00010000
00001000
00010000
00001000
00100000
00001000
,
00010000
00000000
00001000
00000001
00001000
00000000
00001001
00000000
,
00000100
00001000
00000100
00001000
00000100
00010000
00100000
00000000
,
00010000
00000000
00010000
10000000
00010000
00000000
01000000
10000000
,
10010000
10010000
00010010
00010010
,
00000100
00000000
00000001
00001000
00000010
00000000
00000101
00000000
,
00001000
00000010
00001000
00000010
00001000
01000000
00010000
00000000
,
01000000
00000000
00010000
00001000
00010000
00000000
00100000
10000000
,
00110000
00110000
00001100
00001100
,
00011000
00000000
00010000
00100000
00010000
00000000
10010000
00000000
,
00010000
10000000
00010000
10000000
00010000
00100000
01000000
00000000
,
00010000
00001000
01000000
00100000
01000000
00100000
01000000
00001000
,
00100000
00000000
01000000
00000000
00100000
00000000
01000000
00000000
00010000
00001000
00010000
00001000
00010000
00001000
00010000
00000000
,
00100000
00010100
00110000
00000100
,
00010000
00001000
00010000
00001000
00010000
00000100
00000010
00000000
,
00000010
00000000
00000001
00001000
00000001
00000000
00000001
00000100
,
00001010
00001010
01010000
01010000
,
00010000
00000000
00010000
10000000
00010000
00000000
10010000
00000000
,
00010000
00100000
00010000
01000000
00010000
01000000
00100000
00000000
,
00110000
00000000
00010000
10000000
00010000
00000000
00010000
10000000
,
01001000
01001000
00010010
00010010
,
00001000
00000010
00000100
00000000
00000010
00000000
00000100
00000000
,
00001000
00000001
00001000
00000001
00001000
00000010
00000100
00000010
,
00000100
00000010
00010000
00001000
00100000
00001000
01000000
00001000
,
01000000
00100000
01000000
00100000
00010000
00100000
00010000
10000000
,
00010000
00000000
10000000
00000000
01000000
00000000
00010000
01000000
,
00010000
01000000
00010000
00100000
01000000
10000000
01000000
00100000
,
01000000
00000000
00010000
00001000
01000000
00000000
00010000
00001000
,
01100000
00100000
00010000
00100000
,
00010000
00000010
00010000
00000010
00010000
00000000
00010000
00001000
,
00010000
00000100
00010000
00000100
00000010
00000000
00001001
00000000
,
00001000
00000001
00001000
00000000
00001000
00000001
00001000
00001000
,
00010000
00001000
00010000
00001000
00010000
00000000
00010000
10000000
,
00010000
10000000
00010000
00100000
01000000
00000000
00110000
00000000
,
00010000
01000000
00010000
10000000
00010000
00000000
01000000
00100000
,
00000000
00010000
00001000
00010000
00001000
00000000
00010000
00000100
,
00010000
00000000
00000100
00000000
00010000
00000000
00001000
00000000
00100000
00010000
00100000
00010000
00100000
00000000
00000000
00000000
,
00001000
00000001
00001000
00000001
00001000
00000000
00000100
00000010
,
00000100
00000010
00000100
00000001
00000010
00000000
00011000
00000000
,
00010000
10000000
00010000
00000000
00100000
10000000
00100000
10000000
,
00100000
01000000
00010000
00001000
00100000
00000000
00001000
00000100
,
00001000
00000100
00001000
00000001
00001000
00000000
00001001
00000000
,
00001000
00010000
00000100
00010000
00000100
00010000
00100000
01000000
,
00100000
00000000
00010000
01000000
00010000
00000000
10100000
00000000
,
01100000
00000000
01000000
10000000
01000000
00000000
00010000
00001000
,
00010000
00001000
00010000
01000000
00010000
00000000
00010000
00001000
,
00010000
00000100
00001000
00000100
00001000
00000000
00011000
00000000
,
00100000
00000100
00100000
00000000
00100000
01000000
00000000
00100000
,
01000000
00010000
01000000
00010000
01000000
00100000
10000000
00100000
,
00022000
00000000
00000000
00000000
,
00033000
00000000
00000000
00000000
;
