#TITLE:MARIA(I believe...);
#SUBTITLE:(SPEED MIX);
#ARTIST:NAOKI feat. PAULA TERRY;
#GENRE:HAPPY HARDCORE;
#MUSIC:MARIA (I believe...) (Speedix).ogg;
#BANNER:MARIA (I believe...) (Speedix)-bn.png;
#BACKGROUND:MARIA (I believe...) (Speedix)-bg.png;
#CDTITLE:./CDTITLES/DANCE DANCE REVOLUTION EXTREME 3.PNG;
#SAMPLESTART:46.632;
#SAMPLELENGTH:12.000;
#OFFSET:-0.035;
#BPMS:0=167.394;

//--------------- dance-single - B. M'Rey ----------------
#NOTES:
     dance-single:
     B. M'Rey:
     Beginner:
     2:
     0,0,0,0,0:
0000
0000
0000
0000
,
0000
0000
0000
0000
,
0000
0000
0000
0000
,
0000
0000
0000
0000
,
0000
0000
0000
0000
,
0000
0000
0000
0000
,
0000
0000
0000
0000
,
0000
0000
0000
0000
,
0000
0000
0001
0000
,
0000
0000
0100
0000
,
0000
0000
0010
0000
,
0000
0000
1000
0000
,
0000
0000
0100
0000
,
0100
0000
0010
0000
,
0010
0000
0001
0000
,
0001
0000
1000
0000
,
0000
0000
0010
0000
,
0100
0000
0010
0000
,
0100
0000
0010
0000
,
0000
0000
0000
0000
,
1000
0000
0001
0000
,
0010
0000
0000
0000
,
1000
0000
0010
0000
,
0100
0000
0000
0000
,
0001
0000
1000
0000
,
0000
0000
0000
0000
,
0010
0000
0100
0000
,
0000
0000
0001
0000
,
0000
0000
0010
0000
,
0100
0000
1000
0000
,
0010
0000
0100
0000
,
0000
0000
0001
0000
,
0000
0000
1000
0000
,
0000
0000
0010
0000
,
0000
0000
0100
0000
,
0000
0000
0010
0000
,
0000
0000
0001
0000
,
1000
0000
0001
0000
,
0000
0000
0100
0000
,
0010
0000
0100
0000
,
0010
0000
0001
1000
,
0000
0000
0100
0000
,
0000
0010
0000
0000
,
0000
0001
0000
0000
,
0000
0000
0100
0000
,
0000
0000
0010
0000
,
0000
0000
1000
0000
,
0000
0000
0001
0000
,
0000
0000
0100
0000
,
0010
0000
0000
0000
,
0001
0000
1000
0000
,
0010
0000
0100
0000
,
0000
0000
0010
0000
,
0001
0000
0100
0000
,
0000
0000
0010
0000
,
1000
0000
0000
0000
,
0000
0000
0100
0000
,
0000
0000
0010
0000
,
0000
0000
0001
0000
,
0000
0000
1000
0000
,
0000
0000
0010
0000
,
0000
0000
0100
0000
,
0000
0000
0010
0000
,
0000
0000
0001
0000
,
0000
0000
1000
0000
,
0001
0000
0010
0000
,
0100
0000
0010
0000
,
1000
0000
0100
0000
,
0000
0000
0010
0000
,
0001
0000
0100
0000
,
0010
0000
1000
0000
,
0100
0000
1000
0000
,
0010
0000
0100
0000
,
0000
0000
0020
0000
,
0030
0000
0000
0000
;

//--------------- dance-single - B. M'Rey ----------------
#NOTES:
     dance-single:
     B. M'Rey:
     Easy:
     4:
     0,0,0,0,0:
0000
0000
0000
0000
,
0000
0000
0000
0000
,
0000
0000
0000
0000
,
0000
0000
0000
0000
,
0000
0000
0000
0000
,
0000
0000
0000
0000
,
0000
0000
0000
0000
,
0000
0000
0000
0000
,
0000
0000
0010
0000
,
0100
0000
0010
0000
,
1000
0000
0100
0000
,
0010
0001
0010
0000
,
0000
0010
1000
0000
,
0100
0010
1000
0000
,
0010
0100
0020
0000
,
0031
0000
2000
0000
,
3100
0000
0110
0000
,
1100
0000
1001
0000
,
1000
0010
0100
0000
,
1000
0000
0100
0001
,
0100
0010
0100
0000
,
1000
0000
0010
0100
,
1000
0010
0200
0000
,
0301
0000
0100
0010
,
1000
0010
2000
0000
,
3010
0000
0100
0000
,
0010
0001
0100
0001
,
0100
0010
1000
0000
,
0010
0001
0100
0000
,
0100
0001
0010
0000
,
1000
0001
1000
0000
,
0200
0000
0310
0000
,
1000
0000
0010
0001
,
0010
0000
1000
0100
,
1000
0000
0100
0000
,
0100
0000
1000
0010
,
0100
0001
1000
0001
,
0100
0001
0100
0000
,
1000
0010
0200
0000
,
2300
0000
3020
0000
,
2030
0000
3100
0100
,
0010
0001
0010
0001
,
0100
0001
1000
0010
,
1000
0010
0100
0001
,
0010
0100
0010
0100
,
0010
0001
0100
0010
,
0100
0010
1000
0100
,
0010
0100
0010
0001
,
1000
0100
0010
0000
,
2000
0000
3010
0000
,
0010
0100
1000
0000
,
1000
0000
1000
0000
,
0000
0100
0010
0000
,
1000
0001
0010
0000
,
0100
0001
0100
0000
,
2000
0000
0000
3000
,
0000
0000
0010
0001
,
0010
0000
1000
0010
,
1000
0000
0100
0000
,
0100
0000
0100
0000
,
0010
0100
1000
0010
,
0100
0001
0100
0000
,
0010
0001
0100
0000
,
1000
0000
1000
0000
,
0100
0000
0010
0100
,
1000
0000
1000
0001
,
0010
0000
0010
0000
,
0100
0000
1000
0000
,
1000
0100
0010
0000
,
0100
0010
0100
0000
,
1000
0100
0010
0000
,
0100
0000
0001
0000
,
0100
0000
1000
0001
,
1000
0000
0001
0000
0010
0000
0000
0110
;

//--------------- dance-single - B. M'Rey ----------------
#NOTES:
     dance-single:
     B. M'Rey:
     Medium:
     6:
     0,0,0,0,0:
0000
0000
0000
0000
,
0000
0000
0000
0000
,
0000
0000
0000
0000
,
0000
0000
0000
0000
,
0000
0000
0000
0000
,
0000
0000
0000
0000
,
0000
0000
0000
0000
,
0000
0000
0000
0000
,
0000
0000
0010
0100
,
1000
0100
1000
0100
,
0000
0000
0001
0000
0010
0000
0000
0010
,
0000
0100
0000
1000
0000
0000
0010
0000
,
1000
0000
0010
0000
1000
0000
0001
0010
,
0000
0100
0000
1000
0000
0001
0010
0000
,
0100
0000
0010
1000
0010
0000
0200
0001
,
0000
0300
0000
0000
0100
0000
0000
0010
,
1000
0100
1100
0100
,
1010
0010
0101
0010
,
1000
0000
0001
0010
0100
0000
0001
0000
,
0100
0010
0100
0010
,
1000
0000
0001
0000
1000
0000
0010
0100
,
0000
0100
0010
0000
0100
0000
0010
0000
,
1000
0000
0100
0000
2000
0000
0000
3010
,
0100
0010
1000
0010
,
0100
0000
0001
0000
0200
0000
0000
0310
,
0100
0001
1000
0100
,
1000
0010
0001
0000
0100
0000
0001
0010
,
0000
0100
0000
0010
1000
0000
0001
0000
,
1000
0000
0010
0000
0100
0000
0000
0010
,
0000
0100
0010
0000
1000
0000
0000
0001
,
0100
0000
0010
0000
1000
0000
0000
0010
,
1000
0010
0100
0001
,
0100
0000
0001
0000
0010
1000
0100
1000
,
0000
0000
0010
0000
1000
0100
0010
0100
,
0000
0000
0010
0000
2000
0000
0000
0001
,
0000
0100
0000
3010
0000
0000
0001
0000
,
1000
0000
0100
0000
1000
0000
0001
1000
,
0000
0010
0000
0100
0000
0000
0000
0010
,
0100
0000
0010
0000
2000
0000
0000
3100
,
0010
0000
0100
0000
2000
0000
0000
3001
,
0010
0000
0001
0000
1001
0000
0100
0001
,
0010
0000
0100
0010
1000
0000
1000
0010
,
0100
0000
0010
0100
1000
0000
0010
0001
,
0010
0000
1000
0100
0010
0000
1000
0000
,
1000
0000
0010
0000
0010
0000
1000
0100
,
0010
0000
0100
0010
1000
0000
0010
0100
,
1000
0000
1000
0100
0010
0000
1000
0010
,
1000
0000
0010
0001
0010
0000
1000
0000
,
0010
0000
0100
0000
1000
0000
0001
1000
,
0001
0000
0010
0000
0100
0000
0010
0100
,
1000
0000
0001
0100
0010
0000
0001
0000
,
2000
0000
0000
3010
2000
0000
0000
3000
,
0100
0000
0001
0010
0100
0000
0010
0000
,
1000
0010
0100
0000
1000
0000
0000
0000
,
1000
0000
0100
0000
0010
0000
0000
0001
,
0010
0100
0010
0100
,
1000
0000
0100
0000
0010
1000
0001
0010
,
0000
0000
0001
0000
0100
0010
0100
1000
,
0000
0000
0010
0000
0200
0000
0000
0010
,
0000
0001
0000
0010
0300
0000
0100
0000
,
1000
0000
0001
0000
1000
0000
0100
0010
,
0000
0100
0000
0010
0000
1000
0001
0000
,
1000
0000
0010
0000
1000
0000
0001
0100
,
0010
0100
1000
0100
,
1000
0010
0001
0000
0100
0001
1000
0010
,
0000
0000
0001
1000
0100
0001
0010
0100
,
0000
0000
0010
0000
2000
0000
0000
0010
,
0000
0100
0010
0000
3010
0000
0010
0000
,
0100
0000
0001
0000
0010
0000
0001
0010
,
0000
0100
0000
0010
0000
1000
0001
0000
,
1000
0000
0100
0000
2000
0000
0000
3001
,
0200
0000
0000
0300
0200
0000
0000
0310
,
2000
0000
3010
0100
,
1000
0000
0010
0000
1000
0000
0000
0110
;

//--------------- dance-single - B. M'Rey ----------------
#NOTES:
     dance-single:
     B. M'Rey:
     Hard:
     8:
     0,0,0,0,0:
0000
0000
0000
0000
,
0000
0000
0000
0000
,
0000
0000
0000
0000
,
0000
0000
0000
0000
,
0000
0000
0000
0000
,
0000
0000
0000
0000
,
0000
0000
0000
0000
,
0000
0000
0000
0000
,
0000
0000
0000
0000
1000
0001
0100
0001
,
0000
0001
1000
0010
0100
0000
0010
0001
,
0000
0001
0010
0000
1000
0000
0100
0000
,
0010
0001
0000
0001
0100
0000
1000
0000
,
0100
0000
1000
0001
0100
0000
1000
0001
,
0000
0010
0000
0100
0010
0000
0010
0001
,
1000
0000
1000
0001
0100
0000
1000
0100
,
1000
0000
0010
0001
0010
0000
0100
0010
,
0100
1000
0011
0100
,
1010
0000
0100
0000
1100
0000
0010
0100
,
1000
0001
0100
0001
0010
0000
1000
0001
,
0100
0000
1000
0000
0001
0000
1000
0010
,
0100
0000
1000
0000
1000
0010
0000
0100
,
0010
0000
0010
0001
0000
0100
1000
0000
,
0100
0000
0010
0000
0100
0001
0010
0100
,
1000
0000
0001
0000
1000
0000
0100
0010
,
0100
0000
0100
0000
1000
0100
0010
0100
,
0010
0000
1000
0000
0100
0000
0001
0100
,
0001
0010
1000
0001
0100
0000
0010
0001
,
0000
0100
0000
0001
0100
0000
0100
0000
,
1010
0000
1100
0000
0010
0000
1000
0010
,
0100
0001
1000
0001
0010
0000
0010
1000
,
0001
0000
0100
0000
0100
0010
0100
0000
,
1000
0010
1000
0000
0010
0000
1000
0000
,
0010
0000
1000
0000
0100
0001
0010
0100
,
0000
0100
1000
0001
0010
0001
0010
0001
,
0000
0010
1000
0000
0020
0000
1030
0020
,
0000
0032
0000
0023
0000
0130
1000
0001
,
0010
0000
0100
0000
0010
0001
1000
0100
,
0000
0100
0000
0010
0000
0010
0100
0000
,
0100
0010
1000
0000
0101
0000
1000
0100
,
0010
0000
1000
0000
0011
0000
0010
0001
,
1000
0000
0100
0000
0110
0000
1000
0001
,
0010
0100
1000
0001
0100
0010
1000
0100
,
0010
0001
0100
0010
1000
0001
0010
0100
,
1000
0010
0100
0001
1000
0100
0010
0001
,
1000
0100
0010
0001
0100
0010
1000
0001
,
0100
0010
1000
0001
0010
0100
1000
0010
,
0100
0001
1000
0100
0010
0001
1000
0010
,
0100
0001
0010
0100
1000
0001
0010
0000
,
0100
0000
0010
0000
1000
0000
0100
0001
,
0200
0000
0010
0000
0310
0000
1000
0100
,
0010
0001
1000
0001
0100
0000
0010
0100
,
1000
0000
0010
0100
2000
0000
0100
0000
,
0100
0000
3100
0001
1000
0000
0010
0000
,
0010
0100
0010
0100
1000
0000
1000
0000
,
0110
0000
1100
0000
0002
0000
1003
0100
,
0020
0000
1000
0000
0100
0000
1030
0100
,
0010
0001
0010
0000
0010
0001
1000
0010
,
0000
0010
0100
0010
1000
0001
0100
0010
,
0000
0010
1000
0000
0200
0000
1300
0002
,
0000
0203
0000
0320
0000
0031
0010
0000
,
1000
0000
1000
0001
0010
0000
0010
0200
,
0000
0302
0000
0203
0000
0310
1000
0000
,
0101
0000
1010
0000
0100
0010
0100
0000
,
1000
0100
0010
0000
0010
0001
1000
0000
,
1000
0100
1000
0000
0100
0010
1000
0100
,
0000
0010
0100
0010
1000
0001
0100
0010
,
0000
0010
0100
0000
2000
0000
3010
0200
,
0000
0300
1000
0000
0100
0000
0100
0000
,
0010
0000
0010
0001
0100
0000
0100
0001
,
0000
0010
0000
0001
0000
0010
1000
0000
,
1000
0010
0100
0001
0100
0000
1000
0001
,
1000
0000
1000
0010
0100
0000
0010
0001
,
0010
0000
1000
0000
0100
0010
0100
0001
,
0100
0000
0001
0000
0010
0000
0100
0000
0011
0000
0000
1001
0000
0000
1100
0000
;
