#VERSION:0.83;
#TITLE:MARIA (Airplay Mix);
#ARTIST:ROSS;
#GENRE:EURODANCE;
#MUSIC:MARIA (Airplay Mix).ogg;
#BANNER:MARIA (Airplay Mix)-bn.png;
#BACKGROUND:MARIA (Airplay Mix)-bg.png;
#CDTITLE:./CDTITLES/DANCEMANIA PRESENTS AKI MONOGATARI 2007.PNG;
#SAMPLESTART:68.767;
#SAMPLELENGTH:15;
#OFFSET:-0.665;
#BPMS:0=140;

//--------------- dance-single - B. M'Rey ----------------
#NOTEDATA:;
#STEPSTYPE:dance-single;
#DESCRIPTION:B. M'Rey;
#DIFFICULTY:Beginner;
#METER:2;
#RADARVALUES:0,0,0,0,0;
#NOTES:
0000
0000
0000
0000
,
0000
0000
0000
0000
,
0000
0000
0000
0000
,
0000
0000
0000
0000
,
1000
0000
0000
0000
,
0010
0000
0000
0000
,
0100
0000
0000
0000
,
0001
0000
0000
0000
,
1000
0000
0010
0000
,
0100
0000
0001
0000
,
0010
0000
0001
0000
,
1000
0000
0010
0000
,
0100
0000
0010
0000
,
1000
0000
0001
0000
,
0010
0000
0001
0000
,
0100
0000
0000
0000
,
0010
0000
0001
0000
,
1000
0000
0000
0000
,
0010
0000
0000
0000
,
0100
0000
0000
0000
,
0001
0000
0000
0000
,
1000
0000
0010
0000
,
0100
0000
0000
0000
,
0010
0000
0000
0000
,
0001
0000
1000
0000
,
0010
0000
0000
0000
,
0100
0000
0010
0000
,
1000
0000
0000
0000
,
0001
0000
0000
0000
,
0010
0000
0100
0000
,
0010
0000
0000
0000
,
0001
0000
0000
0000
,
1000
0000
0000
0000
,
0010
0000
0100
0000
,
1001
0000
0000
0000
,
0110
0000
0000
0000
,
0001
0000
1000
0000
,
0010
0000
0100
0000
,
0010
0000
0000
0000
,
1001
0000
0000
0001
,
2000
0000
0000
0020
0000
0000
0000
0000
,
3030
0000
0001
0000
0100
0000
0000
0010
,
0000
2000
0000
0000
0000
0000
3000
0000
,
0001
0000
0010
0000
,
1001
0000
0010
0000
,
0110
0000
0000
0000
0010
0000
0000
1000
,
0000
0020
0000
0000
0000
0000
0030
0000
,
0001
0000
0000
0100
,
0020
0000
0000
0200
0000
0000
0000
0000
,
0330
0000
0001
0000
1000
0000
0000
0001
,
0000
2000
0000
0000
0000
3000
0000
0000
,
0100
0000
0000
0000
,
0001
0000
1010
0000
,
0010
0000
0110
0000
,
1000
0000
0000
0000
,
0001
0000
0000
0000
,
1000
0000
0000
0000
;

//--------------- dance-single - B. M'Rey ----------------
#NOTEDATA:;
#STEPSTYPE:dance-single;
#DESCRIPTION:B. M'Rey;
#DIFFICULTY:Easy;
#METER:6;
#RADARVALUES:0,0,0,0,0;
#NOTES:
0000
0000
0000
0000
,
0000
0000
0000
0000
,
0000
0000
0000
0000
,
0000
0000
0000
0000
,
0001
0000
0010
0000
,
0100
0000
0001
0000
,
0010
0100
0010
0100
,
0020
0000
0000
0000
,
0031
0010
0001
1000
,
0010
1000
0010
0100
,
0010
0100
0001
0100
,
0001
0010
0001
0100
,
0010
0100
0010
0100
,
0001
1000
0010
1000
,
0001
1000
0010
0100
,
0010
0000
0001
0000
,
0010
1000
0001
1000
,
0100
0000
0001
0000
,
0010
1000
0100
0000
,
0001
1000
0010
0000
,
0002
0000
0000
1003
,
0001
0100
0010
0100
,
0010
0000
0001
0000
,
1000
0000
0001
0000
,
0010
1000
0010
1000
,
0010
0000
0001
0000
,
0010
0100
0010
0000
,
0010
1000
0100
0000
,
0002
0000
0003
0010
,
0001
0100
0010
0100
,
0001
0000
0010
0000
,
1000
0000
0100
0000
,
0200
0000
0301
0010
,
0001
0000
0010
0000
,
0010
1000
0001
1000
,
0001
1000
0100
0010
,
0100
0000
0100
1000
,
0001
0000
0010
1000
,
0001
0000
0010
0000
,
1001
0000
0100
1000
,
0002
0000
0000
0200
0000
0000
0303
0000
,
0001
0000
0010
0000
0100
0000
1000
0100
,
0000
0020
0000
0000
0130
0000
0010
0000
,
1001
0110
0011
1000
,
0010
0000
0010
1000
,
0001
0000
0001
0010
,
0001
1000
0100
1000
,
0110
1001
0110
0101
,
0020
0000
0000
2000
0000
3030
0010
0000
,
0001
0000
0100
0000
0001
0000
0100
0010
,
0000
0200
0000
0000
0310
0000
1000
0000
,
0110
1001
0011
1100
,
0001
0000
0001
1000
,
0100
0000
0100
0010
,
0100
0000
0001
0000
,
1100
1100
1100
1100
,
0200
0000
0300
0000
;

//--------------- dance-single - B. M'Rey ----------------
#NOTEDATA:;
#STEPSTYPE:dance-single;
#DESCRIPTION:B. M'Rey;
#DIFFICULTY:Medium;
#METER:9;
#RADARVALUES:0,0,0,0,0;
#NOTES:
0000
0000
0000
0000
,
0000
0000
0000
0000
,
0000
0000
0000
0000
,
0000
0000
0000
0000
,
0001
1000
0001
1000
,
0001
0100
0010
0100
,
0001
0100
0010
1000
,
0100
1000
0001
1000
,
0001
1000
0001
0000
0001
0010
0100
0000
,
0001
0010
0001
0000
0010
1000
0100
0000
,
0010
1000
0010
0000
0010
0100
0001
0000
,
0001
1000
0001
0000
0100
0010
0100
0000
,
0100
1000
0001
0000
0001
0100
0001
0000
,
0010
0100
0010
0000
0010
1000
0001
0000
,
0001
0100
0001
0000
0010
0100
0010
0000
,
0010
1000
0001
0000
0001
0010
0001
0000
,
0001
1000
0001
1000
,
0001
0100
0010
0100
,
0010
0100
0001
0010
,
0001
0010
0100
0010
,
0001
0100
0001
0100
,
0001
1000
0010
1000
,
0010
0100
1000
0000
0001
0010
0100
0000
,
0010
1000
0100
0000
0010
0001
0100
0000
,
0100
1000
0100
0000
0001
0010
0000
0100
,
0000
1000
0000
0100
0000
1000
0010
0100
,
0010
0000
0001
0010
0001
0000
0101
0000
,
0010
1000
0000
0001
0000
1000
0010
0000
,
0010
0001
0100
0001
,
0010
1000
0010
0000
0010
0100
0000
0010
,
0000
0100
0001
0000
0100
0010
0100
0000
,
0100
1000
0001
0000
0001
0100
0001
0000
,
0200
0000
0000
0000
0000
1300
0001
1000
,
0001
1000
0000
0010
0000
0010
0000
1000
,
0001
0000
0001
0100
0001
0000
0100
1000
,
0001
0000
0100
0010
0001
0000
0100
0010
,
0001
0000
0100
0000
0010
1000
0010
0100
,
0010
1000
0000
0010
0001
0000
0100
0000
,
0001
0010
0001
0000
0001
1000
0100
0000
,
0200
0000
0301
0101
,
0002
0000
0010
0000
0013
0000
0001
0100
,
0010
0000
0010
0000
0001
0000
0001
1000
,
0001
0020
0000
0000
0100
0030
0001
1000
,
0101
0000
0101
0000
0110
0000
0010
1000
,
0010
0000
0001
0000
0001
0100
0010
0000
,
0110
0000
0010
0000
0001
0000
0001
0100
,
0000
0010
0000
0100
0010
0000
0010
1000
,
0110
0000
0110
0000
1100
0000
0001
1000
,
0200
0010
0301
0010
,
0001
0000
0001
0010
0001
0000
0010
1000
,
0000
0200
0000
0000
1300
0000
0001
0010
,
0011
0000
1100
0000
1100
0000
0010
0100
,
0010
0000
0010
0000
0001
1000
0001
1000
,
0100
0000
0001
0000
0010
0000
0010
1000
,
0000
0010
0000
0001
0000
1000
0000
1000
,
0200
0302
0023
2030
,
0200
0000
0000
0000
0000
0000
0000
3300
;

//--------------- dance-single - B. M'Rey ----------------
#NOTEDATA:;
#STEPSTYPE:dance-single;
#DESCRIPTION:B. M'Rey;
#DIFFICULTY:Hard;
#METER:12;
#RADARVALUES:0,0,0,0,0;
#NOTES:
0000
0000
0000
0000
,
0000
0000
0000
0000
,
0000
0000
0000
0000
,
0000
0000
0000
1000
,
0010
0100
0010
0000
0001
0010
0001
0000
,
0001
1000
0001
0000
0010
0100
0010
0000
,
0001
1000
0001
1000
0010
0100
0001
1000
,
0100
0010
0001
0100
0010
0100
0010
0100
0001
1000
0001
0100
0010
1000
0010
0100
,
0001
1000
0100
0000
0001
0000
1000
0000
0010
0001
0100
0000
0001
0000
0010
0000
,
0100
0010
1000
0000
0100
0000
1000
0000
0001
0010
0100
0000
0001
0000
1000
0000
,
0010
0001
0100
0000
0010
0000
0100
0000
0001
1000
0100
0000
0001
0000
1000
0000
,
0100
0010
1000
0000
0001
0000
0100
0000
0010
0001
1000
0000
0100
0000
1000
0000
,
0010
0100
1000
0000
0001
0000
0010
0000
0100
1000
0010
0000
0100
0000
1000
0000
,
0100
0001
1000
0000
0001
0000
0100
0000
0001
1000
0010
0000
0100
0000
1000
0000
,
0010
0001
0100
0000
0010
0000
1000
0000
0010
0100
1000
0000
0100
0000
0010
0000
,
0001
0010
1000
0000
0100
0000
0010
0000
0001
1000
0100
0000
0010
0000
1000
0000
,
0010
1000
0001
0010
0001
1000
0010
1000
,
0001
0100
0001
0100
,
0001
0010
0001
1000
0001
0000
0010
0000
,
0010
1000
0100
0010
0100
0000
0100
1000
,
0020
0000
0001
0000
0100
0000
0031
0010
,
0100
0000
0010
0000
0010
1000
0100
0000
,
0001
0000
0100
1000
0100
0000
0001
0010
,
0100
0000
0001
0100
0001
0000
0100
1000
,
0010
1000
0010
1000
0001
0010
0001
0010
,
0001
0000
0010
0000
1000
0010
0001
0100
,
0010
0100
0010
0100
0001
0000
0100
1000
,
0100
0010
0000
0010
0000
0100
0001
1000
,
0001
0000
0010
1000
0010
0000
0010
0100
,
0001
0100
0001
1000
0001
1000
0000
0100
,
0000
0010
0100
1000
0001
0000
0010
1000
,
0010
0000
0010
0100
0001
0000
0001
1000
,
0020
0000
1000
0000
0001
1030
0001
0100
,
0010
0100
0000
1000
0000
0001
0000
1000
,
0010
0000
0100
0010
0000
0000
0100
0000
0001
0000
0100
0010
0000
0000
1000
0000
,
0010
0000
1000
0001
0000
0000
1000
0000
0001
0000
0100
0001
0000
0000
1000
0000
,
0100
1000
0100
1000
0001
0010
0001
0010
,
0001
0200
0000
0301
0010
0000
0001
1000
,
0001
0000
0010
0001
0000
0000
0100
0000
0010
0000
0100
0010
0000
0000
0100
0000
,
0001
0000
1000
0010
0000
0100
0000
0010
0001
0000
1000
0000
0001
0000
0000
0000
,
0001
0100
0001
0000
0001
1000
0010
0000
0010
1000
0001
0000
0001
0010
0100
0000
,
0100
1000
0100
0000
0001
0000
1000
0000
0001
0000
0100
0000
0001
0000
0100
0000
,
0010
0100
0010
1000
0001
1000
0001
1000
,
0011
0000
1001
0000
1100
0000
0100
1000
,
1001
0000
0001
0100
0001
1000
0010
1000
,
1010
0000
0001
0100
0001
0100
0001
2000
,
0000
3020
0000
0130
0001
0010
0100
1000
,
1001
0000
1001
0000
0110
0000
0010
0100
,
0001
1000
0001
0000
0001
1000
0100
0000
0100
1000
0001
0000
0010
1000
0010
0000
,
0010
0100
0001
0000
0010
0000
1000
0000
0001
0000
1000
0000
0001
0000
1000
0000
,
0010
0100
0001
1000
0001
1000
0001
0100
,
1010
0000
1010
0000
1100
0000
0100
0010
,
0200
0000
0301
0000
0001
0100
0001
0100
,
0110
0000
0001
0000
0001
0100
0001
0010
,
0000
0100
0000
0010
0000
1000
0000
0010
,
1100
0000
0101
0000
0101
0000
0001
1000
,
0200
0000
0000
0020
0000
0000
0000
0330
;
